This file was generated by Ched 2.7.0.0.
#TITLE ""
#ARTIST ""
#DESIGNER ""
#DIFFICULTY 0
#PLAYLEVEL
#SONGID ""
#WAVE ""
#WAVEOFFSET 0
#JACKET ""
#REQUEST "ticks_per_beat 480"
#00002: 4
#BPM01: 200
#00008: 01
#TIL00: ""
#VOLUME: ""
#HISPEED 00
#MEASUREHS 00
#01615:0000000000130000
#01618:00000013
#0161b:0000000000000013
#02012:0000000000130013
#02018:00000013
#03516:0014
#03517:14
#03512:00000024
#03618:0000000000130013
#03615:0014000000001300
#03614:00340000
#03715:13
#0371b:00130000
#03716:0000001300000000
#03719:0013
#03714:0000000000130000
#03717:00000013
#03712:0000000000000013
#03812:0000001300000000
#03817:0013000000000000
#03818:0000000000130013
#03815:00000013
#03915:13
#03917:0000001300000000
#03914:0013
#03919:0000000000130000
#03916:00000013
#0391b:0000000000000013
#05018:0000000000130000
#0501b:0000000000000013
#05012:00133300000000000000000000000000
#05015:00000013
#05014:00330000
#05115:0000351500000015
#05112:1500000000150000
#05114:00000035
#05218:0000000000130013
#05215:00000013
#05518:0013000000130000
#0551b:0000001300000023
#05512:2323
#05515:00230023
#05318:00130013
#05315:0000001300130000
#0531b:0013
#05312:1300000000000013
#06318:0000000000130000
#06312:00130013
#0631b:0000001300000000
#06315:0013
#01718:0000000000000013
#01713:0000003300000000
#01710:41
#00115:0000130000000013
#0011b:23
#00118:0000002300230000
#00218:0013000000000000
#00318:0000130000000013
#00312:23
#00315:0000002300230000
#00415:0013000000000000
#00515:0000130000000013
#0051b:23
#00518:0000002300230000
#00618:0013000000000000
#00718:0000130000000013
#00712:23
#00715:0000002300230000
#00815:0013000000000000
#00812:0000001300000000
#00816:0024
#0181b:0000000000130000
#01815:00000013
#01818:0000000000000013
#01812:0013000000000000
#01912:1313
#0191b:0013000000000000
#01915:00130000
#01918:0000001300000000
#02218:0000000000130013
#02215:00000013
#0221b:13
#02412:1300000000000013
#02415:00003313000000000000000013000000
#02418:0000000000130000
#02312:13
#02315:0013
#02318:0000001300000013
#0281b:0000000000130013
#02815:00000013
#02515:0000000000000013
#0251a:0000003300000000
#0261b:13
#02612:0000000000130000
#02618:0033000000001300
#02615:0000000000000013
#02715:0000001300000000
#02718:0013
#0311b:13000013
#03112:0000001300000000
#03118:0013
#03115:0000000000130013
#03218:0000000000130013
#03215:00000013
#03212:0013000000000000
#03213:00330000
#03318:0000001300000000
#03315:0013
#0331a:0000000000000024
#03310:41
#0401b:0000001300000000
#04016:0013000000000000
#04015:0000000000130013
#04018:00000013
#04115:0000001300000000
#04118:0013
#04112:0000000000130024
#0411b:00000013
#04315:14
#04316:0000001400000000
#04312:0014
#04318:0000000000140000
#04314:00000014
#04417:0014000000000000
#04418:00340000
#04419:0000003400000000
#0491b:00130000
#04918:0000000000130000
#04915:23001313
#04912:0000000000000033
#04910:41
#05418:0000000000130000
#05415:0013330000001300
#0541b:0000000000000013
#06117:0000001300000000
#06114:0013
#06119:0000000000130000
#06116:00000013
#06112:00130000
#06118:13
#0611b:0000000000000023
#06618:0000000000120000
#06614:00000012
#09812:0000000000130000
#09814:0000240000000033
#09818:0024002400000000
#09813:00000033
#09915:13
#0991b:0000000000130000
#09913:00330000
#09914:0033000000000000
#0991a:00000033
#10018:13
#10016:0000000000120000
#10019:0033000000000000
#10015:00000032
#10014:0000000000000032
#10113:00000012000000000000000000000000
#1011a:0000000000000012
#10114:3200323232000000
#10318:0012
#1031a:1200323200323212
#01012:14
#0101a:0000002400000000
#01412:14
#0141a:0000002400000000
#0131a:14
#01312:0000002400000000
#0151a:14
#01512:0000002400000000
#02118:13
#0211b:00000013
#02115:0000000000000013
#03015:0000000000130013
#03018:00000013
#03012:13
#02915:13
#02912:00000013
#02918:0000000000000013
#04818:0000000000130013
#04815:00000013
#08615:0000000000130000
#08612:0000000000000013
#0861b:00133300000000000000000000000000
#08618:00000013
#08619:00330000
#08610:41
#08716:0000351500000015
#08719:1500000000150000
#08717:00000035
#08815:0000000000130013
#08818:00000013
#09115:0013000000130000
#09112:0000001300000023
#0911b:2323
#09118:00230023
#09415:0000000000130000
#09418:00000013
#09412:0000000000000013
#0941b:0013000000000000
#0941a:00330000
#09618:0000000000130013
#09615:0013000000001300
#09518:00000013
#09512:0000000000000013
#0951b:13
#09515:0000001300000000
#08915:00130013
#08918:0000001300130000
#08912:0013
#0891b:1300000000000013
#08512:00130000
#08515:0000000000130000
#08518:23001313
#0851f:21
#0851b:0000000000000033
#09015:0000000000130000
#09018:0013330000001300
#09012:0000000000000013
#09315:0013
#0931b:0000000000130000
#09312:00000013
#09318:0000000000000013
#09715:13
#09716:0000001300000000
#09719:0013
#09714:0000000000130000
#09717:00000013
#0971b:00130000
#09712:0000000000000023
#08415:0000000000130013
#08418:00000013
#10216:0012000000120000
#10218:00120012
#10214:0000001200000012
#1041c:00120000
#01212:14
#0121a:0000002400000000
#0111a:14
#01112:0000002400000000
#05918:0000001300000000
#05912:13
#0591b:0000000000000013
#05915:00000013
#05910:41
#05715:0000000000000013
#0571b:00000013
#05712:0000000000130000
#05718:0013
#05812:0013000000000000
#0581b:0000000000000013
#05815:00000013
#05818:0000000000130000
#05813:00330000
#06018:0013000000001300
#06015:0000000000130013
#06718:0000000000000012
#06415:0000001300000000
#06418:0000000000120012
#06416:00000012
#06915:1300000000000013
#06912:00000000330033130000330000000000
#07012:00003300331333000000330000000000
#07118:1300000000000013
#0711b:00000000330033130000330000000000
#0721b:00003300331333000000330000000000
#07315:13
#07312:00000000330033130000330000000000
#07318:0000000000000013
#07310:41
#0741b:00003300331333000000330000000000
#07515:13
#07512:00000000330033130000330000000000
#07518:0000000000000013
#0751f:11
#0761b:00003300331333000000330000000000
#0771b:00130000
#07718:00000000000000000013330000000000
#07712:24
#07719:0000003300000000
#07815:0013000000330000
#07818:00130000
#07812:0000001300000000
#08018:0013000000330000
#08015:00130000
#0801b:0000001300000000
#07912:00130000
#07915:00000000000000000013330000000000
#0791a:24
#07914:0000003300000000
#08218:0000130000130000
#08212:0000001300001300
#08118:00130000
#08115:0000000000000013
#08112:24
#0811a:0000003300000000
#08315:00130000
#0831a:24
#08313:0000003300000000
#03414:0024002400000000
#03418:00240000
#04218:0024002400000000
#04214:00240000
#00912:0000002400000000
#06218:00240000
#06214:0024002400000000
#04715:3600003600360036
#04515:0000003600000036
#04615:0000003600000000
#00956:14
#03857:0013000000000000
#03852:0000001300000000
#03752:0000000000000013
#03955:53
#0395b:0000000000000013
#05155:0000005500000055
#05152:5500000000550000
#05658:0000001300000000
#0555b:0000000000000053
#0205b:0000001300000000
#02452:6300003300000000
#02455:00000023000000000000000000000000
#02352:63
#02355:0053
#0265b:63
#02658:0000001300000000
#0315b:53
#03155:0000000000000053
#02852:0000001300000000
#03252:0023000000000000
#03557:54
#0405b:0000001300000000
#04056:0013000000000000
#04355:64
#03655:0054000000000000
#04457:0064000000000000
#05352:0000000000000053
#05252:0000001500000000
#05455:0023000000000000
#09852:0000000000530000
#09955:53
#0995b:0000000000630000
#10058:63
#1005b:0000001300000000
#10056:0000000000620000
#10153:00000022000000000000000000000000
#10358:0022
#1035a:6200000000000052
#02152:0013
#02252:0000001300000000
#0305b:0000001300000000
#0295b:0013
#04955:13000053
#05052:00230000000000000000000000000000
#08756:0000006500000065
#08759:6500000000650000
#09552:0000000000000053
#0955b:63
#09555:0000006300000000
#09655:0023000000000000
#09652:0000003300000000
#0895b:0000000000000063
#09058:0023000000000000
#0945b:0023000000000000
#09358:0000130000000063
#08558:13000063
#0865b:00230000000000000000000000000000
#09152:0000000000000063
#09255:0000001300000000
#08859:0000001500000000
#1045c:00220000
#0605b:0000004300000000
#06058:0023000000000000
#05958:0000005300000000
#05952:53
#0595b:0000000000000063
#05755:0000130000000053
#05852:0023000000000000
#06758:0000000000000052
#06955:6300000000000053
#06952:00000000000000230000000000000000
#07052:00000000002300000000000000000000
#07158:5300000000000063
#0715b:00000000000000230000000000000000
#0725b:00000000002300000000000000000000
#07355:63
#07352:00000000000000230000000000000000
#07358:0000000000000063
#0745b:00000000002300000000000000000000
#07555:63
#07552:00000000000000230000000000000000
#07558:0000000000000063
#0765b:00000000002300000000000000000000
#0775b:00630000
#07758:00000000000000000023000000000000
#07852:0000006300000000
#07952:00530000
#07955:00000000000000000023000000000000
#0805b:0000005300000000
#08158:00530000
#08155:0000000000000063
#08355:00630000
#01852:0063000000000000
#01855:0000001300000000
#0023b0:0000001300002300
#004320:0000001300002300
#0063b0:0000001300002300
#006351:0000001300002300
#008361:00000000000000000000000000000000000000000000000000000000000000001455005500550055005500550055005500550055005500550055005500550055
#008351:0000000000000000000000000000000000555555555555555555555555555555
#009361:24
#009361:00001424
#010361:00001424
#0113a1:0014
#011361:00000024
#012321:0014
#012361:00000024
#013361:0014
#0133a1:00000024
#014361:0014
#014321:00000024
#015361:0014
#0153a1:00000024
#017351:1333
#017321:00330023
#017331:0000003300000000
#018321:0013000000000000
#018351:0000002300000000
#019381:00000013
#020381:33
#0203b1:0033002300000000
#021351:00130000
#021321:0023
#022351:0013000000000000
#022321:0000002300000000
#023321:13
#023351:00230000
#023351:0013
#023321:00000023
#024321:1300002300000000
#024351:00003353000000000000000000000000
#025381:1333
#0253b1:00330023
#0253a1:0000003300000000
#0263b1:13
#026381:0033002300000000
#0273b1:13230000
#027351:0000000000001333
#028321:0033002300000000
#029381:00130000
#0293b1:0023
#030381:0013000000000000
#0303b1:0000002300000000
#0313b1:13
#031381:00230000
#031351:0000000000000013
#032321:0033000000000000
#032331:00330000
#032351:0000002300000000
#033321:13
#033351:00230000
#0343a1:0000000000140000
#034391:00000034
#034381:0000000000000034
#035371:34
#0353a1:00240000
#035321:00000014
#035331:0000000000000034
#036351:0034000000000000
#036341:00340000
#036321:0000002400000000
#039351:13
#039321:00230000
#0413b1:13
#041381:00230000
#042321:0000000000140000
#042331:00000034
#042341:0000000000000034
#043351:34
#043321:00240000
#0433a1:0000000000000014
#044371:0034000000000000
#044381:00340000
#044391:0000003400000000
#0443a1:00000024
#045351:1600003600000036
#046351:0000003600000000
#047351:3600003600360036
#048371:00220000
#049351:00000013
#049321:0000000000000033
#050321:00533300000000000000000000000000
#050341:00330000
#050351:0000002300000000
#051321:1500000000350000
#051351:0000353500000035
#051341:00000035
#052321:0000002500000000
#053321:0000000000000013
#054351:0033330000000000
#054321:0000002300000000
#0553b1:0000000000000013
#056381:0000002300000000
#056321:0000000000130000
#056331:00000033
#056341:0000000000000033
#057351:33230000
#057351:0000000000000013
#058321:0033000000000000
#058331:00330000
#058351:0000002300000000
#059321:13
#059351:00230000
#059381:0000001300000000
#0593b1:0000000000230000
#0593b1:0000000000000013
#060381:0053000000000000
#0603b1:0000002300000000
#0623b1:0000000000130000
#0623a1:00000033
#062391:0000000000000033
#063381:23
#0633b1:0000000000000013
#064381:0023000000000000
#065361:1200323232003200
#065341:0000000000000032
#066341:0032322200000000
#067381:1200323200323232
#0683b1:0022
#069351:1300000000000033
#069321:00000000330033530000330000000000
#070321:00003300335333000000330000000000
#070351:00000023
#071381:1300000000000033
#0713b1:00000000330033530000330000000000
#0723b1:00003300335333000000330000000000
#072381:00000023
#073351:1300000000000023
#073321:00000000330033530000330000000000
#073380:0000000000000013
#0743b0:00003300335333000000330000000000
#074380:00000023
#075350:1300000000000023
#075320:00000000330033530000330000000000
#075381:0000000000000013
#0763b1:00003300335333000000330000000000
#076381:00000023
#0773b1:0000130000000023
#077391:0000003300000000
#077381:00000000000000000053330000000000
#078321:0000001300000000
#078351:0000000000332300
#079321:0000130000000023
#079341:0000003300000000
#079351:00000000000000000053330000000000
#0803b1:0000001300000000
#080381:0000000000332300
#081381:00130000
#0813a1:0000003300000000
#0813b1:0000000000230000
#081351:0000000000000013
#082321:0023000000000000
#083351:00130000
#083331:0000003300000000
#083321:0000000000230000
#0833a1:0000000000000014
#0843a1:0024
#085381:00000013
#0853b1:0000000000000033
#0863b1:00533300000000000000000000000000
#086391:00330000
#086381:0000002300000000
#087391:1500000000350000
#087361:0000353500000035
#087371:00000035
#088391:0000002500000000
#0893b1:0000000000000013
#090381:0033330000000000
#0903b1:0000002300000000
#091321:0000000000000013
#092351:0000002300000000
#0923b1:0000000000130000
#0923a1:00000033
#092391:0000000000000033
#093381:33230000
#093381:0000000000000013
#0943b1:0033000000000000
#0943a1:00330000
#094381:0000002300000000
#0953b1:13
#095381:00230000
#095351:0000001300000000
#095321:0000000000230000
#095321:0000000000000013
#096351:0053000000000000
#096321:0000002300000000
#098321:0000000000130000
#098331:00000033
#098341:0000000000000033
#099351:33
#099341:0033000000000000
#099331:00330000
#099321:0000002300000000
#0993b1:0000000000130000
#0993a1:00000033
#100381:33
#100391:0033000000000000
#1003b1:0000002300000000
#100361:0000000000120000
#100351:00000032
#100341:0000000000000032
#101341:3200323232000000
#101331:00000052000000000000000000000000
#101361:00000022
#1033a1:1200323200323232
#103381:0032
#1043c1:00520000
#1053a1:0022000000000000
