This file was generated by Ched 2.7.0.0.
#TITLE ""
#ARTIST ""
#DESIGNER ""
#DIFFICULTY 0
#PLAYLEVEL
#SONGID ""
#WAVE ""
#WAVEOFFSET 0
#JACKET ""
#REQUEST "ticks_per_beat 480"
#00002: 4
#BPM01: 200
#00008: 01
#TIL00: ""
#VOLUME: ""
#HISPEED 00
#MEASUREHS 00
#0751f:11
#07518:0000120000000012
#07512:0000120000000012
#07516:1200001200000000
#0751c:1200001200000000
#0751a:0000000000120000
#07514:0000000000120000
#09812:0000161600130000
#09818:0000230000000016
#09815:0023000000001300
#0981b:0000002300000000
#09712:1600161600001616
#09718:00000000000000001300001300000000
#09715:0000000000130000
#0971b:0000001300000023
#04015:000000000000000000000000000000000000000000000000000000000000000000000000000000000000000000000000000000000000000000000000000000000000000000000000000000000000000000000000000000000000000000000000000000000000000000000000000000000000000000000000000000000000000000000000000000000000000000000000000000000000000000000000000000001300000000000000000000000000000000000000001300000000000000000000000000000000000000000000000000000000000000000000000000000000000000000000000000000000000000000000000000000000000000000000000000000000000000000000000000000000000000000000000000000000000000000000000000000000000000000000000000000000000000000000000000000000000000000000000000000000000000000000000000000000000000000000000000000000000000000000000000000000000000000000000000000000000000000000
#04012:0000000000000000000000000000000013000000000000000000000000000000160000000000000000000000000000000000001600001600140016000016000000000000000000000000000000000000160000000000000000000000000000000000000000000000000000000000000000000000000000000000000000000000
#04018:1600000026130016000000000000000016000000000000000000000000000000
#0401b:0000001300000000
#04016:0000000000000016
#04014:00000016
#04013:0000002400000000
#08712:1400002600261c26
#0871a:0000141400000014
#08715:0014
#08717:0014000000000000
#08718:26
#09517:1300131300000013
#09512:1300001300131813
#09516:0013000000000000
#0951b:0013
#08812:16000013
#08816:0000000000140014
#0881b:00000013
#08916:0000000013130000
#08917:0000130000000013
#08919:00000013
#08912:1300130000000013
#0891b:1300000000130000
#08914:0000001300000000
#09012:0000001300000000
#09014:00130000
#0901b:0013000000000000
#09016:0000000000140014
#09316:13
#09313:00000013
#09314:0000000000130000
#09315:0013
#09312:00130000
#0931b:13
#0921b:0000000000130000
#09212:0014000000000013
#09216:0014000000000000
#0941b:0013001300130000
#09417:00130000
#09412:0000000000000013
#09415:00000016
#09617:0014000000000000
#0961b:0000000000130000
#09618:00000013
#09612:0000000000130016
#09116:0014001400140014
#09118:00140014
#09114:1414
#0911a:0000000000000024
#09112:00220022
#0911c:2222
#05112:2600141400001c14
#05117:0014
#05115:0014000000000000
#0511a:14
#05118:0000002600260026
#05916:1300131300001813
#0591b:1300001300130013
#05917:0013000000000000
#05912:0013
#05910:41
#05218:16
#0521b:00000013
#05216:0000000000140014
#05212:00000013
#0851b:13000013
#08514:0000000000130013
#08519:0000000000130000
#08518:0000000000000013
#08516:00000013
#08517:0013
#08512:00131300
#0851f:21
#08615:1313000000000013
#08618:0013130000001300
#08612:1300000000130000
#0861b:0000130000130000
#08610:41
#06712:12
#0671c:0000001200120012
#0671a:00120012
#06718:0012000000000000
#08312:2500000000120000
#08314:0000001200000000
#08316:00120000
#08319:25252525
#07914:0000001200000000
#07912:25120000
#07919:25151515
#0811c:0000000000120000
#0811a:0000001200000000
#08118:00120000
#08112:25252525
#08119:25
#07612:0000001225000000
#07616:00120000
#0761c:00120000
#07618:0000001200000000
#07619:0025
#07316:0000120000000012
#0731c:0000120000000012
#07318:1200001200000000
#07312:1200001200000000
#07314:0000000000120000
#0731a:0000000000120000
#07310:41
#07418:0000121200001200
#07412:0000121200001200
#08012:0012000000001200
#08016:0000001200000000
#08014:00120000
#08019:15151515
#03915:00000000000000150000130000000000
#03912:1300001313000026
#0391b:0000000000000013
#03918:00000013
#03916:00130000
#03917:13
#08218:0012000000001200
#0821c:0000001200000000
#0821a:00120000
#08212:25252525
#0771a:0000001200000000
#0771c:00120000
#07712:25151515
#0781c:0012000000001200
#07818:0000001200000000
#0781a:00120000
#07812:15151515
#10114:0000001200120000
#10116:00120012
#10112:0012
#07218:0000000000120000
#07214:00120000
#07212:0012000000000000
#07216:00000012
#0721c:00000012
#07016:0000000000120000
#0701a:00120000
#0701c:0012000000000000
#07018:00000012
#07012:00000012
#0651c:12120000
#06516:12
#06518:0000000012001212
#0651a:0000001200000000
#06412:130000130000001c
#06418:1600130013131300
#06415:00001300000000000013001300000000
#0641b:0000001300000000
#03716:13000000000000150000000000000000
#03712:0000130000000013
#03718:0000000000130013
#0371b:1300001313000000
#03715:00000013
#03717:00130000
#0151b:0013002300130013
#01512:13131313
#01516:0000000000130000
#01517:13000023
#01417:13
#01412:13000023
#01416:0013002313000000
#0141b:00000013
#01316:13
#0131b:13000023
#01317:0013002313000000
#01312:00000013
#01012:13001323
#01017:13
#0101b:00000013
#01016:0000002300000000
#0631b:0000001300000000
#06318:0000000013000016
#06312:1600161600001300
#06315:0000000000130000
#06115:00000000000000001300001300000000
#06118:1600161600131616
#06112:0000001300000023
#06218:0023161600001300
#0621b:0000000000130000
#06212:0000002300000016
#06215:00230000
#0431c:1200000000000012
#0431a:00120012
#04318:0000001200120000
#04315:23
#04312:0023
#02212:13
#02216:0014001400000000
#02217:13
#02215:0000000000000013
#02218:00000013
#0221b:0000000000130000
#0221a:0024000000000000
#0301b:13
#03016:1314001400000000
#03018:0000000000000013
#03015:00000013
#03012:0024000000130000
#02916:18240000
#02912:00140013
#02919:0000000000000013
#02917:00000013
#0291a:0014
#02112:1814
#0211a:00140000
#02114:0000000000000013
#0211b:00000013
#02116:00240013
#00816:0000001200000000
#0081c:0000001200000000
#00812:0012000025000000
#00818:0012000000000000
#00819:0025
#00714:1200001200000000
#00712:00120000
#00716:0000000012000012
#0071c:0000002200000012
#00718:2200000000220000
#0051a:1200001200000000
#0051c:00120000
#00518:0000000012000012
#00512:0000002200000012
#00516:2200000000220000
#00618:0000001200000000
#00612:0000001200000000
#0061c:0012000000000000
#00616:0012000000000000
#0041c:0000001200000000
#00418:0012000000001200
#00416:0000001200000000
#00412:0012000000000000
#00212:0000001200000000
#00216:0012000000001200
#0021c:0012000000000000
#00218:0000001200000000
#0031c:0000000000220012
#00316:0000000012000012
#00312:0000120000120000
#00318:2200002200000000
#0991a:00001414
#09916:1400141413140014
#09912:0014001300001400
#09917:0013000000000000
#0991b:13
#10012:1400001400000000
#10016:0014000024000000
#1001a:1400001400001200
#1001b:0000000000000012
#10019:0000000000120000
#05317:0000000013130000
#05316:0000130000000013
#05314:00000013
#0531b:1300130000000013
#05312:1300000000130000
#05319:0000001300000000
#0541b:0000001300000000
#05419:00130000
#05412:0013000000000000
#05416:0000000000140014
#10312:1200000032323232000000001200000000000000000000000000000000000000
#10314:00000012
#10316:0000000000120000
#1031a:00000012
#08418:0000000000130013
#0841b:00000013
#08412:0027
#04912:13000013
#04919:0000000000130013
#04914:0000000000130000
#04915:0000000000000013
#04917:00000013
#04916:0013
#0491b:00131300
#04910:41
#04815:0000000000130013
#04812:00000013
#04817:0027
#04418:0012000000000000
#04415:23
#04412:0023
#0441a:00320000
#0241a:1414000000000000
#02416:00142400
#02415:0000000000130013
#02412:1414000000001300
#0231b:0013
#02313:0013000000000000
#02318:0000000000000013
#02319:00000013
#0231a:0000000000130000
#02314:00130000
#02315:0000001300000000
#02312:13
#03118:00001313
#0311b:0000000000130013
#03112:0013001300000000
#03115:13130000
#01217:0013
#0121b:13000013
#01216:13
#01212:0000002300002300
#00018:000000000000000000000000000000000000001200000000
#00016:0012
#0001b:00000000000000000000000000000032
#0001a:0000000000000032
#03512:120013140013000000000000000000000000000000000000000000000000000000000000000000000000000000000000
#03517:0000000012000012
#03516:12
#0351c:0000000012002222
#10412:0012000000000000
#10417:00000012
#10415:0012
#0601b:0000000000130000
#06015:0014000000001300
#06018:0000000000000016
#06012:0000000000130000
#05717:13
#0571a:00000013
#05719:0000000000130000
#05718:0013
#0571b:00130000
#05712:13
#05612:0000000000130000
#0561a:0014000000000000
#05616:0014000000000000
#0561b:0000000000000013
#10214:0000001200000012
#10216:00120012
#10218:0000000000120000
#05018:1313000000000013
#05015:0013130000001300
#0501b:1300000000130000
#05012:0000130000130000
#03418:0000000000000012
#0341a:0024000000001200
#03412:0000000000000000000000000000000000002c00000000000000000000001700191a1800150017181600130015161400
#0341c:0000000000120000
#03416:00280000
#02815:0033000000001300
#02816:000000000000000000000000000000000000000000000000000000000000000000000000000000000000000000000000000000000000000000000000001300000000000000000000000000000000000000000000000000000000000000000000000000000000000000000000000000000000000000000000000000000000000000000000000000000000000000000000000000000000000000000000000000000000000000000000000000000000000000000000000000000000000000000000000000000000000000000000000000000000000000000000000000000000000000000000000000000000000000000000000000000000000000000000000000000000000000000000000000000000000000000000000000000000000000000000000000000000000000000000000000000000000000000000000000000000000000000000000000000000000000000000000000000000000000000000000000000000000000000000000000000000000000000000000000000000000000000000000000000000000000000000000000000000000000000000000000000000000000000000000000000000000000000000000000000000000000000000000000000000000000000000000000000000000000000000000000000000000000000000000000000000000000000000000000000000000000000000000000000000000000000000000000000000000000000000000000000000000000000000000000000000000000000000000000000000000000000000000000000000000000000000000000000000000000000000000000000000000000000000000000000000000000000000000000000000000000000000000000000000000000000000000000000000000000000000000000000000000000000000000000000000000000000000000000000000000000000000000000000000000000000000000000000000000000000000000000000000000000000000000000000000000000000000000000000000000000000000000000000000000000000000000000000000000000000000000000000000000000000000000000000000000000000000000000000000000000000000000000000000000000000000000000000000000000000000000000000000000000000000000000000000000000000000000000000000000000000000000000000000000000000000000000000000000000000000000000000000000000000000120000000000000000000000000000000000000000000000000000000000000000000000000000000000000000000000000000000000000000000000
#02818:0033000000000013
#02812:0000130000130000
#02817:00130000000000000000000000000000
#0281b:00130000
#05812:0013001300130000
#05816:00130000
#0581b:0000000000000013
#05815:00000016
#03818:0000161300001300
#03812:1600001316000000
#0381b:0013000000130000
#03815:0013000000000013
#0191b:13131300
#01918:0013001300000000
#01912:13001324
#01917:0000000000000013
#01915:00130000
#02718:00130013
#0271b:1300000013000013
#02712:1300130013000013
#02715:0013001300001300
#0321b:0000131300000000
#03216:1300001300001600
#03212:0013000000000000
#03214:0000130000000016
#03218:0000000000160000
#01616:0013
#01618:0000000000130013
#0161b:00000013
#07116:1200001200120000
#0711c:1200001200120012
#07112:0000120000000012
#07118:00120000
#0691c:0000120000000012
#06912:0000001200120012
#06918:0000001200120000
#06916:00120000
#06817:00000012000000000000000000000000
#06612:0000001200001200
#06616:0012000000120000
#06614:00120000
#05516:0014001400140014
#05514:00140014
#05518:1414
#05512:2200000022000024
#0551c:00220022
#03615:0013001300001300
#03618:0000130000000013
#03617:12
#03612:0000000000130000
#0201b:0000001300130000
#02019:0013000000000000
#02018:00000000000000000000000013000012
#02015:0000000000000013
#02016:00240000
#02014:24
#01116:0013
#01112:13000013
#01117:13
#0111b:0000002300002300
#0421a:0000000000000012
#04218:00000012
#04216:1300000000120000
#04212:0024282c00000000
#0331b:0000001300000023
#03318:2613
#03315:00161300
#03312:2600001300000023
#03310:41
#02618:0000000000000013
#02615:00000013
#0261b:1313000000130000
#02617:00130000
#02616:0013000000000000
#02612:13130000
#01812:1313000000130000
#01816:00130000
#01817:0013000000000000
#0181b:13130000
#01815:0000000000000013
#01818:00000013
#01715:0000001300000013
#01712:22131313
#01719:0000001300000013
#01710:41
#02518:0000001300000013
#0251b:00131313
#02514:0000001300000013
#04118:2600001300001300
#04115:0000130000130000
#04112:2600000013000023
#0411b:0000000000000023
#00912:00000013
#0091b:00001323
#00919:25
#00917:0000002300000000
#00112:0000000000220012
#00118:0000000012000012
#0011c:0000120000120000
#00116:2200002200000000
#04718:00360036
#04712:3600003600360036
#04618:0036360000363636
#04612:0000003600000000
#04518:00000000360000003600003636000000
#04512:0000003600000036
#08857:0000004700000000
#08852:26
#09355:0000000000000043
#09357:00130000
#09352:00130000
#0935b:63
#09256:0024004400000000
#0925a:0000004400000000
#09252:0024000000000000
#09652:0000003400000000
#09657:0024000000000000
#07759:45
#07758:0000000000000012
#07752:35
#05252:0000003700000000
#05258:26
#08655:2353003300000000
#08658:0053233300000000
#0865b:00230000
#08652:23
#08356:0000000000000012
#08359:45
#08352:0000000000520000
#07956:0000000000000012
#07959:45
#08158:0000000000000012
#08152:35
#0815c:0000000000620000
#04957:17000023
#04952:53000023
#04955:0000000000000063
#04959:0000000000000063
#08552:17
#0855b:63000023
#08558:0000000000000053
#08556:00000023
#08554:0000000000000053
#00952:35
#00959:45
#05058:2363004300000000
#05055:0063234300000000
#05052:00230000
#0505b:23
#02956:0044
#02952:00240000
#0295a:0044
#0305a:0000004400000000
#03056:0024004400000000
#02156:0034
#0215a:00240000
#02152:0034
#04452:00000013
#0445c:00000012
#04458:0022000000000000
#02855:0000001300000000
#02858:0000001300000000
#02856:000000000000000000000000000000000000000000000000000000000000000000000000000000000000000000000000000000000000000000000000006300000000000000000000000000000000000000000000000000000000000000000000000000000000000000000000000000000000000000000000000000000000000000000000000000000000000000000000000000000000000000000000000000000000000000000000000000000000000000000000000000000000000000000000000000000000000000000000000000000000000000000000000000000000000000000000000000000000000000000000000000000000000000000000000000000000000000000000000000000000000000000000000000000000000000000000000000000000000000000000000000000000000000000000000000000000000000000000000000000000000000000000000000000000000000000000000000000000000000000000000000000000000000000000000000000000000000000000000000000000000000000000000000000000000000000000000000000000000000000000000000000000000000000000000000000000000000000000000000000000000000000000000000000000000000000000000000000000000000000000000000000000000000000000000000000000000000000000000000000000000000000000000000000000000000000000000000000000000000000000000000000000000000000000000000000000000000000000000000000000000000000000000000000000000000000000000000000000000000000000000000000000000000000000000000000000000000000000000000000000000000000000000000000000000000000000000000000000000000000000000000000000000000000000000000000000000000000000000000000000000000000000000000000000000000000000000000000000000000000000000000000000000000000000000000000000000000000000000000000000000000000000000000000000000000000000000000000000000000000000000000000000000000000000000000000000000000000000000000000000000000000000000000000000000000000000000000000000000000000000000000000000000000000000000000000000000000000000000000000000000000000000000000000000000000000000000000000000000000000000000000000000000000000000000000000000000000000000000000000000000000000000000000000000000000000000000000000000000000000000
#02852:00230000
#02857:00530000000000000000000000000000
#0285b:00230000
#0695c:12
#06956:12
#05758:0000000000000033
#05756:00130000
#0575b:00130000
#05752:53
#05656:0024003400000000
#05652:0000003400000000
#0565a:0024000000000000
#01852:0063003300000000
#01857:0063003300000000
#01856:00230000
#0185b:00230000
#0265b:0053004300000000
#02656:0053004300000000
#02657:00230000
#02652:00230000
#02559:15
#02452:0064003400000000
#02456:00240000
#0605a:0000004400000000
#06055:0024000000000000
#02252:0000003400000000
#02256:0024003400000000
#0015c:42
#08752:6400003600360036
#08758:46
#0875a:0000005400000054
#08755:0024
#08757:0024000000000000
#0915a:0000000000000054
#09156:0000000000000054
#05158:0000004600460046
#05152:3600006400000064
#05157:0024
#05155:0024000000000000
#0515a:54
#01752:12
#04152:16
#04158:16
#0415b:0000000000000063
#03358:1663
#03352:16
#03355:0063
#04053:0000005400000000
#04055:000000000000000000000000000000000000000000000000000000000000000000000000000000000000000000000000000000000000000000000000000000000000000000000000000000000000000000000000000000000000000000000000000000000000000000000000000000000000000000000000000000000000000000000000000000000000000000000000000000000000000000000000000000002300000000000000000000000000000000000000002300000000000000000000000000000000000000000000000000000000000000000000000000000000000000000000000000000000000000000000000000000000000000000000000000000000000000000000000000000000000000000000000000000000000000000000000000000000000000000000000000000000000000000000000000000000000000000000000000000000000000000000000000000000000000000000000000000000000000000000000000000000000000000000000000000000000000000000
#04052:0000000000000000000000000000000033000000000000000000000000000000000000000000000000000000000000000000005600002600540056000026000000000000000000000000000000000000000000000000000000000000000000000000000000000000000000000000000000000000000000000000000000000000
#04058:0000000000530026000000000000000000000000000000000000000000000000
#0405b:0000004300000000
#05552:0000000000000064
#05556:0000000000000064
#0355c:0000000000000062
#03552:220063240063000000000000000000000000000000000000000000000000000000000000000000000000000000000000
#03557:0052
#03556:62
#09852:0000001600000000
#09752:1600001600000016
#09557:4300005300000043
#09556:0023000000000000
#0955b:0023
#09552:5300004300000053
#08956:0000000000230000
#08957:0000230000000063
#0895b:53
#08952:0000000000000063
#0905b:0023000000000000
#05956:3300006300000033
#05957:0023000000000000
#05952:0023
#0595b:6300003300000063
#06752:52
#0675c:0000000000000062
#07558:0000000000000062
#07552:0000000000000062
#07356:0000000000000052
#0735c:0000000000000052
#07358:12
#07352:12
#07458:0000002200000000
#07452:0000002200000000
#08056:0000006200000000
#0825c:0000006200000000
#07858:0000005200000000
#01557:53
#0155b:0023000000000000
#01452:53
#01456:0023000000000000
#0135b:63
#01357:0023000000000000
#01052:53
#0435c:0000000000000052
#00658:0000006200000000
#00652:0000006200000000
#00456:0000005200000000
#10052:34
#1005a:0000004400000000
#09956:1400001423000000
#09952:0000005300000000
#09957:0023000000000000
#0995b:63
#05357:0000000000230000
#05356:0000230000000053
#05352:63
#0535b:0000000000000053
#05452:0023000000000000
#10352:22
#01256:63
#00058:000000000000000000000000000000000000002200000000
#10452:0022000000000000
#10457:00000022
#10455:0052
#06556:62
#06558:0000000000000052
#06458:16
#03452:0000000000000000000000000000000000000000000000000000000000002700692a6800250067286600230065266400
#0385b:0043000000000000
#03852:0000003300000000
#03752:0000000000000033
#0395b:0000000000000043
#03957:53
#02758:00000053
#0275b:0000000000000023
#02755:00000063
#02752:0000000000000023
#03256:2300005300000000
#0315b:0000000000000053
#01656:0053
#06857:00000022000000000000000000000000
#06258:0000001600000000
#06158:1600001600000016
#03655:0000001300000000
#03657:22
#0205b:0000001300000000
#01157:53
#04256:23
#06352:1600001600000000
#00258:0000006200000000
#000380:000000000000000000000000125252525252523200000000
#000390:000000000000000000000000000000000000000000000000005200520052005200520052005200000000000000000000
#0003a0:0000000000000032
#0003b0:00000000000000000000000000000032
#0013c0:22
#002380:0000001200000000
#0023c0:00000022
#004360:0000001200000000
#004320:00000022
#006380:0000001200000000
#0063c0:00000022
#006321:0000001200000000
#006361:00000022
#008321:0015
#008341:00000000000000000000000000000000000000000000000000000000000000000055000055000000000000000000000000000000000000000000000055000055
#008331:0000000000000000000000000000000000550000000000000000000000000055
#008351:00000000000000000000000000000000000000000000000000000000000000000000005600005500000000000000000000000000000000000000550000550000
#008361:00000000000000000000000000000000000000000000000000000000000000000000000000560000550000000000000000000000000000005500005500000000
#008371:000000000000000000000000000000000000000000000000000000000000000000000000000000000000000000000000000000000000000000000000000000000000000000000000000000000000000000000000000000000000000000000000000000000000000000000000000000000000000000560000000000000000550000000000550000005500000055000000550000005500000055000000550000000000550000000000000000550000000000000000000000000000000000000000
#008381:00000000000000000000000000000000000000000000000000000000000000000000000000000000005600000000000000000000000000550000000000000000
#008391:000000000000000000000000000000000000000000000000000000000000000000000000000000000000000000000000000000000000000000000000000000000000000000000000000000000000000000000000000000000000000000000000000000000000000000000000000000000000000000000000000000000000000000550000000055000000550000005500000055000000550000005500000000550000000000000000000000000000000000000000000000000000000000000000
#009321:25
#009321:0000132300000000
#009371:0000000013230000
#010321:13
#010361:00230000
#0103b0:0000132300000000
#010360:0000000013230000
#011370:13
#0113b0:00230000
#011361:0000132300000000
#011321:0000000013230000
#012361:13
#012321:00230000
#012370:0000132300000000
#0123b0:0000000013230000
#0133b0:13230000
#013370:0053000000000000
#013321:0000132300000000
#0133b1:0000000013230000
#014321:13230000
#014361:0053000000000000
#0143b0:0000132300000000
#014320:0000000013230000
#015370:13230000
#0153b0:0053000000000000
#015360:0000000000000013
#016360:0033333333000000
#017320:22
#0173b1:13
#017361:00230000
#0173b1:0013
#017361:00000023
#018321:0013002300000000
#018361:00530000
#018370:0013002300000000
#0183b0:00530000
#019320:000000000000000000000000000000000000000000000000000000000000000000000000000000000000000000000000000000000000000000000000000000000000000000000000000000000000000000000000000000000000000000000000000000000000000000000000000000000000000000000000000000000000000000000000000000000000000000000000000000000000000000000000000000000000000000000000000000000000000000000000000000000000000000000000000000000000000000000000000000000000000000000000000000000000000000000000000000000000000000000000000000000000000000000000000000000000000000000000000000000000000000000000000000000000000000000000000000000000000000000000000000000000000000000000000000000000000000000000000000000000000000000000000000000000000000000000000000000000000000000000000000000000000000000000000000000000000000000000000000000000000000000000000000000000000000000000000000000000000000000000000000000000000000000000000000000000000000000000000000000000000000000000000000000000000000000000000000000000000000000000000000000000000000000000000000000000000000000000000000000000000000000000000000000000000000000000000000000000000000000000000000000000000000000000000000000000000000000000000000000000000000000000000000000000000000000000000000000000000000000000000000000000000000000000000000000000000000000000000000000000000000000000000000000000000000000000000000000000000000000000000000000000000000000000000000000000000000000000000000000000000000000000000000000000000000000000000000000000000000000000000000000000000000000000000000000000000000000000000000000000000000000000000000000000000000000000000000000000000000000000000000000000000000000000000000000000000000000000000000000000000000000000000000000000000000000000000000000000000000000000000000000000000000000000000000000000000000000000000000000000000000000000000000000000000000000000000000000000000000000000000000000000000000000000000000000000000000000000000000000000000000000000000000000000000000000000000000000000000000000000000000000000000000000000000000000000000000000000000000000000000000000000000000000000000000000000000000000000000000000000000000000000000000000000000000000000000000000000000000000000000000000000000000000000000000000000000000000000000000000000000000000000000000000000000000000000000000000000000000000000000000000000000000000000000000000000000000000000000000000000000000000000000000000000000000000000000000000000000000000000000000000000000000000000000000000000000000000000000000000000000000000000000000000000000000000000000000000000000000000000000000000000000000000000000000000000000000000000000000000000000000000000000000000000000000000000000000000000000000000000000000000000000000000000000000000000000000000000000000000000000000000000000000000000000000000000000000000000000000000000000000000000000000000000000000000000000000000000000000000000000000000000000000000000000000000000000000000000000000000000000000000000000000000000000000000000000000000000000000000000140000000000000000000000000000000000000000000000000000000000000000000000000000000000000000000000000000000000000000000000540052000000000000000000000000000000000000000000000000000000000000000000000000000000000000000000000000000000000000000000000000000000000000000000000000530000000000000000000000000000000000000000000000000000000000000000000000000000000000000000540000000000000000000000000000000000000000000000000000000000000000000000000000000000000000000000000000000000000000000000240000000000000000000000000000000000000000000000000000000000000000000000000000000000000000000000000000000000000000000000000000000000000000000000000000000000000000000000000000000000000000000000000000000000000000000000000000000000000000000000000000000000000000000000000000000000000000000000000000000000000000000000000000000000000000000000000000000000000000000000000000000000000000000000000000000000000000000000000000000000000000000000000000000000000000000000000000000000000000000000
#019330:000000000000000000000000000000000000000000000000000000000000000000000000000000000000000000000000000000000000000000000000000000000000000000000000000000000000000000000000000000000000000000000000000000000000000000000000000000000000000000000000000000000000000000000000000000000000000000000000000000000000000000000000000000000000000000000000000000000000000000000000000000000000000000000000000000000000000000000000000000000000000000000000000000000000000000000000000000000000000000000000000000000000000000000000000000000000000000000000000000000000000000000000000000000000000000000000000000000000000000000000000000000000000000000000000000000000000000000000000000000000000000000000000000000000000000000000000000000000000000000000000000000000000000000000000000000000000000000000000000000000000000000000000000000000000000000000000000000000000000000000000000000000000000000000000000000000000000000000000000000000000000000000000000000000000000000000000000000000000000000000000000000000000000000000000000000000000000000000000000000000000000000000000000000000000000000000000000000000000000000000000000000000000000000000000000000000000000000000000000000000000000000000000000000000000000000000000000000000000000000000000000000000000000000000000000000000000000000000000000000000000000000000000000000000000000000000000000000000000000000000000000000000000000000000000000000000000000000000000000000000000000000000000000000000000000000000000000000000000000000000000000000000000000000000000000000000000000000000000000000000000000000000000000000000000000000000000000000000000000000000000000000000000000000000000000000000000000000000000000000000000000000000000000000000000000000000000000000000000000000000000000000000000000000000000000000000000000000000000000000000000000000000000000000000000000000000000000000000000000000000000000000000000000000000000000000000000000000000000000000000000000000000000000000000000000000000000000000000000000000000000000000000000000000000000000000000000000000000000000000000000000000000000000000000000000000000000000000000000000000000000000000000000000000000000000000000000000000000000000000000000000000000000000000000000000000000000000000000000000000000000000000000000000000000000000000000000000000000000000000000000000000000000000000000000000000000000000000000000000000000000000000000000000000000000000000000000000000000000000000000000000000000000000000000000000000000000000000000000000000000000000000000000000000000000000000000000000000000000000000000000000000000000000000000000000000000000000000000000000000000000000000000000000000000000000000000000000000000000000000000000000000000000000000000000000000000000000000000000000000000000000000000000000000000000000000000000000000000000000000000000000000000000000000000000000000000000000000000000000000000000000000000000000000000000000000000000000000000000000000000000000000000000000000000000000000000000000000000000000000000000000000000000000000000000000000000000000000000000000000000000000000000000000000000000000000000000000000000000000000000000000000000000000000000000000000000000000000000000000000000000000000000000000000000000052530000000000000000000000000000000000000000000000000000000000005200000000000000000000000000000000000000000000000000000000000000000000000000000000000000000000000000000000000000000000000000000000000000000000000000000000000000000000000000000000000000000000000000000000000000000000000000000000000000000000000000000000000000000000000000000000000000000000000000000000000000000000000000000000000000000000000000000000000000000000000000000000000000000000000000000000000000000000000000000000000000000000000000000000000000000000000000000000000000000000000000000000000000000000000000000000000000000000000000000000000000000000000000000000000000000000000000000000000000000000000000000000000000000000000000000000000000000000000000000000000000000000000000000000000000
#019340:000000000000000000000000000000000000000000000000000000000000000000000000000000000000000000000000000000000000000000000000000000000000000000000000000000000000000000000000000000000000000000000000000000000000000000000000000000000000000000000000000000000000000000000000000000000000000000000000000000000000000000000000000000000000000000000000000000000000000000000000000000000000000000000000000000000000000000000000000000000000000000000000000000000000000000000000000000000000000000000000000000000000000000000000000000000000000000000000000000000000000000000000000000000000000000000000000000000000000000000000000000000000000000000000000000000000000000000000000000000000000000000000000000000000000000000000000000000000000000000000000000000000000000000000000000000000000000000000000000000000000000000000000000000000000000000000000000000000000000000000000000000000000000000000000000000000000000000000000000000000000000000000000000000000000000000000000000000000000000000000000000000000000000000000000000000000000000000000000000000000000000000000000000000000000000000000000000000000000000000000000000000000000000000000000000000000000000000000000000000000000000000000000000000000000000000000000000000000000000000000000000000000000000000000000000000000000000000000000000000000000000000000000000000000000000000000000000000000000000000000000000000000000000000000000000000000000000000000000000000000000000000000000000000000000000000000000000000000000000000000000000000000000000000000000000000000000000000000000000000000000000000000000000000000000000000000000000000000000000000000000000000000000000000000000000000000000000000000000000000052000000000000000000000000000000000000000000000000000000000000000000000000000000000000000000000000000000000000000000000000000000000000000000000000000000000000000000000000000000000000000000000000000000000000000000000000000000000000000000000000000000000000000000000000000000000000000000000000000000000000
#020340:140000000000000000000000000000000000000000000000000000000000000000000000000000000000000000000000000000000000000000000000540052000000000000000000000000000000000000000000000000000000000000000000000000000000000000000000000000000000000000000000000000000000000000000000000000530000000000000000000000000000000000000000000000000000000000000000000000000000000000000000540000000000000000000000000000000000000000000000000000000000000000000000000000000000000000000000000000000000000000000000240000000000000000000000000000000000000000000000000000000000000000000000000000000000000000000000000000000000000000000000000000000000000000000000000000000000000000000000000000000000000000000000000000000000000000000000000000000000000000000000000000000000000000000000000000000000000000000000000000000000000000000000000000000000000000000000000000000000000000000000000000000000000000000000000000000000000000000000000000000000000000000000000000000000000000000000000000000000000000000000000000000000000000000000000000000000000000000000000000000000000000000000000000000000000000000000000000000000000000000000000000000000000000000000000000000000000000000000000000000000000000000000000000000000000000000000000000000000000000000000000000000000000000000000000000000000000000000000000000000000000000000000000000000000000000000000000000000000000000000000000000000000000000000000000000000000000000000000000000000000000000000000000000000000000000000000000000000000000000000000000000000000000000000000000000000000000000000000000000000000000000000000000000000000000000000000000000000000000000000000000000000000000000000000000000000000000000000000000000000000000000000000000000000000000000000000000000000000000000000000000000000000000000000000000000000000000000000000000000000000000000000000000000000000000000000000000000000000000000000000000000000000000000000000000000000000000000000000000000000000000000000000000000000000000000000000000000000000000000000000000000000000000000000000000000000000000000000000000000000000000000000000000000000000000000000000000000000000000000000000000000000000000000000000000000000000000000000000000000000000000000000000000000000000000000000000000000000000000000000000000000000000000000000000000000000000000000000000000000000000000000000000000000000000000000000000000000000000000000000000000000000000000000000000000000000000000000000000000000000000000000000000000000000000000000000000000000000000000000000000000000000000000000000000000000000000000000000000000000000000000000000000000000000000000000000000000000000000000000000000000000000000000000000000000000000000000000000000000000000000000000000000000000000000000000000000000000000000000000000000000000000000000000000000000000000000000000000000000000000000000000000000000000000000000000000000000000000000000000000000000000000000000000000000000000000000000000000000000000000000000000000000000000000000000000000000000000000000000000000000000000000000000000000000000000000000000000000000000000000000000000000000000000000000000000000000000000000000000000000000000000000000000000000000000000000000000000000000000000000000000000000000000000000000000000000000000000000000000000000000000000000000000000000000000000000000000000000000000000000000000000000000000000000000000000000000000000000000000000000000000000000000000000000000000000000000000000000000000000000000000000000000000000000000000000000000000000000000000000000000000000000000000000000000000000000000000000000000000000000000000000000000000000000000000000000000000000000000000000000000000000000000000000000000000000000000000000000000000000000000000000000000000000000000000000000000000000000000000000000000000000000000000000000000000000000000000000000000000000000000000000000000000000000000000000000000000000000000000000000000000000000000000000000000000000000000000000000000000000000000000000000000000000000000000000000000000000000000000000000000
#020350:000000000000000000000000000000000000000000000000000000000000000000000000000000000000000000000000000000000000000000000000000000000000000000000000000000000000000000000000000000000000000000000000000000000000000052530000000000000000000000000000000000000000000000000000000000005200000000000000000000000000000000000000000000000000000000000000000000000000000000000000000000000000000000000000000000000000000000000000000000000000000000000000000000000000000000000000000000000000000000000000000000000000000000000000000000000000000000000000000000000000000000000000000000000000000000000000000000000000000000000000000000000000000000000000000000000000000000000000000000000000000000000000000000000000000000000000000000000000000000000000000000000000000000000000000000000000000000000000000000000000000000000000000000000000000000000000000000000000000000000000000000000000000000000000000000000000000000000000000000000000000000000000000000000000000000000000000000000000000000000000000000000000000000000000000000000000000000000000000000000000000000000000000000000000000000000000000000000000000000000000000000000000000000000000000000000000000000000000000000000000000000000000000000000000000000000000000000000000000000000000000000000000000000000000000000000000000000000000000000000000000000000000000000000000000000000000000000000000000000000000000000000000000000000000000000000000000000000000000000000000000000000000000000000000000000000000000000000000000000000000000000000000000000000000000000000000000000000000000000000000000000000000000000000000000000000000000000000000000000000000000000000000000000000000000000000000000000000000000000000000000000000000000000000000000000000000000000000000000000000000000000000000000000000000000000000000000000000000000000000000000000000000000000000000000000000000000000000000000000000000000000000000000000000000000000000000000000000000000000000000000000000000000000000000000000000000000000000000000000000000000000000000000000000000000000000000000000000000000000000000000000000000000000000000000000000000000000000000000000000000000000000000000000000000000000000000000000000000000000000000000000000000000000000000000000000000000000000000000000000000000000000000000000000000000000000000000000000000000000000000000000000000000000000000000000000000000000000000000000000000000000000000000000000000000000000000000000000000000000000000000000000000000000000000000000000000000000000000000000000000000000000000000000000000000000000000000000000000000000000000000000000000000000000000000000000000000000000000000000000000000000000000000000000000000000000000000000000000000000000000000000000000000000000000000000000000000000000000000000000000000000000000000000000000000000000000000000000000000000000000000000000000000000000000000000000000000000000000000000000000000000000000000000000000000000000000000000000000000000000000000000000000000000000000000000000000000000000000000000000000000000000000000000000000000000000000000000000000000000000000000000000000000000000000000000000000000000000000000000000000000000000000000000000000000000000000000000000000000000000000000000000000000000000000000000000000000000000000000000000000000000000000000000000000000000000000000000000000000000000000000000000000000000000000000000000000000000000000000000000000000000000000000000000000000000000000000000000000000000000000000000000000000000000000000000000000000000000000000000000000000000000000000000000000000000000000000000000000000000000000000000000000000000000000000000000000000000000000000000000000000000000000000000000000000000000000000000000000000000000000000000000000000000000000000000000000000000000000000000000000000000000000000000000000000000000000000000000000000000000000000000000000000000000000000000000000000000000000000000000000000000000000000000000000000000000000000000000000000000000000000000000000000000000000000000000000000000000000000000000000
#020360:000000000000000000000000000000000000000000000000000000000000000000000000000000000000000000000000000000000000000000000000000000000000000000000000000000000000000000000000000000000052000000000000000000000000000000000000000000000000000000000000000000000000000000000000000000000000000000000000000000000000000000000000000000000000000000000000000000000000000000000000000000000000000000000000000000000000000000000000000000000000000000000000000000000000000000000000000000000000000000000000000000000000000000000000000000000000000000000000000000000000000000000000000000000000000000000000000000000000000000000000000000000000000000000000000000000000000000000000000000000000000000000000000000000000000000000000000000000000000000000000000000000000000000000000000000000000000000000000000000000000000000000000000000000000000000000000000000000000000000000000000000000000000000000000000000000000000000000000000000000000000000000000000000000000000000000000000000000000000000000000000000000000000000000000000000000000000000000000000000000000000000000000000000000000000000000000000000000000000000000000000000000000000000000000000000000000000000000000000000000000000000000000000000000000000000000000000000000000000000000000000000000000000000000000000000000000000000000000000000000000000000000000000000000000000000000000000000000000000000000000000000000000000000000000000000000000000000000000000000000000000000000000000000000000000000000000000000000000000000000000000000000000000000000000000000000000000000000000000000000000000000000000000000000000000000000000000000000000000000000000000000000000000000000000000000000000000000000000000000000000000000000000000000000000000000000000000000000000000000000000000000000000000000000000000000000000000000000000000000000000000000000000000000000000000000000000000000000000000000000000000000000000000000000000000000000000000000000000000000000000000000000000000000000000000000000000000000000000000000000000
#020360:000000000000000000000000000000000000000000000000000000000000000000000000000000000000000000000000000000000000000000000000000000000000000000000000000000000000000000000000000000000000000000000000000000000000000000000000000000000000000000000000000000000000000000000000000000000000000000000000000000000000000000000000000000000000000000000000000000000000000000000000000000000000000000000000000000000000000000000000000000000000000000000000000000000000000000000000000000000000000000000000000000000000000000000000000000000000000000000000000000000000000000000000000000000000000000000000000000000000000000000000000000000000000000000000000000000000000000000000000000000000000000000000000000000000000000000000000000000000000000000000000000000000000000000000000000000000000000000000000000000000000000000000000000000000000000000000000000000000000000000000000000000000000000000000000000000000000000000000000000000000000000000000000000000000000000000000000000000000000000000000140000000000000000000000000000000000000000000000000000000000000000000000000000000000000000000000000000000000000000000000540052000000000000000000000000000000000000000000000000000000000000000000000000000000000000000000000000000000000000000000000000000000000000000000000000530000000000000000000000000000000000000000000000000000000000000000000000000000000000000000540000000000000000000000000000000000000000000000000000000000000000000000000000000000000000000000000000000000000000000000240000000000000000000000000000000000000000000000000000000000000000000000000000000000000000000000000000000000000000000000000000000000000000000000000000000000000000000000000000000000000000000000000000000000000000000000000000000000000000000000000000000000000000000000000000000000000000000000000000000000000000000000000000000000000000000000000000000000000000000000000000000000000000000000000000000000000000000000000000000000000000000000000000000000000000000000000000000000000000000000000000000000000000000000000000000000000000000000000000000000000000000000000000000000000000000000000000000000000000000000000000000000000000000000000000000000000000000000000000000000000000000000000000000000000000000000000000000000000000000000000000000000000000000000000000000000000000000000000000000000000000000000000000000000000000000000000000000000000000000000000000000000000000000000000000000000000000000000000000000000000000000000000000000000000000000000000000000000000000000000000000000000000000000000000000000000000000000000000000000000000000000000000000000000000000000000000000000000000000000000000000000000000000000000000000000000000000000000000000000000000000000000000000000000000000000000000000000000000000000000000000000000000000000000000000000000000000000000000000000000000000000000000000000000000000000000000000000000000000000000000000000000000000000000000000000000000000000000000000000000000000000000000000000000000000000000000000000000000000000000000000000000000000000000000000000000000000000000000000000000000000000000000000000000000000000000000000000000000000000000000000000000000000000000000000000000000000000000000000000000000000000000000000000000000000000000000000000000000000000000000000000000000000000000000000000000000000000000000000000000000000000000000000000000000000000000000000000000000000000000000000000000000000000000000000000000000000000000000000000000000000000000000000000000000000000000000000000000000000000000000000000000000000000000000000000000000000000000000000000000000000000000000000000000000000000000000000000000000000000000000000000000000000000000000000000000000000000000000000000000000000000000000000000000000000000000000000000000000000000000000000000000000000000000000000000000000000000000000000000000000000000000000000000000000000000000000000000000000000000000000000000000000000000000000000000000000000000000000000000000000000000000000000000000000000000000000000000000000000000000
#020370:000000000000000000000000000000000000000000000000000000000000000000000000000000000000000000000000000000000000000000000000000000000000000000000000000000000000000000000000000000000000000000000000000000000000000000000000000000000000000000000000000000000000000000000000000000000000000000000000000000000000000000000000000000000000000000000000000000000000000000000000000000000000000000000000000000000000000000000000000000000000000000000000000000000000000000000000000000000000000000000000000000000000000000000000000000000000000000000000000000000000000000000000000000000000000000000000000000000000000000000000000000000000000000000000000000000000000000000000000000000000000000000000000000000000000000000000000000000000000000000000000000000000000000000000000000000000000000000000000000000000000000000000000000000000000000000000000000000000000000000000000000000000000000000000000000000000000000000000000000000000000000000000000000000000000000000000000000000000000000000000000000000000000000000000000000000000000000000000000000000000000000000000000000000000000000000000000000000000000000000000000000000000000000000000000000000000000000000000000000000000000000000000000000000000000052530000000000000000000000000000000000000000000000000000000000005200000000000000000000000000000000000000000000000000000000000000000000000000000000000000000000000000000000000000000000000000000000000000000000000000000000000000000000000000000000000000000000000000000000000000000000000000000000000000000000000000000000000000000000000000000000000000000000000000000000000000000000000000000000000000000000000000000000000000000000000000000000000000000000000000000000000000000000000000000000000000000000000000000000000000000000000000000000000000000000000000000000000000000000000000000000000000000000000000000000000000000000000000000000000000000000000000000000000000000000000000000000000000000000000000000000000000000000000000000000000000000000000000000000000000000000000000000000000000000000000000000000000000000000000000000000000000000000000000000000000000000000000000000000000000000000000000000000000000000000000000000000000000000000000000000000000000000000000000000000000000000000000000000000000000000000000000000000000000000000000000000000000000000000000000000000000000000000000000000000000000000000000000000000000000000000000000000000000000000000000000000000000000000000000000000000000000000000000000000000000000000000000000000000000000000000000000000000000000000000000000000000000000000000000000000000000000000000000000000000000000000000000000000000000000000000000000000000000000000000000000000000000000000000000000000000000000000000000000000000000000000000000000000000000000000000000000000000000000000000000000000000000000000000000000000000000000000000000000000000000000000000000000000000000000000000000000000000000000000000000000000000000000000000000000000000000000000000000000000000000000000000000000000000000000000000000000000000000000000000000000000000000000000000000000000000000000000000000000000000000000000000000000000000000000000000000000000000000000000000000000000000000000000000000000000000000000000000000000000000000000000000000000000000000000000000000000000000000000000000000000000000000000000000000000000000000000000000000000000000000000000000000000000000000000000000000000000000000000000000000000000000000000000000000000000000000000000000000000000000000000000000000000000000000000000000000000000000000000000000000000000000000000000000000000000000000000000000000000000000000000000000000000000000000000000000000000000000000000000000000000000000000000000000000000000000000000000000000000000000000000000000000000000000000000000000000000000000000000000000000000000000000000000000000000000000000000000000000000000000000000000000000000000000000000000000000000000000000000000000000000000000000000000000000000000000000000000000000000000000000000000000000000000000000000
#020380:000000000000000000000000000000000000000000000000000000000000000000000000000000000000000000000000000000000000000000000000000000000000000000000000000000000000000000000000000000000000000000000000000000000000000000000000000000000000000000000000000000000000000000000000000000000000000000000000000000000000000000000000000000000000000000000000000000000000000000000000000000000000000000000000000000000000000000000000000000000000000000000000000000000000000000000000000000000000000000000000000000000000000000000000000000000000000000000000000000000000000000000000000000000000000000000000000000000000000000000000000000000000000000000000000000000000000000000000000000000052000000000000000000000000000000000000000000000000000000000000000000000000000000000000000000000000000000000000000000000000000000000000000000000000000000000000000000000000000000000000000000000000000000000000000000000000000000000000000000000000000000000000000000000000000000000000000000000000000000000000000000000000000000000000000000000000000000000000000000000000000000000000000000000000000000000000000000000000000000000000000000000000000000000000000000000000000000000000000000000000000000000000000000000000000000000000000000000000000000000000000000000000000000000000000000000000000000000000000000000000000000000000000000000000000000000000000000000000000000000000000000000000000000000000000000000000000000000000000000000000000000000000000000000000000000000000000000000000000000000000000000000000000000000000000000000000000000000000000000000000000000000000000000000000000000000000000000000000000000000000000000000000000000000000000000000000000000000000000000000000000000000000000000000000000000000000000000000000000000000000000000000000000000000000000000000000000000000000000000000000000000000000000000000000000000000000000000000000000000000000000000000000000000000000000000000000000000000000000000000000000000000000000000000000000000000000000000000000000000000000
#0213a0:00140000
#021360:0024
#022360:0014000000000000
#022320:0000002400000000
#023370:14
#0233a0:0000002400000000
#023350:0014
#023320:0000000000000024
#024320:0014002400000000
#024360:00540000
#024360:0014
#024380:00000000000000000000000000000000000000000000000000000000000000000054000054000000000000000000000000000000000000000000000000000000
#024370:0000000000000000000000000000000000540000000000000000000000000000
#024390:000000000000000000000000000000000000000000000000000000000000000000000000000000000000000000000000000000000000000000000000000000000000000000000000000000000000000000000000000000000000000000000000000000000000000000540000000000000000540000000000540000000000540000000000540000005400000054000000540000005400000054000000540000000000540000000000540000000000540000000000540000000000540000000000
#0243a0:00000000000000000000000000000000000000000000000000000000000000000000000000540000000000000000000000000000000000000000000000000000
#0243b0:000000000000000000000000000000000000000000000000000000000000000000000000000000000000000000000000000000000000000000000000000000000000000000000000000000000000000000000000000000000000000000000000000000000000000000000000000000000000000000530000000000530000000000530000000053000000530000005300000053000000530000005300000000530000000000530000000000530000000000530000000000530000000000530000
#025390:25
#025321:13
#025371:00230000
#025321:0013
#025371:00000023
#0263b1:0013002300000000
#026371:00530000
#026360:0013002300000000
#026320:00530000
#027380:00000013
#0273b0:0000000000000033
#028360:000000000000000000000000000000000000000000000000000000000000000000000000000000000000000000000000000000000000000000000000005300000000000000000000000000000000000000000000000000000000000000000000000000000000000000000000000000000000000000000000000000000000000000000000000000000000000000000000000000000000000000000000000000000000000000000000000000000000000000000000000000000000000000000000000000000000000000000000000000000000000000000000000000000000000000000000000000000000000000000000000000000000000000000000000000000000000000000000000000000000000000000000000000000000000000000000000000000000000000000000000000000000000000000000000000000000000000000000000000000000000000000000000000000000000000000000000000000000000000000000000000000000000000000000000000000000000000000000000000000000000000000000000000000000000000000000000000000000000000000000000000000000000000000000000000000000000000000000000000000000000000000000000000000000000000000000000000000000000000000000000000000000000000000000000000000000000000000000000000000000000000000000000000000000000000000000000000000000000000000000000000000000000000000000000000000000000000000000000000000000000000000000000000000000000000000000000000000000000000000000000000000000000000000000000000000000000000000000000000000000000000000000000000000000000000000000000000000000000000000000000000000000000000000000000000000000000000000000000000000000000000000000000000000000000000000000000000000000000000000000000000000000000000000000000000000000000000000000000000000000000000000000000000000000000000000000000000000000000000000000000000000000000000000000000000000000000000000000000000000000000000000000000000000000000000000000000000000000000000000000000000000000000000000000000000000000000000000000000000000000000000000000000000000000000000000000000000000000000000000000000000000000000000000000000000000000000000000000000000000000000000000000000000000000000000000000000000000000000000000000
#028350:0033002300000000
#028320:00530000
#027351:00000013
#027321:0000000000000033
#028371:00530000000000000000000000000000
#028381:0033002300000000
#0283b1:00530000
#029321:00140000
#029361:0024
#030361:0014000000000000
#0303a1:0000002400000000
#0313b1:13330000
#031371:0033002300000000
#031321:00001333
#031361:0000000000330023
#0313b0:0000000000000013
#032360:53
#0323b0:0023000000000000
#032360:0000001300000000
#032320:0000000000230000
#033350:0013
#033320:00000023
#033381:0013
#0333b1:00000023
#034321:0000000000000000000000000000000000000000000000000000000000001700595a5800550057585600530055565400
#035321:520053540053005200000000220000000000000000000000000000000000000000000000000000000000000000000000
#035360:12
#0353c0:00220000
#035370:0012
#035320:00000022
#0353c0:0000000000000012
#036370:52
#0363c0:0022000000000000
#039370:13
#0393b0:00230000
#039320:0000000000000000000000000000000000000000000000000000000016560055
#039340:000000000000000000000000000000000000000000000000000000000000000000000000000000000000000000000000000000000000000000000000000000000000000000000000000000000000000000000000000000000000000000000000000000000000000000000000000000000000000000000000000000000000000000000000000000000000000000000000000000000000000000000000000000000000000000000000000000000000000000000000000000000000000000000000000000000000000000000000000000000000000000000000000000000000000000000000000000000000000000000000000000000000000000000000000000000000000000000000000000000000000000000000000000000000000000000000000000000000000000000000000000000000000000000000000000000000000000000000000000000000000000000000000000000000000000000000000000000000000000000000000000000000000000000000000000000000000000000000000000000000000000000000000000000000000000000000000000000000000000000000000000000000000000000000000000000000000000000000000000000000000000000000000000000000000000000000000000000000000000000000000000000000000000000000000000000000000000000000000000000000000000000000000000000000000000000000000000000000000000000000000000000000000000000000000000000000000000000000000000000000000000000000000000000000000000000000000000000000000000000000000000000000000000000000000000000000000000000000000000000000000000000000000000000000000000000000000000000000000000000000000000000000000000000000000000000000000000000000000000000000000000000000000000000000000000000000000000000000000000000000000000000000000000000000000000000000000000000000000000000000000000000000000000000000000000000000000000000000000000000000000000000000000000000000000000000000000000000000000000000000000000000000000000000000000000000000000000000000000000000000000000000000000000000000000000000000000000000000000000000000000000000000000000000000000000000000000000000000000000000000000000000000000000000000000000000000000000000000000000000000000000000000000000000000000000000000000000000000000000000000000000000000000000000000000000000000000000000000000000000000000000000000000000000000000000000000000000000000000000000000000000000000000000000000000000000000000000000000000000000000000000000000000000000000000000000000000000000000000000000000000000000000000000000000000000000000000000000000000000000000000000000000000000000000000000000000000000000000000000000000000000000000000000000000000000000000000000000000000000000000000000000000000000000000000000000000000000000000000000000000000000000000000000000000000000000000000000000000000000000000000000000000000000000000000000000000000000000000000000000000000000000000000000000000000000000000000000000000000000000000000000000000000000000000000000000000000000000000000000000000000000000000000000000000000000000000000000000000000000000000000000000000000000000000000000000000000000000000000000000000000000000000000000000000000000000000000000000000000000000000000000000000000000000000000000000000000000000000000000000000000000000000000000000000000000000000000000000000000000000000000000000000000000000000000000000000000000000000000000000000000000000000000000000000000000000000000000000000000000000000000000000000000000000000000000000000000000000000000000000000000000000000000000000000000000000000000000000000000000000000000000000000000000000000000000000000000000000000000000000000000000000000000000000000000000000000000000000000000000000000000000000000000000000000000000000000000000000000000000000000000000000000000000000000000000000000000000000000000000000000000000000000000000000000000000000000000000000000000000000000005300000000000000000000000000000000000000000000000000000000000000000000000000000000000000000000000000000000000000000000000000000000000000000000000000000000000000000000000000000000000000000000000000000000000000000000000000000000000000000053000000000000000000000000000000000000000000000000000000000000000000000000000000000000000000000000000000000000000000000000
#040340:23
#040380:000000000000000000000000000000000000000000000000000000000000000000000000000000000000000000000000000000000000000000000000000000000000000000000000000000000000000000000000000000000000000000000000000000000000000000000000000000000000000000000000000000000000000000000000000000000000000000000000000000000000000000000000000000000000000000000000000000000000000000000000000000000000000000000000000000000000000000000000000000000000000000000000000000000000000000000000000000000000000000000000160000000000000000000000000000000000000000000000000000000000000000000000000000000000000000000000000000000000000000000056530000000000000000000000000000000000000000000000000000000000000000000000000000000000000000000000000000000000000000000000000000000000000000000000000000000000000000000000000000000000000000000000000000000000000000000000000000000000000000000000560000000000000000000000000000000000000000000000000000000000000000000000000000000000000000000000000000000000000000000000000000000000000000000000000000000000000000000000000000000000000000000000000000000000000000000000000000000000000000000000000000000000000000000000000000000000000000000000000000000000000000000000000000000000000000000000000000000000000000000000000000000000000000000000000000000000000000000000000000000000000000000000000000000000000000000000000000000000000000000000000000000000000000000000000000000000000000000000000000000000000000000000000000000000000000000000000000000000000000000000000000000000000000000000000000000000000000000000000000000000000000000000000000000000000000000000000000000000000000000000000000000000000000000000000000000000000000000000000000000000000000000000000000000000000000000000000000000000000000000000000000000000000000000000000000000000000000000000000000000000000000000000000000000000000000000000000000000000000000000000000000000000000000000000000000000000000000000000000000000000000000000000000000000000000000000000000000000000000000000000000000000000000000000000000000000000000000000000000000000000000000000000000000000000000000000000000000000000000000000000000000000000000000000000000000000000000000000000000000000000000000000000000000000000000000000000000000000000000000000000000000000000000000000000000000000000000000000000000000000000000000000000000000000000000000000000000000000000000000000000000000000000000000000000000000000000000000000000000000000000000000000000000000000000000000000000000000000000000000000000000000000000000000000000000000000000000000000000000000000000000000000000000000000000000000000000000000000000000000000000000000000000000000000000000000000000000000000000000000000000000000000000000000000000000000000000000000000000000000000000000000000000000000000000000000000000000000000000000000000000000000000000000000000000000000000000000000000000000000000000000000000000000000000000000000000000000000000000000000000000000000000000000000000000000000000000000000000000000000000000000000000000000000000000000000000000000000000000000000000000000000000000000000000000000000000000000000000000000000000000000000000000000000000000000000000000000000000000000000000000000000000000000000000000000000000000000000000000000000000000000000000000000000000000000000000000000000000000000000000000000000000000000000000000000000000000000000000000000000000000000000000000000000000000000000000000000000000000000000000000000000000000000000000000000000000000000000000000000000000000000000000000000000000000000000000000000000000000000000000000000000000000000000000000000000000000000000000000000000000000000000000000000000000000000000000000000000000000000000000000000000000000000000000000000000000000000000000000000000000000000000000000000000000000000000000000000000000000000000000000000000000000000000000000000000000000000000000000000000000000000000000000000000000000000000000000000000000000000000000000000000000000000000000000000000000000000000000000000000000000
#0403b0:000000000000000000000000000000000000000000000000000000000000000000000000000000000000000000000000000000000000000000000000000000000000000000000000000000000000000000000000000000000000000000000000000000000000000000000000000000000000000000000000000000000000000000000000000000000000000000000000000000000000000000000000000000000000000000000000000000000000000000000000000000000000000000000000000000000000000000000000000000000000000000000000000000000000000000000000000000000000000000000000000000000000000000000000000000000000000000000000000000000000000000000000000000000000000000000000000000000000000000000000000000000000000000000000000000000000000000000000000000000000000000000000000000000000000000000000000000000000000000000000000000000000000000000000000000000000000000000000000000000000000000000000000000000000000000000000000000000000000000000053000000000000000000000000000000000000000000000000000000000000000000000000000000000000000000000000000000000000000000000000000000000000000000000000000000000000000000000000000000000000000000000000000000000000000000000000000000000000000000000000000000000000000000000000000000000000000000000000000000000000000000000000000000000000000000000000000000000000000000000000000000000000000000000000000000000000000000000000000000000000000000000000000000000000000000000000000000000000000000000000000000000000000000000000000000000000000000000000000000000000000000000000000000000000000000000000000000000000000000000000000000000000000000000000000000000000000000000000000000000000000000000000000000000000000000000000000000000000000000000000000000000000000000000000000000000000000000000000000000000000000000000000000000000000000000000000000000000000000000000000000000000000000000000000000000000000000000000000000000000000000000000000000000000000000000000000000000000000000000000000000000000000000000000000000000000000000000000000000000000000000000000000000000000000000000000000000000000000000000000000000000000000000000000000000000000000000000000000000000000000000000000000000000000000000000000000000000000000000000000000000000000000000000000000000000000000000000000000000000000000000000000000000000000000000000000000000000000000000000000000000000000000000000000000000000000000000000000000000000000000000000000000000000000000000000000000000000000000000000000000000000000000000000000000000000000000000000000000000000000000000000000000000000000000000000000000000000000000000000000000000000000000000000000000000000000000000000000000000000000000000000000000000000000000000000000000000000000000000000000000000000000000000000000000000000000000000000000000000000000000000000000000000000000000000000000000000000000000000000000000000000000000000000000000000000000000000000000000000000000000000000000000000000000000000000000000000000000000000000000000000000000000000000000000000000000000000000000000000000000000000000000000000000000000000000000000000000000000000000000000000000000000000000000000000000000000000000000000000000000000000000000000000000000000000000000000000000000000000000000000000000000000000000000000000000000000000000000000000000000000000000000000000000000000000000000000000000000000000000000000000000000000000000000000000000000000000000000000000000000000000000000000000000000000000000000000000000000000000000000000000000000000000000000000000000000000000000000000000000000000000000000000000000000000000000000000000000000000000000000000000000000000000000000000000000000000000000000000000000000000000000000000000000000000000000000000000000000000000000000000000000000000000000000000000000000000000000000000000000000000000000000000000000000000000000000000000000000000000000000000000000000000000000000000000000000000000000000000000000000000000000000000000000000000000000000000000000000000000000000000000000000000000000000000000000000000000000000000000000000000000000000000000000000000000000000000000000000000000000000000
#040390:00240000
#040330:0000001424000000
#040320:0000000000000000000000000000000000000000000000000000000000000000000000000000000000000000000000000000005600005600540056000056000000000000000000000000000000000000000000000000000000000000000000000000000000000000000000000000000000000000000000000000000000000000
#040350:000000000000000000000000000000000000000000000000000000000000000000000000000000000000000000000000000000000000000000000000000000000000000000000000000000000000000000000000000000000000000000000000000000000000000000000000000000000000000000000000000000000000000000000000000000000000000000000000000000000000000000000053000000005300000000000000000000000000000053000000005300000000000000000000000000000000000000000000000000000000000000000000000000000000000000000000000000000000000000000000000000000000000000000000000000000000000000000000000000000000000000000000000000000000000000000000000000000000000000000000000000000000000000000000000000000000000000000000000000000000000000000000000000000000000000000000000000000000000000000000000000000000000000000000000000000000000000000000
#0413b0:0000000000000013
#042360:53
#0423b0:0023000000000000
#043350:13230000
#043320:00001323
#0433c0:0000000000000012
#044380:0032000000000000
#0443a0:00320000
#0443c0:0000003200002200
#044351:13230000
#044321:00001323
#045381:16000000360000003600003636000000
#046381:0036360000363636
#047381:00360036
#048361:00220000
#045320:1600003600000036
#046320:0000003600000000
#047320:3600003600360036
#048380:00220000
#048370:000000000000000000000000000000000000000000000000175757570000000000000000000000000000000000575757
#048380:000000000000000000000000000000000000000000000000000000000000000000000000000000000000000000000000005500000000000055005500550055005500550055005500550055005500550055005500550055005500000000000055
#048390:000000000000000000000000000000000000000000000000000000000000000000000000000000000000000000000000000000530053005300530053005300530053005300530053005300530053005300530053005300530053005300530000
#049370:27
#049321:13
#049361:00230000
#049371:00000013
#049391:0000000000000033
#0503b1:53
#050381:0033002300000000
#050351:00330000
#049320:00000013
#049350:0000000000000033
#050380:53
#050350:0033002300000000
#050320:00330000
#0513a0:14240000
#051360:000000000000000000000000000000000000000000000000000000000000000000000000000000000000000000000000000000000000000000000000000000000000000000000000000000000000000000000000000000000000000000000000000000000000000000000000000000000000005400000055000000000000000000000000000000000000000000000000000000000000000000000000000000000000000000000000000000000000000000000000000000000000000000000000000000000000000000000000000000000000000000000000000000000000000000000000000000000000000000000000000000000000000000000000000000000000000000000000000000000000000000000000000000000000000000000000000000000000000000000000000000000000000000000000000000000000000000000000000000000000000000000000000000000000000000000000000000000000000000000000000000000000000000000000000000000000000000000000000000000000000000000000000000000000000000000000000000000000000000000000000000000000000000000000000000000000000000000000000000000000000000000000000000000000000000000000000000000000000000000000000000000000000000000000000000000000000000000000000000000000000000000000000000000000000000000000000000000000000000000000000000000000000000000000000000000000000000000000000000000000000000000000000000000000000000000000000000000000000000000000000000000000000000000000000000000000000000000000000000000000000000000000000000000000000000000000000000000000000000000000000000000000000000000000000000000000000000000000000000000000000000000000000000000000000000000000000000000000000000000000000000000000000000000000000000000000000000000000000000000000000000000000000000000000000000000000000000000000000000000000000000000000000000000000000000000000000000000000000000000000000000000000000000000000000000000000000000000000000000000000000000000000000000000000000000000000000000000000000000000000000000000000000000000000000000000000000000000000000000000000000000000000000000000000000000000000000000000000000000000000000000000000000000000000000000000000000000000000000000000000
#051350:0054000000000000
#051320:0000001400240000
#051360:000000000000000000000000000000000000000000000000000000000000000000000000000000000000000000000000000000000000000000000000000000000000000000000000000000000000000000000000000000000000000000000054000000000000000000000000000000000000000000000000000000000000000000000000000000000000000000000000000000000000000000000000000000000000000000000000000000000000000000000000000000000000000000000000
#051350:000000000000000000000000000000000000000000000000000000000000000000000000000000000000000000000000000000000000000000000000000000000000000000000000000000000000000000000000000000000000000000000000000000000000000000000000000000000000000000000000000000000000000000000000000000000000000000000000000000000000000000000000000000000000000000000000000000000000000000000000000000000000000000000000000000000000000000000000000000000000000000000000000000000000000000000000000000000000000000000000000000000000000000000000000000000000000000000000000000000000000000000000000000000000000000000000000000000000000000000000000000000000000000000000000000000000000000000000000000000000000000000000000000000000000000000000000000000000000000000000000000000000000000000000000000000000000000000000000000000000000000000000000000000000000000000000000000000000000000000000000000000000000000000000000000000000000000000000000000000000000000000000000000000000000000000000000000000000000000000055000000000000000000000000000000000000000000000000000000000000000000000000000000000000000000000000000000000000000000000000000000000000000000000000000000000000000000000000000000000000000000000000000000000000000000000000000000000000000000000000000000000000000000000000000000000000000000000000000000000000000000000000000000000000000000000000000000000000000000000000000000000000000000000000000000000000000000000000000000000000000000000000000000000000000000000000000000000000000000000000000000000000000000000000000000000000000000000000000000000000000000000000000000000000000000000000000000000000000000000000000000000000000000000000000000000000000000000000000000000000000000000000000000000000000000000000000000000000000000000000000000000000000000000000000000000000000000000000000000000000000000000000000000000000000000000000000000000000000000000000000000000000000000000000000000000000000000000000000000000000000000000000000000000000000000000000000000000000000000000000
#051370:0054
#051320:0000000000000014
#051360:000000000000000000000000000000000000000000000000000000000000000000000000000000000000000000000000000000000000000000000000000000000000000000000000000000000000000000000000000000000000000000000000000000000000000000000000000000000000000000000000000000000000000000000000000000000000000000000000000000000000000000000000000000000000000000000000000000000000000000000000000000000000000000000056
#051350:000000000000000000000000000000000000000000000000000000000000000000000000000000000000000000000000000000000000000000000000000000000000000000000000000000000000000000000000000000000000000000000000000000000000000000000000000000000000000000000000000000000000000000000000000000000000000000000000000000000000000000000000000000000000000000000000000000000000000000000000000000000000000000000000000000000000000000000000000000000000000000000000000000000000000000000000000000000000000000000000000000000000000000000000000000000000000000000000000000000000000000000000000000000000000000000000000000000000000000000000000000000000000000000000000000000000000000000000000000000000000000000000000000000000000000000000000000000000000000000000000000000000000000000000000000000000000000000000000000000000000000000000000000000000000000000000000000000000000000000000000000000000000000000000000000000000000000000000000000000000000000000000000000000000000000000000000000000000000000000056
#052380:56
#052320:0000002700000000
#053320:1323
#053360:00530000
#053370:0000000000130000
#0533b0:0000000000000033
#054370:0023000000000000
#053361:0000000000000013
#054321:0033000000000000
#054361:0000002300000000
#0543b1:0000000000130000
#054381:00000023
#054350:00000013
#054320:0000000000000023
#055360:0000000000000014
#0563a0:0054000000000000
#056360:0000002400000000
#055321:0000000000000014
#056361:0054000000000000
#056321:0000002400000000
#056381:0000000000132300
#056350:0000000000001323
#057320:13
#057360:00230000
#057320:0013
#057340:0000000000330000
#057360:00000033
#057380:0000000000000023
#0573b1:0000000000000013
#058361:0033003300000000
#0583b1:0000330000230000
#0593b1:13230000
#059371:0053000000000000
#059361:0000001300230000
#059321:0053
#0593b1:0000000000000013
#060351:0054000000000000
#0603a1:0000002400000000
#061321:13230000
#061321:0000000000000013
#062321:0023000000000000
#062321:0000001300230000
#0633b1:13230000
#065361:12
#065321:00000000000000520000000000002200
#065380:0000000000000012
#0663c0:00000000000000520000000000000000
#0673c0:22
#067321:12
#067361:00000000000000520000000000002200
#0673c0:0000000000000012
#068370:00000052000000000000000000000000
#0683c0:000000000000000000000000000000000000000000000000325252525252525252525252525252525252525252525252
#0683b0:000000000000000000000000000000000000000000000000000000000000000000000000000000000000000000000000005200520052005200520052005200520052005200520052005200520052005200520052005200520052005200520052
#0693c0:22
#068361:000000000000000000000000000000000000000000000000125252525252525252525252525252525252525252525252
#068371:000000000000000000000000000000000000000000000000000000000000000000000000000000000000000000000000005200520052005200520052005200520052005200520052005200520052005200520052005200520052005200520052
#069361:22
#070361:0012000000000000
#070321:0000002200000000
#070380:0000001200000000
#0703c0:0000000000220000
#072380:0012000000000000
#0723c0:0000002200000000
#072361:0000001200000000
#072321:0000000000220000
#073361:0000000000000012
#074321:0022000000000000
#0733c0:0000000000000012
#074380:0022000000000000
#074380:0000001200000000
#0743c0:0000000000220000
#074321:0000001200000000
#074361:0000000000220000
#075381:0000000000000012
#0763c1:0022000000000000
#075320:0000000000000012
#076360:0022000000000000
#076390:0015
#076370:00000000000000000000000000000000000000000000000000000000000000000055000055000000000000000000000000000000000000000000000055000055
#076380:0000000000000000000000000000000000550000000000000000000000000055
#076350:00000000000000000000000000000000000000000000000000000000000000000000005600000000550000000000000000000000000000005500005500000000
#076340:000000000000000000000000000000000000000000000000000000000000000000000000000000000000000000000000000000000000000000000000000000000000000000000000000000000000000000000000000000000000000000000000000000000000000000000000000000560000000000000000000000000000550000000000550000005500000055000000550000005500000055000000550000000000550000000000000000550000000000000000000000000000000000000000
#076360:00000000000000000000000000000000000000000000000000000000000000000000000000005500000000000000000000000000000000000000550000550000
#076330:00000000000000000000000000000000000000000000000000000000000000000000000000000056000000000000000000000000000000550000000000000000
#076320:000000000000000000000000000000000000000000000000000000000000000000000000000000000000000000000000000000000000000000000000000000000000000000000000000000000000000000000000000000000000000000000000000000000000000000000000000000000000000000000000000000560000000000550000000055000000550000005500000055000000550000005500000000550000000000000000000000000000000000000000000000000000000000000000
#077390:25
#077380:0000000000120022
#078380:0000001200000000
#0783c0:0000000000220000
#079360:0000000000120022
#080360:0000001200000000
#080320:0000000000220000
#0813c0:0000000000120000
#081380:0000000000000022
#0823c0:0000001200000000
#082380:0000000000220000
#083320:0000000000120000
#083360:0000000000000022
#083391:0000000000000015
#0843b1:0023
#084320:000000000000000000000000000000000000000000000000175757570000000000000000000000000000000000575757
#084330:000000000000000000000000000000000000000000000000000000000000000000000000000000000000000000000000005500000000000055005500550055005500550055005500550055005500550055005500550055005500000000000000
#084340:000000000000000000000000000000000000000000000000000000000000000000000000000000000000000000000000000000530053005300530053005300530053005300530053005300530053005300530053005300530053005300530053
#085320:27
#0853b1:13
#085371:00230000
#085361:00000013
#085341:0000000000000033
#086321:53
#086351:0033002300000000
#086381:00330000
#0853b0:00000013
#085380:0000000000000033
#086350:53
#086380:0033002300000000
#0863b0:00330000
#087320:14240000
#087360:000000000000000000000000000000000000000000000054000000000000000000000000000000000000000000000000000000000000000000000000000000000000000000000000000000000000000000000000000000000000000000000000000000000000000000000000000000000000000000000000000000000000000000000000000000000000000000000000000000000000000000000000000000000000000000000000000000000000000000000000000000000000000000000000
#087350:000000000000000000000000000000000000000000000000000000000000000000000000000000000000000000000000000000000000000000000000000000000000000000000000000000000000000000000000000000000000000000000000000000000000000000000000000000000000000000000055000000000000000000000000000000000000000000000000000000000000000000000000000000000000000000000000000000000000000000000000000000000000000000000000000000000000000000000000000000000000000000000000000000000000000000000000000000000000000000000000000000000000000000000000000000000000000000000000000000000000000000000000000000000000000000000000000000000000000000000000000000000000000000000000000000000000000000000000000000000000000000000000000000000000000000000000000000000000000000000000000000000000000000000000000000000000000000000000000000000000000000000000000000000000000000000000000000000000000000000000000000000000000000000000000000000000000000000000000000000000000000000000000000000000000000000000000000000000000000000000000000000000000000000000000000000000000000000000000000000000000000000000000000000000000000000000000000000000000000000000000000000000000000000000000000000000000000000000000000000000000000000000000000000000000000000000000000000000000000000000000000000000000000000000000000000000000000000000000000000000000000000000000000000000000000000000000000000000000000000000000000000000000000000000000000000000000000000000000000000000000000000000000000000000000000000000000000000000000000000000000000000000000000000000000000000000000000000000000000000000000000000000000000000000000000000000000000000000000000000000000000000000000000000000000000000000000000000000000000000000000000000000000000000000000000000000000000000000000000000000000000000000000000000000000000000000000000000000000000000000000000000000000000000000000000000000000000000000000000000000000000000000000000000000000000000000000000000000000000000000000000000000000000000000000000000000000000000000000000000000
#087370:0054000000000000
#0873a0:0000001400240000
#087360:000000000000000000000000000000000000000000000000000000000000000000000000000000000000000000000000000000000000000000000000000000000000000000000000000000000000000000000000000000000000000000000000000000000000000000000000000000000000000000000000000000000000000000000000000000000000000000000000000000000000000000000000000000000000000000000000000000000000000000000000000000000000000000000000000000000000000000000000000000000000000000000000000000000000000000000000000000000000000000000000000000000000000000000000000000000000000000000000000000000000000000000000000000000000000000000000000000000000000000000000000000000000000000000000000000000000000000000000000000000000000000000000000000000000000000000000000000000000000000000000000000000000000000000000000000000000000000000000000000000000000000000000000000000000000000000000000000000000000000000000000000000000000000000000000000000000000000000000000000000000000000000000000000000000000000000000000000000000005400000055000000000000000000000000000000000000000000000000000000000000000000000000000000000000000000000000000000000000000000000000000000000000000000000000000000000000000000000000000000000000000000000000000000000000000000000000000000000000000000000000000000000000000000000000000000000000000000000000000000000000000000000000000000000000000000000000000000000000000000000000000000000000000000000000000000000000000000000000000000000000000000000000000000000000000000000000000000000000000000000000000000000000000000000000000000000000000000000000000000000000000000000000000000000000000000000000000000000000000000000000000000000000000000000000000000000000000000000000000000000000000000000000000000000000000000000000000000000000000000000000000000000000000000000000000000000000000000000000000000000000000000000000000000000000000000000000000000000000000000000000000000000000000000000000000000000000000000000000000000000000000000000000000000000000000000000000000000000000000000000000
#087350:0054
#0873a0:0000000000000014
#087340:000000000000000000000000000000000000000000000000000000000000000000000000000000000000000000000000000000000000000000000000000000000000000000000000000000000000000000000000000000000000000000000000000000000000000000000000000000000000000000000000000000000000000000000000000000000000000000000000000000000000000000000000000000000000000000000000000000000000000000000000000000000000000000000056
#087350:000000000000000000000000000000000000000000000000000000000000000000000000000000000000000000000000000000000000000000000000000000000000000000000000000000000000000000000000000000000000000000000000000000000000000000000000000000000000000000000000000000000000000000000000000000000000000000000000000000000000000000000000000000000000000000000000000000000000000000000000000000000000000000000000000000000000000000000000000000000000000000000000000000000000000000000000000000000000000000000000000000000000000000000000000000000000000000000000000000000000000000000000000000000000000000000000000000000000000000000000000000000000000000000000000000000000000000000000000000000000000000000000000000000000000000000000000000000000000000000000000000000000000000000000000000000000000000000000000000000000000000000000000000000000000000000000000000000000000000000000000000000000000000000000000000000000000000000000000000000000000000000000000000000000000000000000000000000000000000000056
#088320:56
#088370:0000002700000000
#0893b0:1323
#089370:00530000
#089360:0000000000130000
#089320:0000000000000033
#090360:0023000000000000
#089371:0000000000000013
#0903b1:0033000000000000
#090371:0000002300000000
#090321:0000000000130000
#090351:00000023
#090380:00000013
#0903b0:0000000000000023
#091360:0000000000000014
#092320:0054000000000000
#092360:0000002400000000
#0913a1:0000000000000014
#092361:0054000000000000
#0923a1:0000002400000000
#092351:0000000000132300
#092380:0000000000001323
#0933b0:13
#093370:00230000
#0933b0:0013
#093390:0000000000330000
#093370:00000033
#093350:0000000000000023
#093321:0000000000000013
#094371:0033003300000000
#094321:0000330000230000
#095321:13230000
#095361:0053000000000000
#095371:0000001300230000
#0953b1:0053
#095321:0000000000000013
#096371:0054000000000000
#096321:0000002400000000
#0973b1:13230000
#0973b1:0000000000000013
#0983b1:0023000000000000
#0983b1:0000001300230000
#0993b1:13230000
#099371:0053000000000000
#099321:0000001300230000
#099361:0053
#100361:0014
#100341:00000000000000000000000000000000000000000000000000000000000000000054000054000000000000000000000000000000000000000000000000000000
#100351:0000000000000000000000000000000000540000000000000000000000000000
#100331:000000000000000000000000000000000000000000000000000000000000000000000000000000000000000000000000000000000000000000000000000000000000000000000000000000000000000000000000000000000000000000000000000000000000000000540000000000000000540000000000540000000000540000000000540000005400000054000000540000005400000054000000540000000000540000000000540000000000540000000000540000000000540000000000
#100321:000000000000000000000000000000000000000000000000000000000000000000000000000000000000000000000000000000000000000000000000000000000000000000000000000000000000000000000000000000000000000000000000000000000000000000000000000000540000000000530000000000530000000000530000000053000000530000005300000053000000530000005300000000530000000000530000000000530000000000530000000000530000000000530000
#101321:25
#1013c0:12
#1033c0:0000000000220000
#101381:0000000000000012
#102381:0022000000000000
#103321:1200000032323232000000000000000000000000000000000000000000000000
#103361:00220000
#103320:0000000000000012
#104320:0052000000000000
#104350:0052
#104370:00000052
#105320:0022000000000000
#103381:000000000000000000000000000000000000000000125252
#103371:000000000000000000000000000000000000000000000000000000000000000000000000000000000000005200520052
#104381:525252525252525252525200000000000000000000000000
#104371:005200520052005200520052005200520052005200000000000000000000000000000000000000000000000000000000
#1043c1:000000000000000000000000000000525252520000000000
#1043b1:000000000000000000000000000000000000000000000000000000000000005200520052000000000000000000000000
#105381:525252220000000000000000000000000000000000000000
#105391:005200520052000000000000000000000000000000000000000000000000000000000000000000000000000000000000
