This file was generated by Ched 2.7.0.0.
#TITLE ""
#ARTIST ""
#DESIGNER ""
#DIFFICULTY 0
#PLAYLEVEL
#SONGID ""
#WAVE ""
#WAVEOFFSET 0
#JACKET ""
#REQUEST "ticks_per_beat 480"
#00002: 4
#BPM01: 200
#00008: 01
#TIL00: ""
#VOLUME: ""
#HISPEED 00
#MEASUREHS 00
#0011a:14
#00114:0014
#00312:14
#00318:0014
#00518:14
#00512:0014
#00714:14
#0071a:0014
#00912:0014
#0091a:24
#01018:14
#01014:0014
#0111a:14
#01112:0014
#0191a:0014
#01912:14
#01218:14
#01214:0014
#0131a:14
#01314:0014
#01418:14
#01412:0014
#01518:14
#01514:0014
#01712:0014
#0171a:24
#01710:41
#03512:14
#03514:0014
#0351a:00140000
#03518:00000014
#04614:00000000000000160000000000000000
#04612:0036003600000000
#04512:1600000036000036
#0631a:14
#06312:0014
#06318:00000014
#0771a:24140000
#07714:00001414
#0781a:1414
#07814:00140014
#0611a:0014
#0611a:0014
#06114:00000014
#06112:24
#0751a:14
#07514:14
#0751f:11
#07414:14
#07418:0014
#0741a:14
#07412:0014
#07312:14
#07318:14
#07310:41
#07618:14
#07614:0014
#07612:14
#0761a:0014
#07918:14140000
#07912:00001414
#08018:1414
#08012:00140014
#04914:00140000
#04918:0014
#04912:00000014
#0491a:24
#04910:41
#0531a:14
#05314:00140000
#05318:0014
#05312:00000014
#05418:14
#05414:00140000
#0541a:0014
#05518:0000140000000034
#05514:0014
#05512:14
#0551a:00000014
#0501a:14
#05014:00140000
#05018:0014
#05112:1600000000000016
#05114:0000001600000000
#05113:0000000000360000
#05718:00140000
#05714:0014
#0571a:00000014
#05712:24
#05812:14
#05818:00140000
#05814:0014
#05918:1600000000000016
#05916:0000001600000000
#05917:0000000000360000
#05910:41
#02314:14
#0231a:00140000
#02312:0014
#02318:00000014
#02414:14
#02712:1414
#02718:00140014
#0251a:2414
#02514:00140014
#03614:14
#0361a:00140000
#03612:0014
#0331a:00140000
#03314:0014
#03312:24
#03310:41
#0341a:14
#03412:00140000
#03418:0014
#0431a:14
#04318:0014
#04312:00140000
#04314:00000014
#04418:14
#04412:00140000
#0441a:0014
#04112:00140000
#04118:0014
#0411a:24
#04212:14
#0421a:00140000
#04214:0014
#10012:00140000
#10018:0014
#1001a:14
#09914:00000014
#09912:00140000
#09918:0014
#0991a:14
#09712:00140000
#09718:0014
#0971a:24
#08518:00140000
#08514:0014
#0851a:00000014
#0851f:21
#08912:14
#08918:00140000
#08914:0014
#0891a:00000014
#09014:14
#09018:00140000
#09012:0014
#09114:0000140000000034
#09118:0014
#0911a:14
#09112:00000014
#08612:14
#08618:00140000
#08614:0014
#08610:41
#08718:1600000000000016
#08716:0000001600000000
#08717:0000000000360000
#09314:00140000
#09318:0014
#09312:00000014
#0931a:24
#0941a:14
#09414:00140000
#09418:0014
#09512:1600000000000016
#09514:0000001600000000
#09513:0000000000360000
#02118:14
#0211a:0014
#02112:00140000
#02114:00000014
#02218:14
#0221a:0014
#02212:00140000
#02014:1414
#02018:00140000
#01818:1414
#01814:00140000
#03112:14
#03116:00140000
#0311a:0014
#03114:00000014
#03218:14
#02918:14
#0291a:0014
#02914:00140000
#02912:00000014
#03018:14
#0301a:0014
#03014:00140000
#06912:14
#07018:14
#07014:0014
#0711a:14
#07214:14
#07218:0014
#06218:14
#06414:14
#08414:0014
#10214:00000000000000160000000036000000
#10212:0036003600000000
#10112:1600000036000036
#06616:00000000000000160000000000000000
#06618:0036003600000000
#06518:1600000036000036
#0811a:2424
#08114:00240024
#0821a:24
#08216:00240024
#08212:0024
#0831a:2424
#08314:00240024
#04712:3600003600360000
#10312:3600003600360000
#06718:3600003600360000
#0095a:14
#04654:00000000000000260000000000000000
#04552:56
#0755a:64
#07554:64
#07352:54
#07358:54
#0555a:00000064
#05152:6600000000000066
#05154:0000006600000000
#05958:5600000000000056
#05956:0000005600000000
#0495a:14
#05752:14
#05658:0014
#05254:0016
#06056:0016
#02454:54
#02452:0014
#03858:0014
#04054:0014
#03352:14
#09152:00000054
#08758:5600000000000056
#08756:0000005600000000
#09552:6600000000000066
#09554:0000006600000000
#0935a:14
#09254:0014
#08856:0016
#09654:0016
#0175a:14
#03258:64
#0325a:0014
#06952:54
#0715a:64
#06454:54
#06258:54
#08454:0054
#10254:00000000000000260000000000000000
#10152:56
#08552:14
#06656:00000000000000260000000000000000
#06558:66
#0023a0:1424
#004320:1424
#0063a0:14
#006380:0024
#008320:14
#008340:0024
#0163a0:14
#0173a0:24
#024340:14
#024320:0024
#0263a0:14
#026390:00340000
#026380:0024
#028320:14
#028330:00340000
#028340:0024
#032380:14
#0323a0:0024
#0373a0:14
#037390:00340034
#037380:0034
#0383a0:34
#038390:00340000
#038380:0024
#039320:14
#039330:00340034
#039340:0034
#040320:34
#040330:00340000
#040340:0024
#045320:1600000036000036
#046320:0036003600000000
#046340:00000000000000560000000000000000
#047320:3600003600360036
#048320:0026
#051320:1600000000000036
#051340:0000003600000000
#051330:0000000000360000
#052340:0026
#0553a0:00000014
#055380:0000000000000034
#056380:0024
#059380:1600000000000036
#059360:0000003600000000
#059370:0000000000360000
#060360:0026
#062380:14
#0623a0:0024
#064340:14
#064320:0024
#065380:1600000036000036
#066380:0036003600000000
#066360:00000000000000560000000000000000
#067380:3600003600360036
#068380:0026
#069320:14
#069340:0024
#0713a0:14
#071380:0024
#073320:14
#073340:0024
#073381:14
#0733a1:0024
#0753a1:14
#075381:0024
#075340:14
#075320:0024
#083340:0000000000001434
#084340:0034
#085320:24
#087380:1600000000000036
#087360:0000003600000000
#087370:0000000000360000
#088360:0026
#091320:00000014
#091340:0000000000000034
#092340:0024
#095320:1600000000000036
#095340:0000003600000000
#095330:0000000000360000
#096340:0026
#097340:0000000000001434
#098320:0034000000000000
#098340:0000003400002400
#101320:1600000036000036
#102320:0036003600000000
#102340:00000000000000560000000036000000
#103320:3600003600360036
#105330:00240000
