This file was generated by Ched 2.7.0.0.
#TITLE ""
#ARTIST ""
#DESIGNER ""
#DIFFICULTY 0
#PLAYLEVEL
#SONGID ""
#WAVE ""
#WAVEOFFSET 0
#JACKET ""
#REQUEST "ticks_per_beat 480"
#00002: 4
#BPM01: 210
#00008: 01
#TIL00: ""
#VOLUME: ""
#HISPEED 00
#MEASUREHS 00
#0011a:14
#00312:14
#00712:14
#00812:14
#00918:14
#01018:14
#01114:14
#01110:41
#01214:14
#0131a:14
#0141a:14
#01512:14
#01618:14
#0191a:14
#02014:14
#02312:14
#0241a:14
#0271a:14
#02812:14
#03414:14
#03818:14
#03912:14
#0401a:14
#04112:14
#0421a:14
#04314:14
#04310:41
#04418:14
#04514:14
#04618:14
#04712:14
#0471a:14
#07112:16
#07118:0016
#0711f:21
#07212:16
#07318:16
#07312:0016
#07310:41
#07418:16
#07918:16
#07912:0016
#08018:16
#08112:16
#08118:0016
#08212:16
#08318:1616
#08512:1616
#08510:41
#08718:16
#08712:0016
#08818:16
#08812:0016
#08918:1616
#09112:1616
#09318:16
#09312:0016
#09418:16
#09412:0016
#0971a:14
#09710:41
#0981a:14
#09912:14
#10012:14
#10118:14
#10218:14
#10314:14
#10414:14
#1051a:14
#10614:14
#10718:14
#10812:14
#0561f:11
#05018:34
#04918:34
#05414:34
#05314:34
#03110:41
#0053a0:14
#0063a0:24
#017320:14
#018320:24
#0213a0:14
#0223a0:24
#025340:14
#026340:24
#029380:14
#030380:24
#031320:14
#032330:34
#033340:24
#0353a0:14
#036390:34
#037380:24
#0483a0:14
#049380:34
#050380:34
#051380:24
#052320:14
#053340:34
#054340:34
#055340:24
#0563a0:14
#0573a0:24
#058340:14
#059340:24
#060380:14
#061380:24
#062320:14
#063320:24
#0643a0:14
#0653a0:34
#0663a0:0024
#067320:16
#068320:26
#069380:16
#070380:26
#075380:16
#076380:26
#077320:16
#078320:26
#084380:1626
#086320:1626
#090380:1626
#092320:1626
#095380:1626
#096320:1626
#1093a0:14
#1103a0:24
#111320:14
#112320:24
#113380:14
#114380:24
#115340:140000000000000000000034
#116340:000000000000000000000024
