This file was generated by Ched 2.7.0.0.
#TITLE ""
#ARTIST ""
#DESIGNER ""
#DIFFICULTY 0
#PLAYLEVEL
#SONGID ""
#WAVE ""
#WAVEOFFSET 0
#JACKET ""
#REQUEST "ticks_per_beat 480"
#00002: 4
#BPM01: 210
#00008: 01
#TIL00: ""
#VOLUME: ""
#HISPEED 00
#MEASUREHS 00
#00112:140000000000000000000013
#0011a:14
#00116:000014
#0011b:000000000000000000000013
#00212:000000000013000000000013
#00216:000013
#0021b:000000000000000013000013
#00315:000000000013000000130000
#00412:13
#00418:000000130000000013000000
#0041b:13
#00715:13001313
#00712:000000130000000000000013
#00718:000000000000000013000013
#0081b:000013000000000000130000
#00815:00130013
#00812:0013
#00818:0013
#01015:0013
#01018:000000130000000013000000
#01312:130000131300
#01318:001300000000
#01315:00130000
#0131b:130000131300
#00918:13001313
#0091b:000000130000000000000013
#00915:000000000000000013000013
#01116:000000000014000000000000
#01117:00000013
#01112:23
#0111b:000000000023000000000000
#01110:41
#01216:000000000014000000130000
#01212:130000000023000000000000
#0121b:23
#01417:130033
#0141b:0013
#01412:130033
#01416:0013
#0151b:00130000
#01515:000000000013000000000000
#01518:00000013
#0161b:13000013
#01614:00130000
#01612:0013
#01615:000013
#01618:000000000000000000000013
#01616:13
#01619:00130000
#01617:0013
#01712:13
#0171b:000013
#01715:00000013
#01718:000000000000000000000013
#01812:131300000000
#01818:000000130013000000000000
#01815:000000131300
#0181b:000000000000000000130013
#01918:000000131300
#01912:000000000000000000130013
#01915:13
#02012:00000013
#02015:000000000013000000000000
#02018:13
#02115:130000000000000013000023
#02112:00130000
#02118:00000013
#0221b:000000130000130013000000
#02212:000000131300
#02318:000000000013000000000000
#02315:00000013
#02312:00230000
#0231b:000000000000000000000023
#02419:00130000
#0241b:0013
#02418:000013
#02415:000000000000000000000013
#02414:00130000
#02416:0013
#02412:13000013
#0251b:13
#02518:000000000013000000130000
#02515:0013
#0261b:131300002300
#02615:00130000
#02612:000000000013000000000000
#02618:000000000013000000000000
#02616:000023
#02715:000000131300
#02718:230000000000000000130013
#0271b:000000000013000000000000
#0281b:000000130013000000000000
#02812:131300000000
#0291b:00130000
#02912:00000013
#0301a:00140000
#03016:00000014
#0311b:1313
#03118:00130000
#03112:2323
#03115:00230000
#03110:41
#03215:1313
#03212:00130000
#03218:2323
#0321b:00230000
#0331b:13000013
#03312:00130000
#03315:0013
#03415:00131300
#03412:000013
#0341b:000013
#03418:000000000013000000000000
#03512:1313
#03515:00130000
#03518:2323
#0351b:00230000
#0361b:1313
#03618:00130000
#03615:2323
#03612:00230000
#03712:130000131300
#0371b:000000000000000000000013
#03718:00130000
#03815:000000130013000000000000
#0391b:13
#03915:00130013
#03918:0013
#04012:130000000000000000000013
#0401b:130000131300
#04018:000000130000000000000013
#04015:000000131300
#04118:000000000013000000130000
#04112:000000131300
#04115:000000000000000000000013
#04215:0013
#04218:00130013
#04212:00000013
#0431b:13
#04315:13
#04316:00000014
#04310:41
#0441b:13130000
#04412:00001313
#0451b:13
#04518:00130000
#04512:00000013
#04615:13
#04612:000000130013000000000000
#04618:000000130013000000000000
#04715:13
#0471b:13
#04912:12
#0501c:12
#05118:12
#05418:12
#0551c:12
#05212:12
#05316:12
#05617:13
#05612:13130000
#0561f:11
#05716:13
#0581b:13130000
#05816:13
#05917:13
#06012:13130000
#06018:13130000
#0611b:13130000
#06115:13130000
#06712:23130000
#0671b:23130000
#06715:00001313
#06718:000000000000000013000013
#06812:000000130000000000000013
#06815:0013
#06818:00000013
#0691b:13
#06915:0013
#06918:00000013
#0701b:000000130000003333133333
#07015:13
#07012:003333133333000000130000
#07018:0013
#07518:00001313
#07515:000000000000000013000013
#07512:23230000
#0751b:23230000
#0761b:000000130000000000000013
#07618:0013
#07615:00000013
#07712:13
#07718:0013
#07715:00000013
#07812:1313
#07815:00130013
#0781b:13
#07818:000000130000000013000000
#07112:00000013
#07115:23
#0711b:00230000
#0711f:21
#07212:00000013
#07215:23
#0721b:00230000
#0731b:13
#07316:13
#07314:00130013
#07312:0013
#07319:00130013
#07317:0013
#07310:41
#0741b:13
#07412:13
#07418:001300000000
#07415:000000130013000000000000
#07918:00000013
#0791b:23
#07915:00230000
#08018:00000013
#0801b:23
#08015:00230000
#08116:130000000000000000000013
#0811b:13000013
#08119:00130000
#08117:0013
#08112:0013
#08114:00130000
#08217:00130000
#08214:0013
#08216:00000013
#08219:0013
#0821b:00000013
#08312:000000000000130000000013
#08314:24000013
#08319:00000013
#0831a:24
#08518:00130013
#0851b:13
#08512:0013
#08515:00130013
#08510:41
#0861b:13
#08612:13
#08614:00000013
#08619:00000013
#0881b:000000000000000000000013
#08818:00130000
#08815:00000013
#0891b:0013
#08919:00000013
#08914:00000013
#08912:24
#09015:001300000000
#0901b:13
#09012:13
#08717:00130000
#08716:00000013
#0871b:13
#09115:00130013
#09118:00130013
#09112:23
#0911b:0023
#0921b:13
#09214:00000013
#09219:00000013
#09212:23
#09312:13
#09315:00130000
#0931b:00000013
#09412:00130000
#09418:00000013
#0951b:13131300
#09512:00001313
#09516:00140014
#0961b:1313
#09612:1313
#09615:000013000000000000130000
#09618:000000130000000013000000
#00512:23000013
#00516:000000000023000000000000
#00517:23
#0051b:00000023
#0971b:000000130000000000000013
#09715:00001313
#09718:230013
#09712:000000000000000000000013
#09710:41
#09818:001300130000
#09815:00130013
#09812:0013
#0981b:00000013
#10112:13
#1011b:000000130013000000000000
#10116:000000000013000000000000
#10117:00000013
#10015:0013
#10018:000000130000000013000000
#1031b:130000131300
#10315:001300000000
#10318:00130000
#10312:130000131300
#09912:130000000000000000000013
#09915:000000130000000013000000
#0991b:000000000000130000000013
#09918:00000013
#10212:130000130013000000000000
#10217:000000000013000000000000
#10216:00000013
#1021b:13
#10415:130013
#10412:00130000
#1041b:00130000
#10418:000013
#10516:00140000
#10518:00001313
#10515:000013
#10512:230000000000000000000023
#1051b:230000000000000000000023
#10818:0013
#10815:000000130000000013000000
#11112:130000131300
#11118:001300000000
#11115:00130000
#1111b:130000131300
#1071b:130000000000000000000013
#10712:000000000000130000000013
#10718:000000130000000013000000
#10715:00000013
#10916:000000000014000000130000
#10912:000000000023000000000000
#1091b:23
#11016:000000000014000000000000
#11017:00000013
#1101b:130000000023000000000000
#11012:23
#10615:001300130000
#10618:00130013
#1061b:0013
#10612:00000013
#11218:130013
#11212:00130000
#1121b:00130000
#11215:000013
#1131b:000013000000000000000013
#11315:000000130000000000000013
#11312:000000000013000013000000
#11318:000000000013000000130000
#1141b:001300000000
#11415:000000130000000000000013
#11418:000000000013000000130000
#11412:000000000013000013000000
#11512:000000000013000000000023
#11515:001300001300
#11518:000000000013000000000000
#1151b:000000000000000013000023
#11618:000033330033130000000000
#11615:000033330033130000000000
#1161b:000000000000000033330000
#11612:000000000000000033330000
#06212:13
#06215:00130000
#06218:0013
#0621b:00000013
#06216:000000000000000000000023
#06317:00130000
#06319:0013
#06314:0013
#0631b:00000013
#06316:00000023
#06417:00130000
#06412:000000130000000000000024
#0641a:000000000000000000000024
#06514:000000140000001400000014
#06513:000014141414
#06512:000000000014000000140000
#06518:000000140000001400000014
#06519:000014141414
#0651a:000000000014000000140000
#06613:141414141400
#06612:001400000014000000000000
#06614:000000140000001400000000
#06619:141414141400
#0661a:001400000014000000000000
#06618:000000140000001400000000
#04816:12
#00612:00230000
#0061b:00230000
#0015b:000000000000000000000053
#00152:140000000000000000000013
#0015a:14
#00658:13
#00655:13
#00652:00130000
#0065b:00130000
#00955:000000000000000000000063
#01058:000063
#01457:53
#0145b:0053
#01452:53
#01456:0053
#01156:000000000064000000000000
#0115b:000000000013000000000000
#01256:000000000064000000000000
#01252:000000000013000000000000
#01552:13
#01557:13
#01555:000000000053000000000000
#01752:53
#01955:63
#02358:000000000063000000000000
#0255b:63
#02555:0053
#02252:000053
#0225b:000063
#02058:53
#0335b:63
#03355:0063
#03752:63
#0375b:000000000000000000000053
#03758:00630000
#03855:000000000053000000000000
#03952:13
#0395b:13
#04058:000000000000000000000053
#04052:000000000000000000000053
#0435b:13
#04355:53
#04652:000000000053000000000000
#04658:000000000053000000000000
#04755:23
#0475b:23
#05657:53
#05756:63
#05856:63
#05957:53
#06758:000000000000000000000053
#0695b:53
#07055:53
#07052:00230000
#07058:0063
#0705b:00000023
#07752:63
#0785b:63
#07858:00230000
#07152:00000013
#0715b:00130000
#07252:00000013
#0725b:00130000
#07958:00000013
#07955:00130000
#08058:00000013
#08055:00130000
#07458:000013
#08156:000000000000000000000053
#0855b:53
#08558:00230000
#08552:0053
#08555:00000023
#0865b:53
#08652:53
#07555:000000000000000000000063
#09155:00230000
#09158:00000023
#09152:53
#0915b:0063
#0925b:63
#09252:53
#0955b:13
#09552:0013
#0965b:13
#09652:0013
#00552:00000053
#00556:000000000053000000000000
#00557:53
#0055b:00000053
#10058:000063
#09952:000000000000000000000063
#10156:000000000063000000000000
#10257:000000000063000000000000
#1035b:000053
#10455:000053
#10458:000063
#10855:000053
#1075b:000000000000000000000053
#10956:000000000054000000000000
#10952:000000000013000000000000
#11056:000000000054000000000000
#1105b:000000000013000000000000
#11152:000063
#11258:000063
#11255:000053
#1125b:000000000000000000000013
#11252:000000000000000000000013
#11658:0063
#11655:0053
#1165b:000000000000000000000013
#11652:000000000000000000000013
#00252:000000000000000000000013
#0025b:000000000000000000000013
#04155:000000000000000000000053
#04258:00530000
#11352:000000000013000000000000
#1135b:000000000000000000000013
#11452:000000000013000000000000
#11552:000000000000000000000053
#1155b:000000000000000000000063
#00755:13
#06058:00530000
#06052:00530000
#06155:00630000
#0615b:00630000
#06457:00230000
#06452:000000230000000000000054
#0645a:000000000000000000000064
#06553:000054545454
#06552:000000000024000000240000
#06554:000000240000002400000024
#06558:000000240000002400000024
#06559:000064646464
#0655a:000000000024000000240000
#06653:545454545400
#06652:002400000024000000000000
#06654:000000240000002400000000
#06659:646464646400
#0665a:002400000024000000000000
#06658:000000240000002400000000
#06256:000000000000000000000053
#02656:000053
#02155:000000000000000000000053
#02752:13
#02758:13
#0635b:00000053
#06356:00000053
#08952:54
#0835a:54
#08354:14
#10552:13
#1055b:13
#0013b0:000000000000000000000013
#002370:000000000023000000000000
#003380:00001323
#004350:000000000013000023000000
#005370:13
#0053b0:000000000023000000000000
#005361:000000000013000000000000
#005321:00000033
#006351:23
#0053b0:00000013
#006380:23
#0073b0:13230000
#009320:13230000
#009350:000000000000000000000013
#010320:00230000
#010380:000013
#0113b0:23
#011360:000000000014000000000000
#011320:00000024
#012360:000000000014000000000000
#0123a0:00000024
#014370:130033
#0143b0:0033
#015370:23
#014321:130033
#014361:0033
#015321:23
#015351:000000000013000000000000
#015321:00000023
#017321:13
#017361:0023
#019351:13
#019321:00230000
#020381:13
#0203b1:00230000
#020381:00001323
#0213b1:13230000
#0213b1:000000000013000000000000
#021381:000023
#021351:000000000000000000000013
#022321:00230000
#022321:000013
#023351:23
#0223b0:000013
#023380:23
#023380:000000000013000000000000
#0233b0:00000023
#0253b0:13
#025380:00230000
#025350:0013
#025320:00000023
#026360:000013
#027320:23
#028350:0013
#028320:00000023
#028381:00000013
#0293b1:23
#029350:1323
#029320:00530000
#029381:0013
#0293b1:00000053
#030381:23
#030320:1424
#030360:00540000
#030361:0014
#0303a1:00000024
#0333b1:13
#033381:0023
#033350:0013
#034320:23
#034381:13230000
#037321:13
#037351:00230000
#037380:00130000
#0373b0:0023
#0373b0:000000000000000000000013
#038380:00230000
#038350:000000000013000000000000
#039320:23
#040380:000000000000000000000013
#0413b0:00230000
#040321:000000000000000000000013
#041351:00230000
#041351:000000000000000000000013
#042321:00230000
#042380:00130000
#0423b0:0023
#043350:13
#043320:0023
#044320:13
#044350:00230000
#044380:0013
#0443b0:00000023
#045350:1323
#045320:00530000
#0453b1:0013
#045381:00000053
#0463b1:23
#046321:000000000013000000000000
#047351:53
#047321:0023
#046380:000000000013000000000000
#0473b0:53
#047380:0023
#0483c0:12
#049380:22
#050360:12
#051320:22
#052380:12
#0533c0:22
#054320:12
#055360:22
#056370:13
#0573b0:5323
#057361:13
#057321:0023
#058361:13
#059321:5323
#059370:13
#0593b0:0023
#060380:00130000
#0603b0:00000023
#060321:00130000
#060351:00000023
#061351:00130000
#061321:00000023
#0613b0:00130000
#061380:00000023
#062360:000000000000000000000013
#063320:00230000
#0633b0:00000013
#064370:00530000
#0643b0:00000023
#063361:00000013
#064321:00530000
#064361:00000023
#064321:000000000000000000000014
#065341:000000540000005400000054
#065331:000054545454
#065321:000000000054000000540000
#066331:545454545400
#066321:005400000054000000240000
#066341:000000540000005400000000
#0643a0:000000000000000000000014
#065380:000000540000005400000054
#065390:000054545454
#0653a0:000000000054000000540000
#066390:545454545400
#0663a0:005400000054000000240000
#066380:000000540000005400000000
#067380:000000000000000000000013
#0683b0:00230000
#0693b0:13
#069380:0023
#070350:1323
#070320:003333333333000000000000
#070381:0013
#0703b1:000000000000003333333333
#071381:23
#071350:13230000
#071380:00001323
#072350:13230000
#072380:00001323
#074380:000000132300
#075350:000000000000000000000013
#076320:00230000
#077320:13
#077350:0023
#0783b0:1323
#078380:00530000
#0793b0:13230000
#079320:00001323
#0803b0:13230000
#080320:00001323
#081360:000000000000000000000013
#082320:00230000
#0833a0:14
#083360:0024
#0843b0:13
#084380:00230000
#084351:00130000
#084321:0023
#084380:0013
#0843b0:00000023
#084321:00000013
#085351:23
#0853b0:1323
#085380:00530000
#085321:0013
#085351:00000053
#086321:33
#086351:0023
#0863b0:13
#086380:0023
#087320:1323
#087330:00530000
#0873b1:0013
#087391:00000053
#0883b1:23
#088320:1323
#088350:00530000
#0883b1:0013
#088381:00000023
#089321:14
#089361:0024
#090381:00130000
#0903b1:0023
#090350:0013
#090320:00000023
#0903b1:00000013
#091381:23
#091320:1323
#091350:00530000
#0913b1:0013
#091381:00000053
#0923b1:33
#092381:0023
#092320:13
#092350:0023
#0933b0:13
#093380:00532300
#093321:0013
#093351:00000053
#094351:23
#094380:13
#0943b0:00532300
#094351:0013
#094321:00000053
#095321:23
#097321:13
#097351:00230000
#099381:13
#0993b1:00230000
#099321:000000000000000000000013
#100351:00230000
#100381:000013
#1013b1:23
#101361:000000000013000000000000
#101321:00000023
#102371:000000000013000000000000
#1023b1:00000023
#1033b1:000013
#104381:23
#104351:000000135300
#105321:23
#104380:000013
#1053b0:23
#107350:13
#107320:00230000
#1073b0:000000000000000000000013
#108380:00230000
#108350:000013
#109320:23
#109360:000000000014000000000000
#1093a0:00000024
#110360:000000000014000000000000
#110320:00000024
#111320:000013
#112350:23
#112380:000000135300
#1123b0:000000000000000000000023
#112351:000013
#112321:000000000000000000000023
#1153b1:132300000000
#1153b1:000000000000000000000013
#116381:000033330033330000000000
#1163b1:000000000000000033330023
#115320:000000000000000000000013
#116350:000033330033330000000000
#116320:000000000000000033330023
