This file was generated by Ched 2.7.0.0.
#TITLE ""
#ARTIST ""
#DESIGNER ""
#DIFFICULTY 0
#PLAYLEVEL
#SONGID ""
#WAVE ""
#WAVEOFFSET 0
#JACKET ""
#REQUEST "ticks_per_beat 480"
#00002: 4
#BPM01: 210
#00008: 01
#TIL00: ""
#VOLUME: ""
#HISPEED 00
#MEASUREHS 00
#00112:13
#0011b:130000000000000013000013
#00215:000013
#00212:000000000000000000000013
#0021b:000000000000000000000013
#00315:0013
#00318:00000013
#0041b:13
#00418:00130000
#00415:0013
#00412:00000013
#0051a:14
#00512:24
#00513:000000000024000000000000
#00619:15150000
#00612:25250000
#00712:13
#00718:000000130000000013000000
#00715:00001313
#0071b:000000000000000000000013
#00812:00130000
#00818:0013
#00815:00000013
#0091b:13
#00915:000000130000000013000000
#00918:00001313
#00912:000000000000000000000013
#01018:00130000
#0101b:0013
#01012:0013
#01312:13
#01318:001300130000
#01315:000000130000000013000000
#01412:13
#0141b:13
#01512:13
#01518:00130013
#01615:13
#0161b:00130000
#01612:0013
#01618:00000013
#01715:13
#0171b:00130013
#01812:13
#01818:00130000
#01815:0013
#0181b:00000013
#01912:13
#01918:00130013
#02015:13
#0201b:00130013
#02112:13
#02115:00130000
#02118:0013
#0211b:000000000000000000000013
#02215:000013
#02315:00000013
#0231b:00230000
#02412:00130000
#0241b:0013
#02415:00000013
#02418:13
#02518:13
#02512:00130013
#0261b:13
#02615:00130000
#02618:0013
#02612:00000013
#0271b:13
#02715:00130013
#02818:13
#02812:00130013
#0291b:13
#02918:00130000
#02915:0013
#02912:00000013
#0301b:13
#03018:00130000
#03015:0013
#03012:00000013
#03117:13131300
#03112:23232300
#03110:41
#03216:13131300
#0321b:23232300
#03315:00130000
#03318:0013
#0331b:00000013
#0351b:13131300
#03516:23232300
#03612:13131300
#03617:23232300
#0371b:13
#03718:00130000
#03715:0013
#03712:00000013
#03412:13
#03415:00333300
#0381b:13
#03818:000000330033000000000000
#03915:00130013
#03918:0013
#0401b:13
#04012:00130000
#04018:000000131300
#04015:000000000000000000000013
#04215:0013
#04218:00000013
#04312:13
#0431b:13
#04315:00000013
#04310:41
#0411b:000000000013000000000000
#04118:000000000000330033330013
#0441b:13
#04418:00130000
#04412:0013
#04415:00000013
#0451b:1313
#04518:00130000
#04512:1313
#04515:00000013
#04612:130000000013000000000000
#0461b:130000000013000000000000
#06712:23130000
#0671b:0013
#06715:000013
#06718:000000000000000000000013
#06815:0013
#0681b:000000000000000000000013
#06915:00000013
#0701b:13
#07015:00130000
#07018:0013
#07012:00000013
#0731b:13130000
#07312:00001313
#07310:41
#0741b:13
#07415:001300000000
#07418:00130000
#07512:0013
#07518:000013
#07515:000000000000000000000013
#0751b:23230000
#07618:0013
#07612:000000000000000000000013
#0771b:00000013
#07812:13
#07818:00130000
#07815:0013
#0781b:00000013
#08115:13130000
#08118:00001313
#08212:13
#08215:00130000
#08218:0013
#0821b:00000013
#08316:00000013
#08312:23
#0841b:13130000
#08415:00130000
#08412:00001313
#08418:00000013
#0861b:13
#08612:00000013
#08518:0013
#0851b:13
#08510:41
#08917:00000013
#0891b:23
#09012:13130000
#09018:00130000
#0901b:00001313
#09015:00000013
#09212:13
#0921b:00000013
#09115:0013
#09112:23
#0881b:13
#08818:00130000
#08815:0013
#08812:00000013
#08718:13130000
#08715:00001313
#09312:13130000
#09318:13
#09315:0013
#0931b:00001313
#09515:13130000
#0951b:13
#09518:00001313
#09512:0013
#09418:13
#09412:13
#0941b:00330000
#09415:00330000
#0961b:1313
#09615:1313
#09612:00130013
#09618:00130013
#09912:13
#09918:13
#10112:13130000
#10118:00001313
#10215:13130000
#1021b:00001313
#10312:13
#10318:001300130000
#10315:000000130000000013000000
#10412:13
#1041b:13
#1111b:13
#11115:001300130000
#11118:000000130000000013000000
#1121b:13
#11212:130000000000000000000014
#10515:000000130000000013000000
#10518:00001313
#1051b:23
#10512:000000000000000000000023
#1061b:00130000
#10615:0013
#10618:00000013
#10712:13
#10718:000000130000000013000000
#10715:00001313
#1071b:000000000000000000000013
#10815:00130000
#10812:0013
#1081b:0013
#1131a:000014000014000000000000
#11312:000000000000000014000014
#1141a:000014000014000000000000
#11416:000014
#11412:000000000000000000340034
#11516:000000000014000000000000
#11512:000000000000000014000024
#1151a:000014000000000000000024
#04818:13
#0501b:13
#05215:13
#05412:13
#0561b:13
#05618:0013
#0561f:11
#05715:13
#05812:13
#05815:0013
#05918:13
#06012:13130000
#0611b:13130000
#06318:00140024
#06314:0014
#06618:14
#06614:14
#01112:23
#01118:23
#01110:41
#0121b:23
#01215:23
#1091b:23
#10915:23
#11012:23
#11018:23
#06212:000000000000000000000024
#0621a:000000000000000000000024
#0641a:000000000000000000000024
#06412:000000000000000000000024
#07118:23
#0711f:21
#07218:23
#07912:23
#08012:23
#09715:23
#0971b:23
#09710:41
#11614:000034340034340034340000
#11618:000034340034340034340000
#00652:15150000
#00659:15150000
#01155:000000000013000000000000
#0115b:000000000013000000000000
#01152:53
#01158:53
#01258:000000000013000000000000
#01252:000000000013000000000000
#0125b:63
#01255:63
#01452:53
#0145b:63
#01552:13
#00252:000000000000000000000013
#0025b:000000000000000000000013
#02255:000053
#0215b:000000000000000000000053
#03452:53
#0385b:63
#03958:13
#04352:13
#0435b:13
#04158:000000000000000000000053
#0415b:000000000053000000000000
#04055:000000000000000000000053
#04652:000000000053000000000000
#0465b:000000000063000000000000
#06758:000000000000000000000053
#0685b:000000000000000000000053
#07158:00130000
#07155:00000013
#07258:00130000
#07255:00000013
#07555:000000000000000000000063
#07652:000000000000000000000063
#07952:00130000
#0795b:00000013
#08052:00130000
#0805b:00000013
#0855b:53
#08558:0053
#0865b:53
#09252:63
#09155:0063
#09152:63
#09458:53
#09452:53
#09952:23
#09958:23
#10452:53
#1045b:63
#1125b:63
#11252:530000000000000000000014
#1095b:63
#10955:63
#10958:000000000013000000000000
#10952:000000000013000000000000
#11052:53
#11058:53
#11055:000000000013000000000000
#1105b:000000000013000000000000
#1135a:000000000014000000000000
#11352:000000000000000000000014
#1145a:000000000014000000000000
#11456:000054
#11654:000000000000000000000014
#11658:000000000000000000000014
#11552:000000000000000000000054
#1155a:000000000000000000000064
#0015b:130000000000000000000053
#00152:13
#04858:53
#0505b:63
#05255:63
#05452:53
#05755:53
#05958:63
#06052:00530000
#0615b:00630000
#0645a:000000000000000000000064
#06452:000000000000000000000054
#06658:24
#06654:24
#07455:000013
#06358:00000054
#08352:53
#0895b:53
#09755:53
#0975b:53
#0013b0:000000000000000000000013
#002380:000000000023000000000000
#005330:000000000014000000240000
#005391:000000000014000000240000
#011321:13
#011351:000000000023000000000000
#011380:13
#0113b0:000000000023000000000000
#0123b0:13
#012380:000000000023000000000000
#012351:13
#012321:000000000023000000000000
#014321:13
#014351:0023
#0143b0:13
#014380:0023
#0213b0:000000000000000000130033
#022380:00230000
#022350:000000133300
#023320:23
#034320:13
#034350:000000330000330023000000
#0383b0:13
#038380:000000330033000000000000
#039380:23
#040350:000000000000000000000013
#041320:00230000
#0413b0:000000000013000000000000
#041380:000000000000330033330033
#0423b0:00230000
#046320:000000130033000000000000
#047350:0023
#0463b1:000000130033000000000000
#047381:0023
#048381:13
#0493b1:23
#0503b1:13
#051381:23
#052351:13
#053321:23
#054321:13
#055351:23
#057351:13
#057321:0023
#059381:13
#0593b1:0023
#060321:00130000
#060351:00000023
#0613b1:00130000
#061381:00000023
#062361:12000022
#063381:00000014
#0643a1:00000024
#0643a1:000000000000000000000014
#066381:54
#0663a1:00000024
#064320:000000000000000000000014
#066340:54
#066320:00000024
#067380:000000000000000000130033
#0683b0:00230000
#0683b0:000000000000000000130033
#069380:0023
#071380:13230000
#071350:00001323
#072380:13230000
#072350:00001323
#074350:000000132300
#075350:000000000000000000130033
#076320:00230000
#076320:000000000000000000130033
#077350:0023
#079320:13230000
#0793b0:00001323
#080320:13230000
#0803b0:00001323
#083320:13
#083360:0023
#0853b0:13
#085380:0033
#0863b0:33
#086370:0023
#0893b0:13
#089370:0023
#091320:13
#091350:0033
#092320:33
#092360:0023
#094380:13
#0943b0:00332300
#094321:13
#094351:00332300
#097351:13
#099321:53
#100351:0023
#0973b0:13
#099380:53
#1003b0:0023
#104320:13
#104350:0023
#1043b1:13
#104381:0023
#1093b1:13
#109381:000000000023000000000000
#109350:13
#109320:000000000023000000000000
#110320:13
#110350:000000000023000000000000
#110381:13
#1103b1:000000000023000000000000
#1123b1:13
#112381:0023
#112320:13
#112350:0023
#114360:000014
#114320:000000000000000000340034
#115320:24
#115320:000000000000000000000014
#116340:000034340034340034340024
#1153a1:000000000000000000000014
#116381:000034340034340034340024
