This file was generated by Ched 2.7.0.0.
#TITLE ""
#ARTIST ""
#DESIGNER ""
#DIFFICULTY 0
#PLAYLEVEL
#SONGID ""
#WAVE ""
#WAVEOFFSET 0
#JACKET ""
#REQUEST "ticks_per_beat 480"
#00002: 4
#BPM01: 210
#00008: 01
#TIL00: ""
#VOLUME: ""
#HISPEED 00
#MEASUREHS 00
#00217:000000001300170000001400001400000000000000000000
#00212:000000000014000000000014
#0021a:000014
#00215:000000000000000000000000000000000000001400000000
#00112:160000000000000000000014
#00118:16
#00116:000000130000000000000013
#00117:0013
#0011b:000000130000000013000000
#0031b:001300000000
#00312:000000000000000000001300000000000000000000130000
#00316:00001313
#0041b:13
#00416:130000000000000015000013
#00415:000000000015000000000000
#0041a:000000000014000000000000
#00412:000014
#00518:000000000000000000000013
#00515:000000000013
#0051b:00130000
#00512:2400000000280000132c0000
#00516:28
#0051a:000000000024000000000000
#00612:2c2c1200
#00616:000000000000000000120012
#00618:000012
#00712:1c130018
#00717:000013
#00716:000000000000130000000014
#0071b:000000000000000000000013
#00812:000013180000000000130000
#0081b:0013
#00816:0015
#00815:00000015
#0091b:00130000
#00916:000014000000000013180014
#00917:0013
#00912:1c0000000000000000000013
#0101b:001300000000
#01016:00180000
#01014:000000000014140000000000
#01018:000000000000000000000014000000001600000000000000
#01012:000016
#01116:000000130028000013180013
#0111b:00130000
#01112:2c0000000024000000000000
#01110:41
#01217:000000130000000013000000
#01212:2c0013000028000000180000
#0121b:000000000013
#01216:000000000000000000000018
#0121a:000000000024000000000000
#01312:1c18
#01316:000013180000000013000000
#01317:000000000013000000000000
#0131b:000013
#0141b:000000131300
#01412:000000140000000013000000
#01416:14
#01512:00130013
#0151b:000000000013000000000013
#01517:000000130013000013000000
#0161b:000013000000000000000013
#01616:00140014
#01612:000000000013000013000000
#01712:000014000000000000000013
#0171b:00131313
#01716:141414
#01714:00140000
#01812:190000190000000000000013
#01818:001300000000
#01815:000000000013190000190000
#0181b:000013
#01916:14001414
#0191a:0014000000000000
#01912:000000140000000013000000
#0191b:000000000000130000000013
#02016:14
#02012:000000140000000000001300000000000000000000130000
#0201a:00140000
#02017:0013
#0201b:0000000000130013
#02018:00000013
#02015:00000013
#02116:130000000000000000000024
#0211b:000000000000130000000000001300000000000000000000
#02112:000000000013000013000000
#02117:000000000013000000130000
#02212:000014000000000000000000130000001300000000160000
#0221b:000000130000000013000000
#02218:0000000000000016
#0231b:00130013
#02312:000000270013000000000028
#02316:000000000013000013000000
#02412:000013000000000000000013
#02416:000000140018000000140000
#0241b:000013
#0251a:0014000000000000
#0251b:00000000000000130000000013000000
#02512:0000130000130000
#02516:1413
#02517:0000000000000013
#02612:130024
#02616:000018130000000000000000
#0261b:000000000013000000000000
#02618:000000000000000000141414
#02614:000000000000000000141414
#0261a:000024
#02712:000000140019000000130000
#0271a:000000140000000000000014
#02715:000019
#0271b:0013
#02818:001300000000
#02812:180000000014000000000013
#02815:000013
#02816:0018
#0291b:000000000013000000000000
#02918:000013000000000000130000
#02915:000000130000290013000000
#02912:290000000000000000000013
#0301b:000000000013000000000000
#03018:000013000000001400140014
#03015:00130000
#03014:000000001414
#03012:2c2c
#03112:1616
#03115:00160000
#03118:2626
#0311b:00230000
#03110:41
#03218:1616
#03215:00160000
#03212:26232600
#0331b:00130000
#03312:25
#03319:25
#03412:130000000000001600140012
#03415:000000000013000000000000
#03418:000000161412
#0341b:23
#03518:1616
#03515:00160000
#03512:2626
#0351b:00230000
#03612:16231600
#03615:00160000
#03618:2626
#03815:0000000000000000000000000000000000000000000000000000001400000000000000000000000000000000000000000000000000000000000000000000000000000000000000000000000000000000000000000000000000000000000000000000000000000000000000000000000000000000000000000000000000000000000000000000000000000000000000000000000000000000000000000000000000000000000000000000000000000000000000000000000000000000000000000000000000000000000000000000000000000000000000000000000000000000000000000000000000000000000000000000000000000000000000000000000000000000000000000000000000000000000000000000000000000000000000000000000000000000000000000000000000000000000000000000000000000000
#03812:001400000013000000130013
#0381b:000000131300
#03816:000000000000001400001400
#03912:1c13
#03916:00141414
#0391b:00130013
#03718:0013
#0371b:13
#03716:0013000000000000
#03717:000000000000000000000000000000000000000000000000000000000000000000000000000000000000000000000000000000000000000000000000000000000000000000000000000000000000000000000000000000000000000000000000000000000000000000000000000000000000000000000000000000000000000000000000000000000000000000000000000000000000000000000000000000000000000000000000000000000000000000000000000000000000000000000000000000000000000000000000000000000000000000000000000000000000000000000000000000000000000000000000000000130000000000000000000000000000000000000000000000000000000000000000000000000000000000000000000000000000000000000000000000000000000000000000000000000000000000000000000000000000000000000000000000000000000000000000000000000000000000000000000000000000000000000000000000000000000000000000000000000000000000000000000000000000000000000000000000000000000000000000000000000000000000000000000000000000000000000000000000000000000000000000000000000000000000000000000000000000000000000000000000000000000000000000000000000000000000000000000000000000000000000000000000000000000000000000000000000000000000000000000000000000000000000000000000000000000000000000000000000000000000000000000000000000000000000000000000000000000000000000000000000000000000000000000000000000000000000000000000000000000000000000000000000000000000000000000000000000000000000000000000000000000000000000000000000000000000000000000000000000000000000000000000000000000000000000000000000000000000000000000000000000000000000000000000000000000000000000000000000000000000000000000000000000000000000000000000000000000000000000000000000000000000000000000000000000000000000000000000000000000000000000000000000000000000000000000000000000000000000000000000000000000000000000000000000000000000000000000000000000000000000000000000000000000000000000000000000000000000000000000000000000000000000000000000000000000000000000000000000000000000000000000000000000000000000000000000000000000000000000000000000000000000000000000000000000000000000000000000000000000000000000000000000000000000000000000000000000000000000000000000000000000000000000000000000000000000000000000000000000000000000000000000000000000000000000000000000000000000000000000000000000000000000000000000000000000000000000000000000000000000000000000000000000000000000000000000000000000000000000000000000000000000000000000000000000000000000000000000000000000000000000000000000000000000000000000000000000000000000000000000000000000000000000000000000000000000000000000000000000000000000000000000000000000000000000000000000000000000000000000000000000000000000000000000000000000000000000000000000000000000000000000000000000000000000000000000000000000000000000000000000000000000000000000000000000000000000000000000000000000000000000000000000000000000000000000000000000000000000000000000000000000000000000000000000000000000000000000000000000000000000000000000000000000000000000000000000000000000000000000000000000000000000000000000000000000000000000000000000000000000000000000000000000000000000000000000000000000000000000000000000000000000000000000000000000000000000000000000000000000000000000000000000000000000000000000000000000000000000000000000000000000000000000000000000000000000000000000000000000000000000000000000000000000000000000000000000000000000000000000000000000000000000000000000000000000000000000000000000000000000000000000000000000000000000000000000000000000000000000000000000000000000000000000000000000000000000000000000000000000000000000000000000000000000000000000000000000000000000000000000000000000000000000000000000000000024000000000000000000000000000000000000000000000000000000000000000000000000000000000000000000000000000000000000000000000000000000000000000000000000000000000000000000000000000000000000000000000000000000000000000000000000000000000000000000000000000000000000000000000000000000000000000000000000000000000000000000000000000000
#0371a:00000000000000000000000000000000000000000000000000000000000000000000000000000000000000000000000000000000000000000000000000000000000000000000000000000000000000000000000000000000000000000000000000000000000000000000000000000000000000000000000000000000000000000000000000000000000000000000000000000000000000000000000000000000000000000000000000000000000000000000000000000000000000000000000000000000000000000000000000000000000000000000000000000000000000000000000000000000000000000000000000000000000000000000000000000000000000000000000000000000000000000000000000000000000000000000000000000000000000000000000000000000000000000000000000000000000000000000000000000000000000000000000000000000000000000000000000000000000000000000000000000000000000000000000000000000000000000000000000000000000000000000000000000000000000000000000000000000000000000000000000000000000000000000000000000000000000000000000000000000000000000000000000000000000000000000000000000000000000000000000000000000000000000000000000000000000000000000000000000000000000000000000000000000000000000000000000000000000000000000000000000000000000000000000000000000000000000000000000000000000000000000000000000000000000000000001400000000000000000000000000000000000000000000000000000000000000000000000000000000000000000000000000000000
#03715:0023
#03712:23
#0911c:00120000
#0911a:12
#09115:22000015000000000000000000000000
#09112:00150000000000001200000000000000
#09119:00000000000000002200001500000000
#09116:00000000000000000015000000000000
#09114:00000012
#09219:221500000000000000000000
#09212:221500000000000000130000
#09213:000000000000000000000000000000000000000000000000000000000000000000000000000000000000000000000000000000000000000000000000000000000000000000000000000000000000000000000000000000000000000000000000000000000000000000000000000000000000000000000000000000000000000000000000001600000000000000000000000000000000000000000000000000000000000000000000000000000000000000000000000000000000000000000000000000000000000000000000000000000000000000000000000000000000000000000000000000000000000000000000000000000000000000000000000000000000000000000000000000000000000000000000000000000000000000000000000000000000000000000000000000000000000000000000000000000000000000000000000000000000000000000000000000000000000000000000000000000000000000000000000000000000000000000000000000000000000000000000000000000000000000000000000000000000000000000000000000000000000000000000000000000000000000000000000000000000000000000000000000000000000000000000000000000000000000000000000000000000000000000000000000000000000000000000000000000000000000000000000000000000000000000000000000000000000000000000000000000000000000000000000000000000000000000000000000000000000000000000000000000000000000000000000000000000000000000000000000000000000000000000000000000000000000000000000000000000000000000000000000000000000000000000000000000000000000000000000000000000000000000000000000000000000000000000000000000000000000000000000000000000000000000000000000000000000000000000000000000000000000000000000000000000000000000000000000000000000000000000000000000000000000000000000000000000000000000000000000000000000000000000000000000000000000000000000000000000000000000000000000000000000000000000000000000000000000000000000000000000000000000000000000000000000000000000000000000000000000000000000000000000000000000000000000000000000000000000000000000000000000000000000000000000000000000000000000000000000000000000000000000000000000000000000000000000000000000000000000000000000000000000
#09216:0000000000000013
#0921b:00000013
#09217:00000000000000000000000000000000000000000000000000000000000000000000000000000000000000000000000000000000000000000000000000000000000000000000000000000000000000000000000000000000000000000000000000000000000000000000000000000000000000000000000000000000000000000000000000000000000000000000000000000000000000000000000000000000000000000000000000000000000000000000000000000000000000000000000000000000000000000000000000000000000000000000000000000000000000000000000000000000000000000000000000000000000000000000000000000000000000000000000000000000000000000000000000000000000000000000000000000000000000000000000000000000000000000000000000000000000000000000000000000000000000000000000000000000000000000000000000000000000000000000000000000000000000000000000000000000000000000000000000000000000000000000000000000000000000000000000000000000000000000000000000000000000000000000000000000000000000000000000000000000000000000000000000000000000000000000000000000000000000000000000000000000000000000000000000000000000000000000000000000000000000000000000000000000000000000000000000000000000000000000000000000000000000000000000000000000000000000013000000000000000000000000000000000000000000000000000000000000000000000000000000000000000000000000000000000000000000000000000000000000000000000000000000000000
#04012:1313
#04016:140000000000000013000014
#0401b:000000130000000013000000
#04116:000000130014000014000000
#04112:000000000000130000000014
#0411b:00000013
#04117:000000000000000000000013
#0421b:001300000013001300000000
#04212:000000130000180000001300
#04216:000000000000000014180014
#04312:16181614
#04318:160000000014000000000000
#0431a:001400000000
#04314:000000000000000000000014
#04316:000014
#04310:41
#05012:0012
#05018:0012
#05014:00000012
#0501a:00000012
#0501c:12
#05112:12
#05116:0012
#0511c:12
#0521c:12
#05214:0012
#0521a:0012
#05216:000012
#05218:00000012
#05314:12000012
#0531a:12000012
#0531c:0012
#05316:0012
#0541c:12
#05418:0012
#05416:00000012
#05412:12
#05516:0012
#05518:00000012
#05512:12
#0551c:12
#0561c:12120000
#05612:12
#0561f:11
#04812:12
#04817:12
#04917:12
#05716:12
#0571c:12
#05717:00000012
#05812:12120000
#0581c:12
#05918:12
#05912:12
#05917:00000012
#06018:12
#0601c:00120000
#06012:12
#06016:00120000
#06017:00000012
#06116:12
#06112:00120000
#0611c:12
#06118:00120000
#06117:00000012
#06212:120000000000000000000025
#0621c:12
#06218:00000012
#06219:000000000000000000000015
#06412:140000140000140000140024
#06416:1414
#06418:0014001400140000
#0641a:000000140000000000000024
#06516:000000180000001800000014
#0651a:000000000014000000140000
#06512:000000181400
#06616:180018
#06612:00001418001400160018001a
#06618:0016
#06614:00000000001a
#06712:2c140014
#06812:00140014
#06818:000000120000000000000012
#0681c:000000121200
#06912:00140014
#0691c:00000012
#06916:000000000000000000000012
#07012:001200000000001200000000
#07014:00120012
#07016:180000000012180000000012
#07018:001600001600
#0701a:000014000014
#07112:240000161300
#07116:0014000000140000
#0711b:001300000000
#0711a:0014
#07118:26
#0711f:21
#07216:0014000000140000
#0721b:001300000000
#0721a:0014
#07212:240000000000160013000013
#07218:26
#0791a:0014000014000000
#07912:240000001300000000000000000000140000000000000000
#07916:2414
#0791b:000013
#0801a:0014000014000000
#08012:240000001300000000000000000000140000000000000000
#08016:2414
#0801b:000000000000000013000013
#07316:000014280000140014000000
#07317:13
#0731b:000000000013000000000000
#07312:000000000000000000280013
#07310:41
#07415:160000160000160016000000
#0741b:001300000000
#07412:000000000013000000000014
#0741a:00000014
#07416:000000000014
#07812:000000000014140000000000
#07818:000000000000001200000000
#0781a:00000012
#0781c:000000000000000000000012
#07814:000014
#07816:000000000000000000000018000000000000000014000000
#0781b:00130000
#0751a:0014
#07512:2600002a0000140000000014
#07516:000000000000000013180013
#07518:26
#0761a:000000000000140000000014
#07617:000013
#07612:0000001300001800
#07616:00130000
#07717:230000170023000013000000
#0771b:000000000013000000000000
#07712:00000028
#0811a:001400000000
#08112:130000000013000014280000
#0811b:000000000000130000000013
#08116:00280000
#08215:19
#08212:000013190000180014000000
#0821b:000000000013000000000000
#08216:000000000000001400181400
#0821a:000000000000000000000014
#08318:26160000
#08312:26000013
#08317:000000000000000000000013
#0831a:00002424
#08912:26162424
#0891a:00000014
#08916:000000000000000000000013
#08918:26
#09016:13002424
#09017:001300000000
#09012:00131313
#0901b:000013
#0901a:24240000
#08417:13
#0841b:00131313
#08416:000013000000240000240000
#08412:240000240000000013000013
#08516:00140014
#0851a:0014
#08512:14000013
#0851b:00130000
#08517:13
#08510:41
#08617:001300000000
#0861b:000000130000000000000013
#0861a:000000000014000000140000
#08616:140014
#08612:000000000000001400000000000000000000140000000000
#08712:13131313
#08717:000000000013000000000000
#08716:000000000000000000000013
#08812:000000000013000014160000
#08816:000000000000001400000014
#0881a:0014
#0881b:13130000
#08818:00000016
#10917:000000130000000013000013
#10912:2c0000130028000000180000
#1091a:000000000024000000000000
#11016:000000130028000013180000
#1101b:001300000000
#11012:2c0000000024000000001318
#11112:1c0000180000000013000000
#11117:001300001300
#11116:000000000013180000000000
#11212:000000131300
#1121a:00140000
#1121b:000013
#11216:14
#09415:00130000
#0941b:0000001300000000
#09418:000000130000000016000000
#09412:0000001300002600
#09416:000000000000000000000014
#09317:0000130000000013
#0931b:0000001300001300
#09312:0000130000000013
#09316:0000001300001300
#09516:140014000014140000000014
#0951a:1414
#09512:000000180000000014180000
#09616:140014180000001400001400
#09612:1400000000141c00001c0014
#0961a:000014
#04412:1c1400000000
#04416:000000180000000014000000
#04418:000000000000160000000014
#0441a:00000014
#04414:000000000014000000000000
#04512:2c00181400002c0000180000
#04516:000000180014000018000014
#0451a:00000014
#04618:000016000000000000000016
#04612:2c0000160000160016000016
#04615:000000000016000000000000
#04712:0000001800000000142c0000
#04716:000000000000141400000000
#0471a:000000000014000000000000
#06312:0014
#0631a:00140024
#06317:001500000000000000000000
#09712:2c0000130000000013180000
#09716:000000140000140000000013
#0971b:0013
#0971a:000000000000000000000014
#09710:41
#09816:001400140000
#09812:00180013
#0981b:0013
#1051b:000000130000000013000000
#10516:00141418
#10512:2c0000000000130000000024
#10517:000000000000000000000013
#10616:000014180000140000000000
#10612:0013
#1061b:00000013
#09912:180000130000000013000000
#09916:001800000000
#0991b:0013
#09917:000000000000000000130013
#0991a:000000000000000000000014
#10012:000000000000170000000016000000000000140000000000
#10016:001300001814
#10018:000000000016160000000000
#1001a:000000000000000000000014
#10818:000000000014140016000000
#10814:000000000000000000000014000000000000000000000000
#10812:000016
#10817:000013170000000000000000
#10112:180000130000000013130000
#1011b:000000130013000000000000
#10116:000000000014000000000000
#1021b:000000130000000013130000
#10212:150000130013000000000013
#10216:000014000014000000000000
#10219:15
#10316:141400181300
#1031b:000000130000000013000000
#10312:000000000013000000001300
#10412:000013180013000000180000
#1041b:130000000000000013000013
#10416:000000000000141400000000
#10716:180000000000000000130013
#10712:000018000000130000000014
#1071b:000000130000000013000000
#11312:000000000016000016000026
#11315:00160016
#11318:000016000026000000000016
#11412:000000000016000000000000
#11415:000000160000000016160016
#11418:000016000026000000000000
#11512:1c0014000013000000000014
#1151a:001400000000
#11516:000000000014000014000024
#1151b:000013
#11616:000014140000000000140000
#11612:00000000001400000000002c
#11618:0014
#11614:000000000000001400000000
#1161a:000014
#00152:160000000000000000000014
#00158:16
#00156:000000000000000000000053
#00252:000000000054000034000054
#0025a:000000000000000064000044
#00257:000000000000000000004400002400000000000000000000
#00255:000000000000000000000000000000000000002400000000
#00356:00005353
#00352:0000000000000023
#0045b:53
#00456:530035
#0045a:000000000044000000000000
#00452:000034
#00455:000000000045000000000000
#00652:3c4c0000
#00552:54
#0055a:000000000064000000000000
#00752:1c
#00756:000000000000630000000014
#0075b:000000000000000000000063
#00856:0035
#00855:00000045
#00957:0053
#00952:1c0000000000000000000053
#00956:000000000000000000000014
#01052:000066
#01058:000056
#01156:000000000058000000000000
#01152:000000000034000000000000
#01252:000000000068000000000000
#0125a:000000000044000000000000
#01352:1c
#01356:000053
#0145b:430063
#01452:000000240000000053000000
#01456:54
#01558:16
#01552:16
#01557:000000000063000000000000
#01756:542400
#01754:00540000
#01752:002400000000
#01956:54340000
#01952:00340000
#0195a:0024000000000000
#02056:64440000
#02052:0024000000000023
#0205a:00440000
#0205b:0000000000230023
#02057:0053
#02058:00000053
#02055:00000053
#02156:530000000000000000000054
#02157:000000000053000000530000
#0215b:000000000000000000000000002300000000000000001300
#0225b:000000530000000063000000
#02252:000024000000000000000000000000005300000000260000
#02258:0000000000000026
#02356:000000000053000000000000
#0255a:0024000000000000
#02556:6453
#02557:0000000000000023
#0255b:00000053
#02552:0000000000230000
#02656:00530000
#02654:000000000000000000645464
#02658:000000000000000000546454
#02652:000054
#0265a:000064
#02752:34
#0275a:44
#02852:58130000
#02856:0068
#0285b:00000013
#02952:49
#02955:0039
#03052:4c3c
#03152:3636
#03155:00360000
#03258:4646
#03255:00460000
#0345b:63
#03452:63
#03558:4646
#03555:00360000
#03652:3636
#03655:00460000
#03855:0000000000000000000000000000000000000000000000000000002400000000000000000000000000000000000000000000000000000000000000000000000000000000000000000000000000000000000000000000000000000000000000000000000000000000000000000000000000000000000000000000000000000000000000000000000000000000000000000000000000000000000000000000000000000000000000000000000000000000000000000000000000000000000000000000000000000000000000000000000000000000000000000000000000000000000000000000000000000000000000000000000000000000000000000000000000000000000000000000000000000000000000000000000000000000000000000000000000000000000000000000000000000000000000000000000000000000
#03852:002400000000000000000000
#03952:1c
#03758:0053
#03755:0053
#0375b:63
#03752:63
#03756:0023000000000000
#03757:000000000000000000000000000000000000000000000000000000000000000000000000000000000000000000000000000000000000000000000000000000000000000000000000000000000000000000000000000000000000000000000000000000000000000000000000000000000000000000000000000000000000000000000000000000000000000000000000000000000000000000000000000000000000000000000000000000000000000000000000000000000000000000000000000000000000000000000000000000000000000000000000000000000000000000000000000000000000000000000000000000230000000000000000000000000000000000000000000000000000000000000000000000000000000000000000000000000000000000000000000000000000000000000000000000000000000000000000000000000000000000000000000000000000000000000000000000000000000000000000000000000000000000000000000000000000000000000000000000000000000000000000000000000000000000000000000000000000000000000000000000000000000000000000000000000000000000000000000000000000000000000000000000000000000000000000000000000000000000000000000000000000000000000000000000000000000000000000000000000000000000000000000000000000000000000000000000000000000000000000000000000000000000000000000000000000000000000000000000000000000000000000000000000000000000000000000000000000000000000000000000000000000000000000000000000000000000000000000000000000000000000000000000000000000000000000000000000000000000000000000000000000000000000000000000000000000000000000000000000000000000000000000000000000000000000000000000000000000000000000000000000000000000000000000000000000000000000000000000000000000000000000000000000000000000000000000000000000000000000000000000000000000000000000000000000000000000000000000000000000000000000000000000000000000000000000000000000000000000000000000000000000000000000000000000000000000000000000000000000000000000000000000000000000000000000000000000000000000000000000000000000000000000000000000000000000000000000000000000000000000000000000000000000000000000000000000000000000000000000000000000000000000000000000000000000000000000000000000000000000000000000000000000000000000000000000000000000000000000000000000000000000000000000000000000000000000000000000000000000000000000000000000000000000000000000000000000000000000000000000000000000000000000000000000000000000000000000000000000000000000000000000000000000000000000000000000000000000000000000000000000000000000000000000000000000000000000000000000000000000000000000000000000000000000000000000000000000000000000000000000000000000000000000000000000000000000000000000000000000000000000000000000000000000000000000000000000000000000000000000000000000000000000000000000000000000000000000000000000000000000000000000000000000000000000000000000000000000000000000000000000000000000000000000000000000000000000000000000000000000000000000000000000000000000000000000000000000000000000000000000000000000000000000000000000000000000000000000000000000000000000000000000000000000000000000000000000000000000000000000000000000000000000000000000000000000000000000000000000000000000000000000000000000000000000000000000000000000000000000000000000000000000000000000000000000000000000000000000000000000000000000000000000000000000000000000000000000000000000000000000000000000000000000000000000000000000000000000000000000000000000000000000000000000000000000000000000000000000000000000000000000000000000000000000000000000000000000000000000000000000000000000000000000000000000000000000000000000000000000000000000000000000000000000000000000000000000000000000000000000000000000000000000000000000000000000000000000000000000000000000000000000000000000000000000000000000054000000000000000000000000000000000000000000000000000000000000000000000000000000000000000000000000000000000000000000000000000000000000000000000000000000000000000000000000000000000000000000000000000000000000000000000000000000000000000000000000000000000000000000000000000000000000000000000000000000000000000000000000000000
#0375a:00000000000000000000000000000000000000000000000000000000000000000000000000000000000000000000000000000000000000000000000000000000000000000000000000000000000000000000000000000000000000000000000000000000000000000000000000000000000000000000000000000000000000000000000000000000000000000000000000000000000000000000000000000000000000000000000000000000000000000000000000000000000000000000000000000000000000000000000000000000000000000000000000000000000000000000000000000000000000000000000000000000000000000000000000000000000000000000000000000000000000000000000000000000000000000000000000000000000000000000000000000000000000000000000000000000000000000000000000000000000000000000000000000000000000000000000000000000000000000000000000000000000000000000000000000000000000000000000000000000000000000000000000000000000000000000000000000000000000000000000000000000000000000000000000000000000000000000000000000000000000000000000000000000000000000000000000000000000000000000000000000000000000000000000000000000000000000000000000000000000000000000000000000000000000000000000000000000000000000000000000000000000000000000000000000000000000000000000000000000000000000000000000000000000000000000005400000000000000000000000000000000000000000000000000000000000000000000000000000000000000000000000000000000
#09155:52000055000000000000000000000000
#09152:00250000000000000000000000000000
#09159:00000000000000005200005500000000
#09156:00000000000000000025000000000000
#09252:525500000000000000530000
#09259:522500000000000000000000
#09253:000000000000000000000000000000000000000000000000000000000000000000000000000000000000000000000000000000000000000000000000000000000000000000000000000000000000000000000000000000000000000000000000000000000000000000000000000000000000000000000000000000000000000000000000002600000000000000000000000000000000000000000000000000000000000000000000000000000000000000000000000000000000000000000000000000000000000000000000000000000000000000000000000000000000000000000000000000000000000000000000000000000000000000000000000000000000000000000000000000000000000000000000000000000000000000000000000000000000000000000000000000000000000000000000000000000000000000000000000000000000000000000000000000000000000000000000000000000000000000000000000000000000000000000000000000000000000000000000000000000000000000000000000000000000000000000000000000000000000000000000000000000000000000000000000000000000000000000000000000000000000000000000000000000000000000000000000000000000000000000000000000000000000000000000000000000000000000000000000000000000000000000000000000000000000000000000000000000000000000000000000000000000000000000000000000000000000000000000000000000000000000000000000000000000000000000000000000000000000000000000000000000000000000000000000000000000000000000000000000000000000000000000000000000000000000000000000000000000000000000000000000000000000000000000000000000000000000000000000000000000000000000000000000000000000000000000000000000000000000000000000000000000000000000000000000000000000000000000000000000000000000000000000000000000000000000000000000000000000000000000000000000000000000000000000000000000000000000000000000000000000000000000000000000000000000000000000000000000000000000000000000000000000000000000000000000000000000000000000000000000000000000000000000000000000000000000000000000000000000000000000000000000000000000000000000000000000000000000000000000000000000000000000000000000000000000000000000000000000000000000
#09256:0000000000000023
#0925b:00000063
#09257:00000000000000000000000000000000000000000000000000000000000000000000000000000000000000000000000000000000000000000000000000000000000000000000000000000000000000000000000000000000000000000000000000000000000000000000000000000000000000000000000000000000000000000000000000000000000000000000000000000000000000000000000000000000000000000000000000000000000000000000000000000000000000000000000000000000000000000000000000000000000000000000000000000000000000000000000000000000000000000000000000000000000000000000000000000000000000000000000000000000000000000000000000000000000000000000000000000000000000000000000000000000000000000000000000000000000000000000000000000000000000000000000000000000000000000000000000000000000000000000000000000000000000000000000000000000000000000000000000000000000000000000000000000000000000000000000000000000000000000000000000000000000000000000000000000000000000000000000000000000000000000000000000000000000000000000000000000000000000000000000000000000000000000000000000000000000000000000000000000000000000000000000000000000000000000000000000000000000000000000000000000000000000000000000000000000000000000023000000000000000000000000000000000000000000000000000000000000000000000000000000000000000000000000000000000000000000000000000000000000000000000000000000000000
#04052:530000000000000000000013
#0405b:00630000
#04056:000000000000000053000054
#04152:000000000000000000000014
#04157:000000000000000000000053
#0425b:002300000000000000000000
#04252:00530000
#04358:46
#04352:36181614
#05652:52
#04957:52
#04857:52
#05156:0052
#0515c:22
#05452:22
#0555c:22
#05756:52
#0575c:52
#0585c:62
#05958:62
#05952:62
#06058:62
#0605c:00220000
#06052:62
#06056:00220000
#06156:52
#06152:00220000
#0615c:52
#06158:00220000
#06252:620000000000000000000055
#0625c:52
#06259:000000000000000000000015
#06752:1c
#06456:2424
#06458:0054005400540000
#0645a:000000240000000000000054
#06452:000000000000000000000054
#06652:00480000
#06656:48
#06552:0018
#06556:00180000
#06858:000000000000000000000052
#0695c:00000052
#07156:0024000000240000
#0715a:00005444
#07152:54341600
#07158:16
#07256:0024000000240000
#0725a:00005444
#07252:54341600
#07258:16
#0795a:0024000014000000
#07952:1400000000240000
#07956:54345444
#0805a:0024000014000000
#08052:1400000000240000
#08056:54345444
#07357:53
#07356:0064
#07455:460000360000560036000000
#07552:0000001a0000000000000034
#07558:56
#07556:000000000000000000000053
#07757:530000000053000000000000
#07656:00530000
#07652:0000002300000000
#08152:53
#0815b:0063
#08255:39
#08252:00490000
#08358:46260000
#08352:56
#08952:36260000
#08958:66
#09056:63
#09052:0053
#08457:53
#0845b:0063
#0855a:0064
#08552:54
#08556:00540054
#08656:540000000014000000000000
#0865a:000000000014000000000000
#0865b:000000000000000000000053
#08652:000000000000002400000000000000000000000000000000
#08757:000000000063000000000000
#08756:000000000000000000000053
#09352:3300530033000023
#0935b:4300002300006300
#09357:0000530033000023
#09356:0000002300006300
#11152:1c
#11157:000063
#1125a:00240000
#1125b:000063
#11252:330000000000000053000016
#11256:64
#11258:000000000000000000000016
#1095a:000000000044000000000000
#10952:000000000068000000000000
#11052:000000000034000000000000
#11056:000000000058000000000000
#08852:00000016
#08858:00000016
#0635a:00540054
#06352:0064
#06357:002500000000000000000000
#09455:00531300
#0945b:4300002300000000
#09458:00631300
#09452:0000002300000000
#09456:43
#09552:00380018
#09556:5414
#0955a:1454
#09652:14
#09656:64480000
#09752:1c
#0975b:0053
#09756:000000000000000000000053
#0975a:000000000000000000000014
#04452:1c
#04456:00180000
#04458:0016
#0445a:00000014
#04658:000000000000000000000056
#04652:000000000000000000000056
#04752:00180000
#04556:00480000
#04552:00000038
#09856:00003444
#0985b:0053
#09852:00000043
#10552:1c0000000000630000000014
#10557:000000000000000000000063
#10656:00004434
#10652:0063
#1065b:00000033
#09952:38530000
#0995a:000000000000000000000014
#09957:000000000000000000000053
#10858:000056
#10852:000066
#10152:18
#1015b:000000000023000000000000
#10252:000000000023000000000000
#10352:000000000023
#10356:000053
#10452:00180018
#1045b:53
#10756:480000000000000000000053
#1075b:00630000
#10752:000000000000000000000014
#11352:000000000036000000000000
#11358:000000000000000000000046
#11452:000000000036000000000000
#11552:1c0000000000000000000014
#11556:000000000000000000000054
#11652:00000000000000000000001c
#001320:000000132300
#001360:000000000000000000000013
#0023b0:002300000000
#002320:000000000014000024000000
#002370:000000000000000000000000005400000000000000000000
#0023a1:000000000000000014000024
#002351:000000000000000000000000000000000000005400000000
#002320:000000000000000000000014
#003370:002300000000
#003360:0013
#0033b0:00000023
#003361:00000013
#003321:0000000000000053
#004361:33
#004321:00230000
#0043b0:13
#004370:00230000
#005320:14
#005360:00240000
#0053a0:000000000014000000000000
#005360:000024
#0073b0:00132300
#007361:0013
#007321:000023
#0073b1:000000000000000000000013
#008371:002300000000
#009321:00132300
#009370:0013
#0093b0:000023
#009320:000000000000000000000013
#010360:002300000000
#010320:000000000000000016000022
#010381:000016
#0103c1:000000000000000000000022
#011361:000000000018000000000000
#0113a1:000024
#012321:000000000018000024000000
#013361:000013
#013321:000000000000000000000023
#013370:000000000000000000000013
#013390:000000000000000000000000000000000000000000000033
#0143b0:23
#014361:1424
#014321:00540000
#014321:000013
#015381:26
#0143b0:000013
#015320:26
#015370:000000000013000000000000
#015320:000023
#016360:142400000000
#016360:000000142400
#017360:145400
#017320:005400240000
#017340:00540000
#019360:14240000
#0193a0:0054000000000000
#020360:14240000
#020320:0054000000000000
#020370:0013
#0203b0:0000000000530053
#020380:00000033
#021390:23
#020351:00000013
#020321:0000000000000053
#021361:33
#021321:00230000
#021371:000000000013000023000000
#0213b1:000000000000000000000000005300000000000000000000
#021371:00000013
#0213b1:000000000000000000000023
#021360:000000000000000000000014
#022320:005400000000000000000000
#022360:00240000
#0223b1:00130000
#022371:0023
#0223b1:000013
#022321:0000000000000056
#023361:22
#022320:000013
#022380:0000000000000056
#023380:22
#023360:000000000013000000000000
#0233b0:000023
#024360:142400000000
#024360:000000142400
#025360:14240000
#0253a0:0054000000000000
#025360:00001323
#025320:0000000000530000
#0253b1:00000013
#025371:0000000000000053
#0263b1:23
#026361:00130000
#026321:000000000023000000000000
#026321:000014
#026381:000000000000000000540054
#026341:000000000054
#027321:24
#0263a0:000014
#026340:000000000000000000540054
#026380:000000000054
#0273a0:24
#028320:18230000
#028360:0018
#0283b0:00000023
#033360:00140000
#033320:000053230000
#033361:0014
#0333b1:000000000000005300230000
#033360:00000014
#033320:000000000053
#034320:33
#0343b0:00230000
#0343b1:13
#034321:00230000
#037321:13230000
#037361:0053000000000000
#0373b0:13230000
#037370:00000000000000000000000000000000000000000000000000000000000000000000000000000000000000000000000000000000000000000000000000000000000000000000000000000000000000000053000000000000000000000000000000000000000000000000000000000000000000000000000000000000000000000000000000000000000000000000000000000000000000000000000000000000000000000000000000000000000000000000000000000000000000000000000000000000000000000000000000000000000000000000000000000000000000000000000000000000000000000000000000000000000000000000000000000000000000000000000000000000000000000000000000000000000000000000000000000000000000000000000000000000000000000000000000000000000000000000000000000000000000000000000000000000000000000000000000000000000000000000000000000000000000000000000000000000000000000000000000000000000000000000000000000000000000000000000000000000000000000000000000000000000000000000000000000000000000000000000000000000000000000000000000000000000000000000000000000000000000000000000000000000000000000000000000000000000000000000000000000000000000000000000000000000000000000000000000000000000000000000000000000000000000000000000000000000000000000000000000000000000000000000000000000000000000000000000000000000000000000000000000000000000000000000000000000000000000000000000000000000000000000000000000000000
#037350:0013
#0373b0:000023
#037381:0013
#037321:000023
#0373b1:000000000000000000000013
#0373a1:00000000000000000000000000000000000000000000000000000000000000000000000000000000000000000000000000000000000000000000000000000000000000000000000000000000000000000000000000000000000000000000000000000000000000000000000000000000000000000000000000000000000000000000000000000000000000000000000000000000000000000000000000000000000000000000000000000000000000000000000000000000000000000000000000000000000000000000000000000000000000000000000000000000000000000000000000000000000000000000000000000000000000000000000000000000000000000000000000000000000000000000000000000000000000000000000000000000000000000000000000000000000000000000000000000000000000000000000000000000000000000000000000000000000000000000000000000000000000000000000000000000000000000000000000000000000000000000000000000000000000000000000000000000000000000000000000000000000000000000000000000000000000000000000000000000000000000000000000000000000000000000000000000000000000000000000000000000000000000000000000000000000000000000000000000000000000000000000000000000000000000000000000000000000000000000000000000000000000000000000000000000000000000000000000000000000000000000000000000000000000000000000000000000000000000000005400000000000000000000000000000000000000000000000000000000000000000000000000000000000000000000000000000000
#038351:0000000000000000000000000000000000000000000000000000005400000000000000000000000000000000000000000000000000000000000000000000000000000000000000000000000000000000000000000000000000000000000000000000000000000000000000000000000000000000000000000000000000000000000000000000000000000000000000000000000000000000000000000000000000000000000000000000000000000000000000000000000000000000000000000000000000000000000000000000000000000000000000000000000000000000000000000000000000000000000000000000000000000000000000000000000000000000000000000000000000000000000000000000000000000000000000000000000000000000000000000000000000000000000000000000000000000000
#0383a1:000000000000000000000000000000000000000000000000000000000000000000000000000000000000000000000000000000000000000000000000000000000000000000000000000000000000000000000000000000000000000000000000000000000000000000000000000000000000000000000000000000000000000000000000000000000000000000000000000000000000000000000000000000000000000000000000000000000000000000000000000000000000000000000000000000000000000000000000000000000000000000000000000000000000000000000000000000000000000000000000000000000000000000000000000000000000000000000000000000000000000000000000000000000000000000000000000000000000000000000000000000000000000000000000000000000000000000000000000000000000000000000000000000000000000000000000000000000000000000000000000000000000000000000000000000000000000000000000000000000000000000000000000000000000000000000000000000000000000000000000000000000000000000000000000000000000000000000000000000000000000000000000000000000000000000000000000000000000000000000054000000000000000000000000000000000000000000000000000000000000000000000000000000000000000000000000000000000000000000000000000000000000000000000000000000000000000000000000000000000000000000000000000000000000000000000000000000000000000000000000000000000000000000000000000000000000000000000000000000000000000000000000000000000000000000000000000000000000000000000000000000000000000000000000000000000000000000000000000000000000000000000000000000000000000000000000000000000000000000000000000000000000000000000000000000000000000000000000000000000000000000000000000000000000000000000000000000000000000000000000000000000000000000000000000000000000000000000000000000000000000000000000000000000000000000000000000000000000000000000000000000000000000000000000000000000000000000000000000000000000000000000000000000000000000000000000000000000000000000000000000000000000000000000000000000000000000000000000000000000000000000000000000000000000000000000000000000000000000000000000000000000000000000000000000000000000000000000000000000000000000000000000000000000000000000000000000000000000000000000000000000000000000000000000000000000000000000000000000000000000000000000000000000000000000000000000000000000000000000000000000000000000000000000000000000000000000000000000000000000000000000000000000000000000000000000000000000000000000000000000000000000000000000000000000000000000000000000000000000000000000000000000000000000000000000000000000000000000000000000000000000000000000000000000000000000000000000000000000000000000000000000000000000000000000000000000000000000000000000000000000000000000000000000000000000000000000000000000000000000000000000000000000000000000000000000000000000000000000000000000000000000000000000000000000000000000000000000000000000000000000000000000000000000000000000000000000000000000000000000000000000000000000000000000000000000000000000000000000000000000000000000000000000000000000000000000000000000000000000000000000000000000000000000000000000000000000000000000000000000000000000000000000000000000000000000000000000000000000000000000000000000000000000000000000000000000000000000000000000000000000000000000000000000000000000000000000000000000000000000000000000000000000000000000000000000000000000000000000000000000000000000000000000000000000000000000000000000000000000000000000000000000000000000000000000000000000000000000000000000000000000000000000000000000000000000000000000000000000000000000000000000000000000000000000000000000000000000000000000000000000000000000000000000000000000000000000000000000000000000000000000000000000000000000000000000000000000000000000000000000000000000000000000000000000000000000000000000000000000000000000000000000000000000000000000000000000000000000000000000000000000000000000000000000000000000000000000000000000000000000000000000000000000000000000000000000000000000000000000000000000000000000000000000000000000000000000000000000000000000000
#0383b1:00230000
#037370:000000000000000000000014
#038320:005400000000000000000000
#038370:00240000
#040320:13
#040360:00230000
#0403b1:00130000
#040371:0023
#040361:000013
#040321:000000000000000000000023
#040360:000000000000000000000014
#0413a0:00240000
#041370:000000000000000000000013
#0423b0:005300000000000000000000
#042370:00230000
#042321:00130000
#042361:000000000023000000000000
#046381:000000162600
#046381:000000000000000000000016
#047321:002400000000
#046320:000000000000000000000016
#0473a0:000054240000000000000000
#048370:12
#0493c0:22
#049371:12
#050321:22
#0513c1:12
#051381:0022
#051360:0012
#052320:22
#054320:12
#054360:0022
#0553c0:12
#055380:0022
#056320:12
#056360:0052
#057360:32
#057320:0022
#0573c1:12
#057381:0022
#0583c1:12
#058381:0052
#059381:32
#0593c1:0022
#059320:12
#059360:0022
#060380:1222
#0603c0:00520000
#060321:1222
#060361:00520000
#061361:1222
#061321:00520000
#0613c0:1222
#061380:00520000
#062320:12
#062360:000000000000000032220000
#0623c1:12
#062381:000022
#062320:000000000000000000000015
#063370:005500000000000000000000
#063320:00250000
#0633a1:00140000
#063361:0024
#063320:0014
#063360:00000024
#0633a1:00000014
#064361:5454
#064381:0054005400540000
#0643a1:00540024
#064321:000000000000000000000014
#0653a1:002400000000
#0643a0:000000000000000000000014
#065320:000054240000000000000000
#068360:000000122200
#068380:000000000000000000000012
#0693c0:00220000
#0693c0:00000012
#069380:000000000000000000000022
#071320:14240000
#071360:0054000000000000
#0713a0:00001424
#071360:0000000000540000
#072320:14240000
#072360:0054000000000000
#0723a0:00001424
#072360:0000000000540000
#073370:13
#0733b0:002300000000
#073360:0014
#073320:000023
#074350:0016
#0743b0:000023
#075380:16
#0753c0:00220000
#075360:000000000000000000000013
#0763b0:00230000
#076361:00132300
#076321:0000005300000000
#077371:13
#077321:00240000
#077371:000000000013000000000000
#077321:000024
#0773b1:00000013
#077361:000000000054
#078361:24
#078320:13
#078360:005400240000000000000000
#079360:14240000
#0793a0:0054000000000000
#079360:00001424
#079320:0000000000540000
#080360:14240000
#0803a0:0054000000000000
#080360:00001424
#080320:0000000000540000
#081320:13
#081360:002300000000
#0813b0:0013
#081370:000023
#083320:1626
#083380:00360000
#084370:13
#0843b0:002300000000
#0843b0:0013
#084370:000023
#085320:1400005424000000
#085360:0054540000000000
#0853a1:0000000014000054
#085361:0000000000545400
#0863a1:24
#086360:140000000024000000000000
#086320:000000540000005400000000000000000000000000000000
#0863b0:000000000000000000000013
#087370:002300000000
#087370:000000000013000000000000
#0873b0:000023
#087360:000000000000000000000013
#088320:002300000000
#089380:1626
#089320:00360000
#090360:13
#090320:002300000000
#090320:0013
#090360:000023
#091350:120000000000000000000000000000000000000000000000000000000000000000000000000000000000000000000000000000000000000000000000520000000000000000000000000000000000000000000000000000000032550000000000000000000000000000000000000000000000000000000000220000000000000000000000000000000000000000000000000000000000000000000000000000000000000000000000000000000000000000000000000000000000000000000000000000000000000000000000000000000000000000000000000000000000000000000000000000000000000000000000000000000000000000000000000000000000000000000000000000000000000000000000000000000000000000000000000000000000000000000000000000000000000000000000000000000000000000000000000000000000000000000000000000000000000000000000000000000000000000000000000000000000000000000000000000000000000000000000000000000000000000000000000000000000000000000000000000000000000000000000000000000000000000000000000000000000000000000000000000000000000000000000000000000000000000000000000000000000000000000000
#091320:00550000000000000000000000000000
#091390:000000000000000000000000000000000000000000000000000000000000000000000000000000000000000000000000000000000000000000000000000000000000000000000000000000000000000000000000000000000000000000000000000000000000000000000000000000000000000000000000000000000000000000000000000000000000000000000000000000000000000000000000000000000000000000000000000000000000000000000000000000000000000000000000000000000000000000000000000000000000000000000000000000000000000000000000000000000000000000000000120000000000000000000000000000000000000000000000000000000000000000000000000000000000000000000000000000000000000000000000520000000000000000000000000000000000000000000000000000000032550000000000000000000000000000000000000000000000000000000000220000000000000000000000000000000000000000000000000000000000000000000000000000000000000000000000000000000000000000000000000000000000000000000000000000000000000000000000000000000000000000000000000000000000000000000000000000000000000000000000
#091360:00000000000000000055000000000000
#092320:120000000000000000000000000000000000000000000000000000000000000000000000000000000000000000000000000000000000000000000000000000000000000000000000000000000000000000000000000000000000000000000000000000000000000000000000000000000000000000000000000000000000000000000000000000000000000000000000000000000000000000000000000000005500000000000000000000000000000000000000000000000000000000000000000000000000000000000000000000000000000057570000000000000000000000000000000000000000000000000000000000000000000000000000000000000000000000000000000000000000000000000000000000000000000000000000000000000000000000000000000000000000000000000000000000000000000000000000000000000000000000000000000000000000000000000000000000000000000000000000000000000000000000000000000000000000000000000000000000000000000000000000000000000000000000000000000000000000000000000000000000000000000000000000000000000000000000000000000000000000000000000000000000000000000000000000000000000000000000000000000000000000000000000000000000000000000000000000000000000000000000000000000000000000000000000000000000000000000000000000000000000000000000000000000000000000000000000000000000000000000000000000000000000000000000000000000000000000000000000000000000000000000000000000000000000000000000000000000000000000000000000000000000000000000000000000000000000000000000000000000000000000000000000000000000000000000000000000000000000000000000000000000000000000000000000000000000000000000000000000000000000000000000000000000000000000000000000000000000000000000000000000000000000000000000000000000000000000000000000000000000000000000000000000000000000000000000000000000000000000000000000000000000000000000000000000000000000000000000000000000000000000000000000000000000000000000000000000000000000000000000000000000000000000000000000000000000000000000000000000000000000000000000000000000000000000000000000000000000000000000000000000000000000000000000000000000000000000000000000000000000000000000000000000000000000000000000000000000000000000000000000000000000000000000000000000000000000000000000000000000000000000000000000000000000000000000000000000000000000000000000000000000000000000000000000000000000000000000000000000000000000000000000000000000000000000000000000000000000000000000000000000000000000000000000000000000000000000000000000000000000000000000000000000000000000000000000000000000000000000000000000000000000000000000000000000000000000000000000000000000000000000000000000000000000000000000000000000000000000000000000000000000000000000000000000000000000000000000000000000000000000000000000000000000000000000000000000000000000000000000000000000000000000000000000000000000000000000000000000000000000000000000000000000000000000000000000000000000000000000000000000000000000000000000000000000000000000000000000000000000000000000000000000000000000000000000000000000000000000000000000000000000000000000000000000000000000000000000000000000000000000000000000000000000000000000000000000000000000000000000000000000000000000000000000000000000000000000000000000000000000000000000000000000000000000000000000000000000000000000000000000000000000000000000000000000000000000000000000000000000000000000000000000000000000000000000000000000000000000000000000000000000000000000000000000000000000000000000000000000000000000000000000000000000000000000000000000000000000000000000000000000000000000000000000000000000000000000000000000000000000000000000000000000000000000000000000000000000000000000000000000000000000000000000000000000000000000000000000000000000000000000000000000000000000000000000000000000000000000000000000000000000000000000000000000000000000000000000000000000000000000000000000000000000000000000000000000000000000000000000000000000000000000000000000000000000000000000000000000000000000000000000000000000000000000000000000000000000000000000000000000000000000000000000000000000000000000000000000000000
#092330:000000000000000000000000000000000000000000000000000000000000000000000000000000000000000000000000000000000000000000000000000000000000000000000000000000000000000000000000000000000000000000000000000000000000000000000000000000000000000000000000000000000000000000000000005600000000000000000000000000000000000000000000000000000000000000000000000000000000000000000000000000000000000000000000000000000000000000000000000000000000000000000000000000000000000000000000000000000000000000000000000000000000000000000000000000000000000000000000000000000000000000000000000000000000000000000000000000000000000000000000000000000000000000000000000000000000000000000000000000000000000000000000000000000000000000000000000000000000000000000000000000000000000000000000000000000000000000000000000000000000000000000000000000000000000000000000000000000000000000000000000000000000000000000000000000000000000000000000000000000000000000000000000000000000000000000000000000000000000000000000000000000000000000000000000000000000000000000000000000000000000000000000000000000000000000000000000000000000000000000000000000000000000000000000000000000000000000000000000000000000000000000000000000000000000000000000000000000000000000000000000000000000000000000000000000000000000000000000000000000000000000000000000000000000000000000000000000000000000000000000000000000000000000000000000000000000000000000000000000000000000000000000000000000000000000000000000000000000000000000000000000000000000000000000000000000000000000000000000000000000000000000000000000000000000000000000000000000000000000000000000000000000000000000000000000000000000000000000000000000000000000000000000000000000000000000000000000000000000000000000000000000000000000000000000000000000000000000000000000000000000000000000000000000000000000000000000000000000000000000000000000000000000000000000000000000000000000000000000000000000000000000000000000000000000000000000000000000000000000000000
#092350:000000000000000000000000000000000000000000000000000000000000000000000000000000000000000000000000000000000000000000000000000000000000000000000000000000000000000000000000000000000000000000000000000000000000000000000000000000000000000000000000000000000000000000000000000000000000000000000000000000000000000000000000000000005200000000000000000000000000000000000000000000000000000000000000000000000000000000000000000000000000000000000000000000000000000000000000000000000000000000000000320000000000000000000000000000000000000000000000000000000000000000000000000000000000000000000000000000000000000000000000000000000000000000000000000000000000000000000000000000000000000000000000000000000000000000000000000000000000000000000000000000000000000000000000000000000000000052550000000000000000000000000000000000000000000000000000000000000000000000000000000000000000000000000000000000000000000000000000000000000000000000000000000000000000000000000000000000000000000000000000250000000000000000000000000000000000000000000000000000000000000000000000000000000000000000000000000000000000000000000000000000000000000000000000000000000000000000000000000000000000000000000000000000000000000000000000000000000000000000000000000000000000000000000000000000000000000000000000000000000000000000000000000000000000000000000000000000000000000000000000000000000000000000000000000000000000000000000000000000000000000000000000000000000000000000000000000000000000000000000000000000000000000000000000000000000000000000000000000000000000000000000000000000000000000000000000000000000000000000000000000000000000000000000000000000000000000000000000000000000000000000000000000000000000000000000000000000000000000000000000000000000000000000000000000000000000000000000000000000000000000000000000000000000000000000000000000000000000000000000000000000000000000000000000000000000000000000000000000000000000000000000000000000000000000000000000000000000000000000000000
#092391:125500000000000000000000
#0923c1:000000000000000032000000320000520052005200000000000000000000000000000000000000000000000000000000
#0923a1:000000000000000000000000000000000000000000000000000000000000000000000000000000000000000000000000000000000000000000000000000000000000000000000000000000000000000000000000000000000000000000000000000000000000000000000000000000000000000000000000000000000000000000000000000000000000000000000000000000000000000000000000000000000000000000000000000000000000000000000000000000000000000000000000000000000000000000000000000000000000000000000000000000000000000000000000000000000000000000000000000000000000000000000000000000000000000000000000000000000000000000000000000000000000000000000000000000000000000000000000005400000000000000000000000000000000000000000000000000000000000000000000000000540000000000000000000000000000000000000000000000000000000000000000000000000000000000540000000000000000000000000000000000003400000000000000000000000000000000000000000000000000000000000000000000000000000000000000000000000000000000000000000000000000000000000000000000000000000000000000240000000000000000000000000000000000000000000000000000000000000000000000000000000000000000000000000000000000000000000000000000000000000000000000000000000000000000000000000000000000000000000000000000000000000000000000000000000000000000000000000000000000000000000000000000000000000000000000000000000000000000000000000000000000000000000000000000000000000000000000000000000000000000000000000000000000000000000000000000000000000000000000000000000000000000000000000000000000000000000000000000000000000000000000000000000000000000000000000000000000000000000000000000000000000000000000000000000000000000000000000000000000000000000000000000000000000000000000000000000000000000000000000000000000000000000000000000000000000000000000000000000000000000000000000000000000000000000000000000000000000000000000000000000000000000000000000000000000000000000000000000000000000000000000000000000000000000000000000000000000000000000000000000000000000000000000000000000000000000000000
#092321:00000013
#092361:0000000000000053
#093321:23
#0923b0:00000013
#092370:00000000000000000000000000000000000000000000000000000000000000000000000000000000000000000000000000000000000000000000000000000000000000000000000000000000000000000000000000000000000000000000000000000000000000000000000000000000000000000000000000000000000000000000000000000000000000000000000000000000000000000000000000000000000000000000000000000000000000000000000000000000000000000000000000000000000000000000000000000000000000000000000000000000000000000000000000000000000000000000000000000000000000000000000000000000000000000000000000000000000000000000000000000000000000000000000000000000000000000000000000000000000000000000000000000000000000000000000000000000000000000000000000000000000000000000000000000000000000000000000000000000000000000000000000000000000000000000000000000000000000000000000000000000000000000000000000000000000000000000000000000000000000000000000000000000000000000000000000000000000000000000000000000000000000000000000000000000000000000000000000000000000000000000000000000000000000000000000000000000000000000000000000000000000000000000000000000000000000000000000000000000000000000000000000000000000000000053000000000000000000000000000000000000000000000000000000000000000000000000000000000000000000000000000000000000000000000000000000000000000000000000000000000000
#0933b0:23
#093370:00132300
#0933b0:0000005300000000
#093321:00132300
#093361:0000005300000000
#093361:00000013
#093321:0000000000000053
#094361:23
#0933b0:00000013
#093370:0000000000000053
#0943b0:23
#094350:00132300
#0943b0:0000005300000000
#094381:00132300
#094321:0000005300000000
#095361:14
#095321:002400000000
#0953a1:0014
#095361:000024
#096361:14
#0963a1:002400000000
#0973b1:0013
#097371:000023
#097361:000000000000000000000013
#098321:002300000000
#0983b1:0013
#098361:00000024
#099321:00130000
#099371:0023
#099371:000000000000000000000013
#100321:002300000000
#1013b1:000000000013000000000000
#101361:00000023
#102321:000000000013000000000000
#102371:00000023
#103361:000013
#103321:000000000053
#104361:23
#1043b0:13
#104370:002300000000
#105320:0013
#105360:000023
#105370:000000000000000000000013
#1063b0:002300000000
#106320:0013
#106360:00000024
#1073b0:00130000
#107360:0023
#107360:000000000000000000000013
#1083b0:002300000000
#108380:000016
#1083c0:000000000000000000000022
#108321:000000000000000016000022
#109321:000000000018000024000000
#110361:000000000018000000000000
#1103a1:000024
#111371:000013
#1113b1:000000000000000000000023
#111360:000000000000000000000013
#111340:000000000000000000000000000000000000000000000033
#112320:23
#112361:1424
#1123a1:00540000
#1123b1:000013
#112321:000000000000000000000026
#112320:000013
#112380:000000000000000000000026
#115360:000000000000000000000014
#1163a0:002400000000
