This file was generated by Ched 2.7.0.0.
#TITLE ""
#ARTIST ""
#DESIGNER ""
#DIFFICULTY 0
#PLAYLEVEL
#SONGID ""
#WAVE ""
#WAVEOFFSET 0
#JACKET ""
#REQUEST "ticks_per_beat 480"
#00002: 4
#BPM01: 210
#00008: 01
#TIL00: ""
#VOLUME: ""
#HISPEED 00
#MEASUREHS 00
#0011a:1414
#00212:1414
#00318:1414
#00414:1414
#00714:00140000
#0071a:1414
#00918:00140000
#00912:1414
#01314:1414
#01318:00140014
#0151a:14
#01514:0014
#0161a:14
#01614:0014
#01718:14
#01712:0014
#01812:0014
#01818:14
#0191a:14
#01914:0014
#02019:14
#02013:0014
#02118:14
#02112:0014
#02312:14
#02318:0014
#02412:14
#02418:0014
#02514:14
#0251a:0014
#0261a:0014
#02614:14
#02712:14
#02718:0014
#02813:14
#02819:0014
#02914:14
#0291a:0014
#0311a:14141400
#03110:41
#03212:14141400
#03518:14141400
#03614:14141400
#0391a:14
#03914:0014
#0401a:1414
#04014:00140000
#04112:14
#04118:0014
#04212:1414
#04218:00140000
#0431a:1414
#04312:00140000
#04310:41
#04412:1414
#0441a:00140000
#0451a:1414
#04512:00140014
#04618:1414
#04614:00140014
#04914:14
#05018:14
#05112:14
#0561a:14
#05616:0014
#0561f:11
#05712:14
#05812:14
#05816:0014
#0591a:14
#06712:14
#0671a:14
#06814:0014
#06918:14
#0701a:0014
#07012:14
#07312:14
#07318:00140000
#07314:0014
#0731a:00000014
#07310:41
#07414:14
#07418:00140000
#07412:0014
#07814:1414
#07818:00140000
#0751a:14
#07512:0014
#07618:1414
#07614:00140000
#07712:14
#0771a:0014
#0811a:14
#08114:00140000
#08118:0014
#08112:00000014
#08218:14
#08214:00140000
#0821a:0014
#08312:14141400
#0841a:14141400
#08714:14
#08718:0014
#08812:14
#0881a:0014
#08914:14141400
#09018:14141400
#09312:14
#0931a:0014
#09414:14
#09418:0014
#09514:1414
#0951a:1414
#09618:1414
#09612:1414
#09718:16
#09710:41
#10112:1414
#1021a:1414
#10312:1414
#10318:00140000
#1041a:1414
#10414:00140000
#11118:1414
#11114:00140014
#10512:14
#10518:0014
#10614:14
#1061a:0014
#10712:14
#1071a:0014
#11218:14
#11516:0014
#1161a:14
#00612:24240000
#0061a:24240000
#0711f:21
#01110:41
#08510:41
#01152:000000000016000000000000
#01258:000000000016000000000000
#0485a:14
#07152:00160000
#07258:00160000
#07958:00160000
#08052:00160000
#09758:56
#10958:000000000016000000000000
#11052:000000000016000000000000
#0053a0:1424
#005321:1424
#008341:14
#008321:0024
#010381:14
#0103a1:0024
#011321:160000000026000000000000
#012381:160000000026000000000000
#014341:1424
#022381:1424
#030341:1424
#033381:14
#0333a1:0024
#034341:14
#034321:0024
#0373a1:14
#037381:0024
#038321:14
#038341:0024
#047381:14
#0483a1:24
#052381:14
#0533a1:24
#054341:14
#055321:24
#060321:14
#061341:24
#0623a1:14
#063381:34
#064381:000000000000000000000034
#0663a1:0024
#071321:16260000
#072381:16260000
#079381:16260000
#080321:16260000
#085341:14
#085331:00340000
#085321:0024
#086381:14
#086391:00340000
#0863a1:0024
#091321:14
#091331:00340000
#091341:0024
#0923a1:14
#092391:00340000
#092381:0024
#097381:16
#099351:56
#100351:0026
#108321:1424
#109381:160000000026000000000000
#110321:160000000026000000000000
#112321:000000000000140000000034
#113341:000000000034000000000034
#114321:000000000034000000000000
#115321:24
#116321:000000000000150000000025
#116390:000000000000150000000025
