This file was generated by Ched 2.7.0.0.
#TITLE ""
#ARTIST ""
#DESIGNER ""
#DIFFICULTY 0
#PLAYLEVEL
#SONGID ""
#WAVE ""
#WAVEOFFSET 0
#JACKET ""
#REQUEST "ticks_per_beat 480"
#00002: 4
#BPM01: 129
#00008: 01
#TIL00: ""
#VOLUME: ""
#HISPEED 00
#MEASUREHS 00
#0491f:00110000
#04919:00140014
#0091a:14
#00518:14
#00614:14
#01012:14
#0221a:14
#02618:14
#00718:14
#00814:14
#01118:14
#02414:14
#02812:14
#03112:00160016
#03218:00160016
#03312:00160000
#03318:00000016
#03412:00160000
#03518:00160000
#03512:00000016
#03618:00160000
#03918:00160016
#04012:00160016
#04118:00160000
#04112:00000016
#04218:00160000
#04312:00160000
#04318:00000016
#04412:00160000
#06418:00000016
#06512:00160000
#06518:00000016
#06612:00160016
#06718:00160000
#06712:00000016
#06818:00160016
#06912:00140000
#0701a:00140000
#07114:00140000
#07218:00140000
#07312:00140000
#0741a:00140000
#07514:00140000
#07618:00140000
#01214:14
#0211a:14
#02110:41
#02314:14
#02518:14
#02712:14
#05013:00140014
#0611f:0021
#02918:00260000
#02910:00410000
#03712:00260000
#03710:00410000
#07714:0024
#01310:41
#04510:00410000
#06310:00410000
#0013a0:14
#0023a0:24
#003320:14
#004320:24
#0133a0:14
#0143a0:24
#015320:14
#016320:24
#017380:14
#018380:24
#019340:14
#020340:24
#029380:00160000
#030380:00000026
#037320:00160000
#038320:00000026
#0453a0:00140000
#046380:00240000
#047320:00140000
#048340:00240000
#0513a0:00140024
#052320:00140024
#053390:00140024
#054330:00140024
#055380:00140000
#0563a0:00000024
#057340:00140000
#058320:00000024
#0593a0:00140000
#060380:00000024
#061320:0016
#064320:00260000
#077340:0014
#079340:00240000
