This file was generated by Ched 2.7.0.0.
#TITLE ""
#ARTIST ""
#DESIGNER ""
#DIFFICULTY 0
#PLAYLEVEL
#SONGID ""
#WAVE ""
#WAVEOFFSET 0
#JACKET ""
#REQUEST "ticks_per_beat 480"
#00002: 4
#BPM01: 129
#00008: 01
#TIL00: ""
#VOLUME: ""
#HISPEED 00
#MEASUREHS 00
#0491f:00110000
#04916:1200001300130000
#04912:0013
#04914:0012000000000000
#0491b:00232300
#04918:00000023
#00212:0013
#0021b:0000000013000013
#00218:00000000000000000000001300000000
#00215:00000013
#00512:1313
#00518:1300001300000000
#00515:0013130000000000
#0051b:00131313
#00517:0000000000000013
#00516:0000000000130000
#0061b:00131300
#00612:13000013
#00616:00130000
#00618:0000000000130000
#00615:0000000000000013
#0091b:1300001300000000
#00914:0013000000000000
#00917:00000000130000000013000000000000
#00912:0000130000131300
#00919:0013000000000000
#00916:1300000000000013
#0111b:1300000000131300
#01112:0000131300000000
#03012:00130000001300000000130000000000
#03017:00000013
#03013:1313131300000000
#03014:00000013000000130000000000000000
#0301b:13000000000000001300000000000013
#03018:00130000
#03112:0013000013130000
#0311b:0000130000000013
#03117:00000000000000130000000000000000
#03116:00000000000000000000000000130000
#0321b:13000013
#03216:0000000000000013
#03212:0013000000002300
#03312:1300130000000013
#03317:0013000000130000
#03316:0000001300000000
#0331b:23131300
#03315:00000013
#03418:13
#0341b:00001300000000130000000023000000
#03412:00130013
#03416:00000000000000130000000000000000
#03417:0000130000000013
#0351b:1300130000000013
#03516:0013000000130000
#03517:0000001300000000
#03512:23131300
#03518:00000013
#03612:00001300000000130000000013000000
#03615:13000000000000000000000000000013
#0361b:00130000
#03617:00000000000000130000000000000000
#03616:00130000
#0371b:13000000001300000013000000130000
#03712:0013000013000000
#0371a:0000231313131313
#03719:00000000000000130000001300000013
#03715:00130013
#03710:00410000
#02912:23000000001300000013000000130000
#02913:0000231313131313
#02914:00000000000000130000001300000013
#02918:00130013
#0291b:2313
#02910:00410000
#0461a:0000121200000000
#04612:0000000000120000
#04616:1200000000000012
#04712:00120000
#04718:1212
#04716:0000000000120000
#0471a:0012000000000000
#0471c:00000012
#05116:0000130000000013
#05117:0000000013130000
#05115:23
#05216:13
#05212:0000001300000013
#0521b:00131313
#05312:0013000000000000
#0531b:13
#05316:1300000013130000
#05317:0000130000000013
#0591a:0013131313131313
#0591b:00000013000000130000001300000013
#05919:00000000001300000013000000130000
#05913:0013131313131313
#05912:00000013000000130000001300000013
#05914:00000000001300000013000000130000
#05918:23
#0601a:1313131313000000
#06019:00130000001300000013000000000000
#0601b:00000013000000130000000013000000
#06013:1313131313000000
#06014:00130000001300000013000000000000
#06012:00000013000000130000000000000013
#0641b:13001313
#06416:0000000000000013
#06413:1414141414000000
#06412:00140000001400000014000023000000
#06414:00000014000000140000000000000000
#06418:0000131300000000
#06512:1300230000000013
#06517:0013000000130000
#06516:0000001300000000
#0651b:23132300
#06515:00000023
#0661b:00001300000000130000000023000000
#06616:00000000000000130000000000000000
#06617:0000130000000013
#06612:00230013
#06618:23
#0671b:1300230000000013
#06716:0013000000130000
#06717:0000001300000000
#06712:23132300
#06718:00000023
#06112:00000000000000000014000000140000
#06113:0000000024141414
#06114:00000000000000000000001400000014
#06118:0013000000001300
#0611b:0013
#0611f:0021
#06213:1414141414141414
#06212:00140000001400000014000000140000
#06214:00000014000000140000001400000014
#0621b:1313
#06218:00130013
#06313:1414141414141414
#06312:00140000001400000014000000140000
#06314:00000014000000140000001400000014
#0631b:1313
#06318:0000131300001313
#06310:00410000
#07719:0000000014141414
#07718:13000000000000000014000000140000
#0771a:00000000000000000000001400000014
#07713:0000000014141414
#07712:00000000000000000014000000140000
#07714:00000000000000000000001400000014
#0771b:0013000000000000
#07819:1414141414140000
#07818:00140000001400000014000016000000
#0781a:00000014000000140000001400000000
#07813:1414141414140000
#07812:00140000001400000014000016000000
#07814:00000014000000140000001400000000
#01315:0013000000000000
#01318:00130000
#01312:0000001300000013
#0131b:13001313
#01310:41
#0141b:1300001300000000
#01415:0000000013000023
#01418:0000000000130000
#01412:00130023
#0191b:13131300
#01912:1300130013000013
#01918:0013000000130000
#01915:0000001300001300
#02818:130000130000130000130000000033000000130000000000
#02815:00130013001300130000000000001300
#02812:0000000000130000
#02819:000000000000000000000000003300000000000000000000
#02112:0013001300000000
#02115:0000000000130013
#02118:13130000
#0211b:00001313
#02110:41
#02312:1300000000130000
#02316:0013000000001300
#0231b:0000131300000013
#02317:0013
#02417:00130000000000000000000000000000
#02412:00001313
#02415:0000130000130000
#02418:0000000000000013
#0241b:00001313
#02617:13130000
#02612:00001313
#02615:0000000000130000
#02618:0000000000000013
#0261b:00001313
#05417:13
#0541b:0013
#05412:00131313
#05512:1300000000130000
#05515:0000001300000013
#0551b:00230023
#05518:0023
#06812:00001300000000130000000013000000
#06817:00000000000000130000000000000000
#06816:00130000
#06815:2300000000000013
#0681b:00230000
#00416:1313
#00417:00130000
#0041b:00000013
#00415:00330000000000000033000000000000
#00414:0033000000330000
#00413:00000033000000000000003300000000
#00418:00000000003300000000000000000000
#00419:0000003300000000
#0041a:00000000000000330000000000000000
#00817:1313
#00816:00130000
#00812:00000023
#00818:00330000000000000033000000000000
#00819:0033000000330000
#0081a:00000033000000000000003300000000
#00815:00000000003300000000000000000000
#00814:0000003300000000
#00813:00000000000000330000000000000000
#0101b:1300001300000000
#01014:0013000000000000
#01017:00000000130000000013000000000000
#01012:0000130000131300
#01019:0013000000000000
#01016:0000000000000013
#01212:1313000013000000
#01215:0000131300000013
#0121b:0000000000130000
#01218:00000013
#01518:0013000000000000
#01515:00130000
#0151b:0000001300000013
#01512:13001313
#01612:1300001300000000
#0161b:00130000
#01617:0013
#01616:00000013
#01715:0013000000000000
#01718:00130000
#01712:0000001300000013
#0171b:13001313
#01814:00000013000000000000000000000000
#01812:0000001300000000
#01819:00000000000000000000001300000000
#0181b:0000000000000013
#0201b:13131323
#02018:0013001300130000
#02012:00000023
#02218:0013001300000000
#02212:13130000
#0221b:0000000000130013
#02215:00001313
#02515:1300000000131300
#02512:00000013000000000000000000000000
#02518:0000131300000000
#0251b:13000000000000000013000000000000
#02718:0013000000130000
#02715:0000001300000000
#02712:2300000023000023
#0271b:00230023
#04515:0013000000000000
#04518:1312
#0451a:00120000
#04514:00000012
#04510:00410000
#0441b:0013000013000013
#04418:13
#04412:00130000
#04416:0013
#04417:00130000
#0381b:00130000001300000000130000000000
#0381a:1313131300000000
#03819:00000013000000130000000000000000
#03812:13000000000000001300000000000013
#03815:00130000
#03816:00000013
#03912:0000130000000013
#03916:00000000000000130000000000000000
#0391b:0013000013130000
#03917:00000000000000000000000000130000
#04012:13000013
#04017:0000000000000013
#0401b:0013000000002300
#0411b:1300130000000013
#04116:0013000000130000
#04117:0000001300000000
#04112:23131300
#04118:00000013
#04215:13
#04212:00001300000000130000000023000000
#0421b:00130013
#04217:00000000000000130000000000000000
#04216:0000130000000013
#04312:1300130000000013
#04317:0013000000130000
#04316:0000001300000000
#0431b:23131300
#04315:00000013
#04816:12
#04818:0012000000000012
#04814:0000121200000000
#0481c:0000000000120000
#05017:0000001300130000
#0501b:0013
#05018:23
#05012:00232300
#05015:00000023
#05612:0013000000130000
#05615:0000001300000013
#05618:23230023
#0561b:0023
#05712:0013000000000000
#05715:00000000001300130013001300130013
#05718:0000231323132313
#0571b:23
#05815:000000130000000000130000000000000000000000000000000000000000000033003300000000000000130000000000
#05818:230000130000000000003333000000000000000000000000
#0581b:00230023
#05812:0023
#05819:000000000000000033330000000000000000000000000000
#0581a:000000000000003300000000000000000000000000000000
#05814:000000000000000000000000000033330000000000000000
#05813:000000000000000000000000003300000000000000000000
#06918:1300000000130000
#0691b:0013000023000013
#06912:0000130000230000
#06916:00000000000000001300000000130000
#06914:0000001300000000
#06917:00130000
#06919:0000002300000000
#07017:0013000000000000
#07012:0000130000230000
#07016:00000000000000001300000000130000
#07014:0000001300000000
#0701b:2300000023000013
#07018:0000000000130000
#07019:0000002300000000
#07117:00001300000000001300000000130000
#07116:00130000
#07119:0000001300000000
#07112:0000000023000013
#07115:0000000000130000
#0711b:2300000000230000
#07114:0000002300000000
#07216:0013000000000000
#0721b:0000130000230000
#07217:00000000000000001300000000130000
#07219:0000001300000000
#07212:2300000023000013
#07215:0000000000130000
#07214:0000002300000000
#07316:0013000013000000
#07317:00130000
#07314:0000001300230000
#0731b:0000000023000013
#07312:23000000000000000000000000130000
#07319:0000002300130000
#0741b:00001300000000000000000000130000
#07412:0000000023000013
#07419:0000001300230000
#07417:0013
#07416:00130000
#07414:0000002300130000
#07418:23
#07512:0013000013130000
#0751b:0000130000000013
#07515:23
#0761b:13
#07612:0000131300001300
#07615:0000000013130013
#0071b:13
#00712:0013000000000000
#00719:00130000
#00714:0000001300000000
#00718:0013
#00715:0000000000130000
#00717:00000013
#00716:0000000000000013
#0011b:23000023
#00115:00000000000000000023000000000000
#00118:0000002300000000
#00112:00000023000000000000000000000000
#00312:23000023
#00318:00000000000000000023000000000000
#00315:0000002300000000
#0031b:00000023000000000000000000002300
#00652:63
#00656:00230000
#0095b:0000005300000000
#00957:00000000000000000023000000000000
#00952:00000063
#00956:0000000000000023
#0115b:63000063
#01152:0000005300000000
#03157:00000000000000230000000000000000
#0315b:00530000
#03152:0000000000630000
#03156:00000000000000000000000000230000
#03255:0013
#03258:0013
#03252:0053000000000000
#0325b:53
#03352:0000630000000023
#03356:0000002300000000
#0335b:0053
#03357:0000000000230000
#03355:00000053
#03458:63
#0345b:00002300000000230000000000000000
#03452:00530000
#03456:00000000000000230000000000000000
#03457:00530000
#02953:0000535353535353
#02952:13000000002300000023000000230000
#02954:00000000000000230000002300000023
#0295b:1343
#03053:5353535300000000
#03052:00230000002300000000000000000000
#03054:00000023000000230000000000000000
#03057:00000053
#0305b:43000000000000004300000000000053
#04752:00520000
#0475c:00000062
#05156:00630000
#05157:0000000000530000
#0515b:13
#05256:63
#05252:0000002300000000
#0595a:0063636363636363
#0595b:00000023000000230000002300000023
#05959:00000000002300000023000000230000
#05953:0053535353535353
#05952:00000023000000230000002300000023
#05954:00000000002300000023000000230000
#0605a:6363636363000000
#06059:00230000002300000023000000000000
#0605b:00000023000000230000000053000000
#06053:5353535353000000
#06054:00230000002300000023000000000000
#06052:00000023000000230000000000000053
#06556:0000002300000000
#06557:0000000000230000
#06552:0000530000000023
#0655b:0053
#06555:00000053
#0665b:00002300000000230000000000000000
#06656:00000000000000230000000000000000
#06657:00530000
#06658:53
#06652:00530000
#06152:00000000000000000024000000240000
#06153:0000000054545454
#06154:00000000000000000000002400000024
#0615b:0043
#06253:5454545454545454
#06252:00240000002400000024000000240000
#06254:00000024000000240000002400000024
#0625b:4343
#06353:5454545454545454
#06352:00240000002400000024000000240000
#06354:00000024000000240000002400000024
#0635b:4343
#06453:5454545454000000
#06452:00240000002400000024000000000000
#06454:00000024000000240000000000000000
#0645b:4343
#07759:0000000054545454
#07758:00000000000000000024000000240000
#0775a:00000000000000000000002400000024
#07753:0000000054545454
#07752:00000000000000000024000000240000
#07754:00000000000000000000002400000024
#07859:5454545454540000
#07858:00240000002400000024000056000000
#0785a:00000024000000240000002400000000
#07853:5454545454540000
#07852:00240000002400000024000056000000
#07854:00000024000000240000002400000000
#00552:0053
#0055b:00000053
#00557:0000000000000023
#00556:0000000000230000
#01352:0000006300000000
#0145b:53
#01458:0000000000530000
#01952:0000000000000053
#0215b:00001313
#02158:13130000
#02356:0023000000002300
#02352:6300000000630000
#0235b:0000005300000053
#02357:0023
#02457:00230000000000000000000000000000
#05357:00530000
#05356:0000000000630000
#05457:53
#0545b:0023
#06757:0000002300000000
#06756:0000000000230000
#0675b:0000630000000023
#06752:0063
#06758:00000063
#06852:00002300000000230000000000000000
#06857:00000000000000230000000000000000
#06856:00630000
#06855:63
#0685b:00630000
#00456:5353
#00457:00630000
#0045b:00000013
#00857:6363
#00856:00530000
#00852:00000013
#0105b:0000005300000000
#01057:00000000000000000023000000000000
#01052:00000063
#01056:0000000000000023
#0155b:0000005300000000
#01652:63
#01657:0053
#01656:00000063
#01752:0000006300000000
#02252:13130000
#02255:00001313
#02555:53000053
#02552:00000023000000000000000000000000
#02558:0000006300000000
#0255b:00000000000000000023000000000000
#0355b:0000530000000023
#03557:0000002300000000
#03552:0063
#03556:0000000000230000
#03558:00000063
#03655:53
#03652:00002300000000230000000000000000
#0365b:00630000
#03657:00000000000000230000000000000000
#03656:00630000
#03952:00630000
#03956:00000000000000230000000000000000
#0395b:0000000000530000
#03957:00000000000000000000000000230000
#0415b:0000530000000023
#04157:0000002300000000
#04152:0063
#04156:0000000000230000
#04158:00000063
#04255:53
#04252:00002300000000230000000000000000
#0425b:00630000
#04257:00000000000000230000000000000000
#04256:00630000
#0375b:00000000002300000023000000230000
#0375a:0000536363636363
#03759:00000000000000230000002300000023
#03752:0033
#0385a:6363636300000000
#0385b:00230000002300000000000000000000
#03859:00000023000000230000000000000000
#03852:33000000000000003300000000000063
#03856:00000063
#04052:63
#0405b:0063000000000000
#04055:0013
#04058:0013
#04352:0000630000000023
#04356:0000002300000000
#0435b:0053
#04357:0000000000230000
#04355:00000053
#04458:63
#0445b:0023000023000000
#04452:00530000
#04456:0023
#04457:00530000
#04558:0062
#0455a:00520000
#04554:00000062
#0465a:0000006200000000
#04656:52
#04652:0000000000120000
#04854:0000005200000000
#0485c:0000000000120000
#04956:0000000000530000
#05057:0000000000630000
#05052:13
#06956:00000000000000000000000000230000
#06952:0000000000630000
#07057:0023000000000000
#0705b:63
#07056:00000000000000000000000000230000
#07052:0000000000630000
#07157:00002300000000000000000000230000
#0715b:6300000000530000
#07256:0023000000000000
#07257:00000000000000000000000000230000
#07252:53
#0725b:0000000000530000
#07356:0023000000000000
#07352:53000000000000000000000000230000
#07354:0000000000630000
#0745b:00002300000000000000000000230000
#07459:0000000000530000
#07458:63
#07552:0023000000530000
#07555:53
#0755b:00630000
#0765b:63
#00756:0000000000000013
#00757:00000013
#00755:0000000000130000
#00758:0013
#00754:0000001300000000
#00759:00130000
#00752:0013000000000000
#0075b:13
#02752:1300000013000013
#0275b:00130013
#0015b:13000013
#00155:00000000000000000013000000000000
#00158:0000001300000000
#00152:00000013000000000000000000000000
#00352:13000013
#00358:00000000000000000013000000000000
#00355:0000001300000000
#0035b:00000013000000000000000000001300
#004360:13
#004350:00330000000000000000000000000000
#004340:0033000000000000
#004330:00000033000000000000000000000000
#004320:00230000
#004371:00130000
#004381:00000000003300000000000000000000
#004391:0000003300000000
#0043a1:00000000000000330000000000000000
#0043b1:0023
#004360:0013
#004350:00000000000000000033000000000000
#004340:0000000000330000
#004330:00000000000000000000003300000000
#004320:00000023
#005320:00001323
#005360:0000000000530000
#0053b1:00000013
#005371:0000000000000053
#0063b1:23
#006320:1323
#006360:00530000
#008370:13
#008380:00330000000000000000000000000000
#008390:0033000000000000
#0083a0:00000033000000000000000000000000
#0083b0:00230000
#008361:00130000
#008351:00000000003300000000000000000000
#008341:0000003300000000
#008331:00000000000000330000000000000000
#008321:0023
#008370:0013
#008380:00000000000000000033000000000000
#008390:0000000000330000
#0083a0:00000000000000000000003300000000
#0083b0:00000023
#0093b0:0000001300002300
#009370:00000000000000000053000000000000
#009321:00000013
#009361:0000000000000053
#010321:23
#0103b1:0000001300002300
#010371:00000000000000000053000000000000
#010320:00000013
#010360:0000000000000053
#011320:23
#0113b1:13
#011371:0000002300000000
#011320:0000001300000000
#011360:00000023
#0113b1:00000013
#012381:0023
#013321:0000001300000000
#013361:00000023
#0143b1:13
#014371:00230000
#014381:0000000000130000
#0143b1:0000000000000023
#0153b1:0000001300000000
#015371:00000023
#016321:13
#016361:00230000
#016371:0013
#0163b1:00000023
#016360:00000013
#017320:23
#017320:0000001300000000
#017360:00000023
#0183b0:13
#018370:0000002300000000
#018320:0013
#018360:0000000000000023
#019320:0000000000000013
#020350:0000002300000000
#023320:13230000
#023360:0053000000000000
#0233b0:0000001300230000
#023370:0053
#023321:0000000000130023
#023361:00000053
#0233b0:0000000000000013
#024370:00530000000000000000000000000000
#0243b0:00230000
#025350:1300002300000000
#025320:00000053000000000000000000000000
#025381:0000001300002300
#0253b1:00000000000000000053000000000000
#025350:00000013
#026320:23
#0283b0:0013
#028390:000000000000000000000000003300000000000000000000
#028380:000000000000003300000000
#028370:0000000000230000
#029330:0000135353535353
#029320:00000000005300000053000000530000
#029340:00000000000000530000005300000053
#030330:5353535323000000
#030320:00530000005300000000000000000000
#030340:00000053000000530000000000000000
#030370:00000013
#0303b0:00000000000000000000000000000033
#031370:0023000000000000
#0313b0:0000130000230000
#031370:00000000000000530000000000000000
#031321:0000000000130000
#031361:00000000000000000000000000530000
#032321:23
#0323b0:13
#032380:0023
#032321:0013000000000000
#032351:0023
#033321:00132300
#033361:0000005300000000
#0333b0:00001323
#033370:0000000000530000
#033351:00000013
#033321:0000000000000053
#034351:23
#034380:13
#0343b0:00005300000000530000000000000000
#034370:0000530000230000
#034321:0000130000230000
#034361:00000000000000530000000000000000
#0353b1:00132300
#035371:0000005300000000
#035320:00001323
#035360:0000000000530000
#035381:00000013
#0353b1:0000000000000053
#036381:23
#036350:13
#036320:00005300000000530000000000000000
#036360:0000530000230000
#0363b1:0000130000230000
#036371:00000000000000530000000000000000
#036371:00000013
#0363b1:00000000000000000000000000000023
#0373a1:0000135353535353
#0373b1:00000000005300000053000000530000
#037391:00000000000000530000005300000053
#0383a1:5353535323000000
#0383b1:00530000005300000000000000000000
#038391:00000053000000530000000000000000
#038361:00000013
#038321:00000000000000000000000000000033
#039361:0023000000000000
#039321:0000130000230000
#039361:00000000000000530000000000000000
#0393b0:0000000000130000
#039370:00000000000000000000000000530000
#0403b0:23
#040321:13
#040351:0023
#0403b0:0013000000000000
#040380:0023
#0413b0:00132300
#041370:0000005300000000
#041321:00001323
#041361:0000000000530000
#041380:00000013
#0413b0:0000000000000053
#042380:23
#042351:13
#042321:00005300000000530000000000000000
#042361:0000530000230000
#0423b0:0000130000230000
#042370:00000000000000530000000000000000
#043320:00132300
#043360:0000005300000000
#0433b1:00001323
#043371:0000000000530000
#043350:00000013
#043320:0000000000000053
#044350:23
#044381:13
#0443b1:0053000053000000
#044371:00530023
#044320:00130023
#044360:0053
#0453a0:00120022
#045380:0032
#045341:00000012
#046361:32
#046341:00220000
#0463a1:0000001200000000
#0463c1:0000000000220000
#047321:00120000
#047341:0022
#0473c1:00000012
#0483a1:22
#048341:0000001200000000
#048321:0000000000220000
#049361:0000000000130000
#050321:23
#050371:0000000000130000
#0513b1:23
#051361:00130000
#051321:0000000000230000
#051370:0000000000130000
#0523b0:23
#052361:13000023
#052321:0000005300000000
#053371:00130000
#0533b1:0000000000230000
#053360:0000000000130000
#054320:23
#054371:13
#0543b1:0053
#055371:23
#0583b1:00130000
#0583a1:000000000000003300000000000000000000000000000000
#058391:000000000000000033330000000000000000000000000000
#058381:000000000000000000003333000000000000000000000000
#058371:0023
#058320:0013
#058330:000000000000000000000000003300000000000000000000
#058340:000000000000000000000000000033330000000000000000
#058350:000000000000000000000000000000003333000000000000
#058360:00000023
#0593a0:0013535353535353
#0593b0:00000053000000530000005300000053
#059390:00000000005300000053000000530000
#0603a0:5353535353230000
#060390:00530000005300000053000000000000
#0603b0:00000053000000530000000000000000
#059331:0013535353535353
#059321:00000053000000530000005300000053
#059341:00000000005300000053000000530000
#060331:5353535353230000
#060341:00530000005300000053000000000000
#060321:00000053000000530000000000000000
#0603b1:00000013
#060381:00000000000000000000000000000023
#060320:00000000000000000000000000000013
#061350:0023000000000000
#061330:0000000014545454
#061320:00000000000000000054000000540000
#061340:00000000000000000000005400000054
#062330:5454545454545454
#062320:00540000005400000054000000540000
#062340:00000054000000540000005400000054
#063330:5454545454545454
#063320:00540000005400000054000000540000
#063340:00000054000000540000005400000054
#064330:5454545454240000
#064320:00540000005400000054000000000000
#064340:00000054000000540000000000000000
#065320:00132300
#065360:0000005300000000
#0653b1:00001323
#065371:0000000000530000
#065350:00000013
#065320:0000000000000053
#066350:23
#066381:13
#0663b1:00005300000000530000000000000000
#066371:0000530000230000
#066320:0000130000230000
#066360:00000000000000530000000000000000
#0673b0:00132300
#067370:0000005300000000
#067321:00001323
#067361:0000000000530000
#067380:00000013
#0673b0:0000000000000053
#068380:23
#068351:13
#068321:00005300000000530000000000000000
#068361:0000530000230000
#0683b0:0000130000230000
#068370:00000000000000530000000000000000
#069320:0000000000130000
#069360:00000000000000000000000000530000
#070320:23
#0703b1:13230000
#070371:0053000000000000
#070321:0000000000130000
#070361:00000000000000000000000000530000
#071321:23
#0713b0:13230000
#071370:0053000000000000
#0713b0:0000000000130000
#071370:00000000000000000000000000530000
#0723b0:23
#072321:13230000
#072361:0053000000000000
#0723b1:0000000000130000
#072371:00000000000000000000000000530000
#0733b1:23
#073320:13230000
#073360:0053000000000000
#073340:0000000000130000
#073320:00000000000000000000000000530000
#074350:23
#074381:13
#0743b1:0053000000000000
#074391:00230000
#074391:0000000000130000
#0743b1:00000000000000000000000000530000
#075381:23
#075350:13
#075320:0053000000000000
#075340:00230000
#0753b1:00130000
#075371:0000000000230000
#075320:0000000000130000
#076360:23
#0763b1:13
#076381:00000023
#077391:0000000014545454
#077381:00000000000000000054000000540000
#0773a1:00000000000000000000005400000054
#078391:5454545454540000
#078381:00540000005400000054000056000000
#0783a1:00000054000000540000005400000000
#0793a1:00220000
#077330:0000000014545454
#077320:00000000000000000054000000540000
#077340:00000000000000000000005400000054
#078330:5454545454540000
#078320:00540000005400000054000056000000
#078340:00000054000000540000005400000000
#079340:00220000
