This file was generated by Ched 2.7.0.0.
#TITLE ""
#ARTIST ""
#DESIGNER ""
#DIFFICULTY 0
#PLAYLEVEL
#SONGID ""
#WAVE ""
#WAVEOFFSET 0
#JACKET ""
#REQUEST "ticks_per_beat 480"
#00002: 4
#BPM01: 129
#00008: 01
#TIL00: ""
#VOLUME: ""
#HISPEED 00
#MEASUREHS 00
#0491f:00110000
#04916:12
#04914:0012000000000000
#0491b:00130000
#04915:0000001300000000
#04918:0013
#04912:0000000000130000
#00612:13
#00618:0013
#00615:00000013
#0111b:13
#01112:0000001300000000
#01118:00000013
#03012:0000000000130000
#0301a:00000014
#03016:00000000000000000000000000000014
#03019:3333333300000000
#03112:0014000000000000
#03118:00130000
#03115:0000000000130000
#0331b:00130013
#03315:13
#03312:0013000000000000
#03318:0013
#03618:00000013
#03615:13000000000000000000000000000013
#03612:00130000
#0371b:0013000000000000
#03716:0000000000000013
#03712:0000233333000000
#03713:0000000000333300
#03710:00410000
#04614:00120000
#0461a:0000000000000012
#05115:00130000
#05118:0000000000130000
#05215:13
#0521b:0000000000000013
#05318:0013000000000000
#05315:13
#05312:00130000
#0531b:0000000000130000
#05913:0013131313131313
#05912:00000013000000130000001300000013
#05914:00000000001300000013000000130000
#05918:13
#06013:1313131313000000
#06014:00130000001300000013000000000000
#06012:00000013000000130000000000000000
#06018:00000013
#06015:00000000000000000000000000000013
#07719:0000000014141414
#07718:00000000000000000014000000140000
#0771a:00000000000000000000001400000014
#07713:0000000014141414
#07712:13000000000000000014000000140000
#07714:00000000000000000000001400000014
#07819:1414141414140000
#07818:00140000001400000014000016000000
#0781a:00000014000000140000001400000000
#07813:1414141414140000
#07812:00140000001400000014000016000000
#07814:00000014000000140000001400000000
#0131b:0013000000000000
#01315:00130000
#01318:0000001300000000
#01312:1300000000000013
#01310:41
#0141b:1313
#01415:0000001300000000
#01412:0000000000130000
#0191b:13130013
#01915:0000001300000013
#01912:0000000000130000
#01918:0013
#02412:0013
#02415:0000000000130000
#0241b:00000013
#02418:0000000000000013
#02618:0000000000130000
#02612:00000013
#02615:0000000000000013
#0261b:0013
#05412:13
#00415:1313
#00412:00000033130000000000000000000000
#00414:00330000000033330033000000000000
#00413:00003300003300000000333300000000
#01612:0000001300000000
#01618:00130000
#0161b:0013
#01615:13
#03212:0013000000000000
#0321b:13000013
#03218:0000000000000013
#0451a:0014000000000000
#04516:14
#04510:00410000
#04412:0000000000000014
#0441b:00130000
#04418:13
#04716:0012000000000000
#04718:12
#04812:00120000
#04818:0000000000000012
#0551b:00131300
#05515:0000001300130000
#05518:00000013
#05512:0000000000000013
#05618:13000013
#05612:0013000000000013
#0561b:00131300
#05615:0000001300130000
#05718:13000013
#05712:0013000000000000
#0571b:00000000133333333333000000000000
#05719:00000000000000000000003300333333
#0571a:0000000000330000
#05815:0000000000000013
#0581b:00130000
#05819:33333300000033333333000000000000
#0581a:00000033003300000000000000000000
#05818:00000000000000000000333300000000
#00212:0014
#00216:00000000000000000000001400000000
#0021a:0000000000000014
#0051b:1313
#00512:0013000000000000
#00518:00130013
#00515:0000001300000000
#0071b:13001313
#00712:0013000000130000
#00718:00130000
#00715:0000001300000000
#00812:1313
#00815:00000033130000000000000023000000
#00813:00330000000033330033000000000000
#00814:00003300003300000000333300000000
#0091b:13
#00915:0013000000000000
#00918:00130000
#00912:0000001300000000
#0101b:13
#01015:0013000000000000
#01018:00130000
#01012:0000001300000000
#01512:0013000000000000
#01518:00130000
#01515:0000001300000000
#0151b:1300000000000013
#0171b:0013000000000000
#01715:00130000
#01718:0000001300000000
#01712:1300000000000013
#01818:13
#0181b:00000013000000000000000000000000
#01815:0013
#01812:00000000000000000000001300000000
#02112:1300000000130000
#0211b:0013000000000000
#02110:41
#02218:0013000000000000
#02215:0000000000130000
#0231b:0000130000130000
#02318:0000001300000013
#02515:13000013
#02518:0000001300000000
#02815:13000000000000001300000000000033
#02812:00000033130000000000000013000000
#02814:00330000000033330033000000003300
#02813:00003300003300000000333300330000
#0341b:00130000
#03418:13
#03412:00000013
#03415:0000000000000013
#03512:00130013
#03518:13
#0351b:0013000000000000
#03515:0013
#0381b:0000000000130000
#03812:00000014
#03816:00000000000000000000000000000014
#03814:3333333300000000
#0391a:0014000000000000
#03915:00130000
#03918:0000000000130000
#04112:00130013
#04118:13
#0411b:0013000000000000
#04115:0013
#0401b:0013000000000000
#04012:13000013
#04015:0000000000000013
#04212:00130000
#04215:13
#0421a:00000014
#04216:0000000000000014
#0431b:00130013
#04312:14
#04318:0013
#05012:00130000
#05018:0000001300000000
#05015:0013
#0501b:0000000000130000
#0611b:0013000000000000
#0611a:00000000000000000000001400000014
#06119:0000000024141414
#06118:00000000000000000014000000140000
#06114:00000000000000000000001400000014
#06113:0000000024141414
#06112:00000000000000000014000000140000
#0611f:0021
#02917:0000000000000013
#02915:23
#0291b:0000233333000000
#0291a:0000000000333300
#02910:00410000
#06418:00140000001400000014000000001300
#06419:1414141414000000
#0641a:00000014000000140000000000000000
#06412:00140000001400000014000000000000
#06413:1414141414000000
#06414:00000014000000140000000000000000
#0641b:00000013
#0631a:00000014000000140000001400000014
#06319:1414141414141414
#06318:00140000001400000014000000140000
#06314:00000014000000140000001400000014
#06313:1414141414141414
#06312:00140000001400000014000000140000
#06310:00410000
#0621a:00000014000000140000001400000014
#06219:1414141414141414
#06218:00140000001400000014000000140000
#06214:00000014000000140000001400000014
#06213:1414141414141414
#06212:00140000001400000014000000140000
#0651b:00130013
#06515:13
#06512:0013000000000000
#06518:0013
#0661b:00130000
#06618:13
#06612:00000013
#06615:0000000000000013
#06712:00130013
#06718:13
#0671b:0013000000000000
#06715:0013
#06812:00130000
#06815:13
#0681b:00000013
#06818:0000000000000013
#06915:1300001300000000
#06912:0013000000130000
#0691b:00130000
#06918:0013
#0701b:00130000
#07015:0000001300000000
#07018:0013
#07012:0000000000130000
#07112:00130000
#07118:0000001300000000
#07115:0013
#0711b:0000000000130000
#07212:00130000
#07218:0000001300000000
#07215:0013
#0721b:0000000000130000
#0731b:00130000
#07312:0000001300000000
#07318:0013
#07315:0000000000130000
#0741b:00130000
#07412:0000001300000000
#07418:0013
#07415:0000000000130000
#0751b:00130000
#07512:0000000000130000
#07618:13
#0761b:0000333333330000
#02712:00230023
#0271b:2300000000000023
#02718:0023
#0011b:23000023
#00112:00000023000000000000000000000000
#00118:0000002300000000
#00115:00000000000000000023000000000000
#00312:23000023
#0031b:00000023000000000000000000002300
#00315:0000002300000000
#00318:00000000000000000023000000000000
#0121b:3333333300000000
#00652:63
#0115b:63
#01152:0000005300000000
#01158:00000063
#03158:00530000
#03155:0000000000630000
#0335b:00530053
#03358:0053
#05155:00630000
#05158:1300000000530000
#05255:63
#05953:0053535353535353
#05952:00000023000000230000002300000023
#05954:00000000002300000023000000230000
#06053:5353535353000000
#06054:00230000002300000023000000000000
#06052:00000023000000230000000000000000
#07759:0000000054545454
#07758:00000000000000000024000000240000
#0775a:00000000000000000000002400000024
#07753:0000000054545454
#07752:00000000000000000024000000240000
#07754:00000000000000000000002400000024
#07859:5454545454540000
#07858:00240000002400000024000056000000
#0785a:00000024000000240000002400000000
#07853:5454545454540000
#07852:00240000002400000024000056000000
#07854:00000024000000240000002400000000
#01358:0000006300000000
#0145b:53
#01452:0000000000530000
#05352:00530000
#0535b:0000000000630000
#05452:53
#00455:5353
#00452:00530013
#0165b:0053
#03252:0053000000000000
#00852:6363
#00855:00630013
#00952:0000005300000000
#01052:0000005300000000
#01555:0000005300000000
#01758:0000006300000000
#01858:53
#01855:0053
#01852:00000000000000000000005300000000
#0185b:00000053000000000000000000000000
#0215b:0053000000000000
#02152:0000000000630000
#02258:0063000000000000
#02255:0000000000530000
#0235b:0000530000530000
#02358:0000005300000053
#02555:53000053
#02558:0000006300000000
#02855:5353
#02852:00530053
#0345b:00530000
#03458:53
#03552:00630063
#03555:0063
#03652:00630000
#03655:63
#03955:00630000
#03958:0000000000530000
#04152:00630063
#04155:0063
#0405b:0063000000000000
#04252:00630000
#04255:63
#0435b:00530053
#04358:0053
#0445b:00530000
#04458:53
#04654:0000000000120000
#04852:0000000000120000
#04952:0000000000530000
#0505b:0000000000630000
#05055:13
#0575b:00530000
#05758:00000053
#0585b:00530000
#02957:0000000000000023
#02955:13
#0295b:00530000
#03756:0000000000000023
#03752:00530000
#06159:0000000054545454
#0615a:00000000000000000000002400000024
#06158:00000000000000000024000000240000
#06154:00000000000000000000002400000024
#06153:0000000054545454
#06152:00000000000000000024000000240000
#06458:00240000002400000024000000000000
#06459:5454545454000000
#0645a:00000024000000240000000000000000
#06452:00240000002400000024000000000000
#06453:5454545454000000
#06454:00000024000000240000000000000000
#0635a:00000024000000240000002400000024
#06359:5454545454545454
#06358:00240000002400000024000000240000
#06354:00000024000000240000002400000024
#06353:5454545454545454
#06352:00240000002400000024000000240000
#0625a:00000024000000240000002400000024
#06259:5454545454545454
#06258:00240000002400000024000000240000
#06254:00000024000000240000002400000024
#06253:5454545454545454
#06252:00240000002400000024000000240000
#0655b:00530053
#06558:0053
#0665b:00530000
#06658:53
#06752:00630063
#06755:0063
#06852:00630000
#06855:63
#06952:0000000000530000
#07052:0000000000530000
#0715b:0000000000630000
#0725b:0000000000630000
#07355:0000000000630000
#07455:0000000000630000
#0755b:00630000
#07552:0000000000530000
#07658:63
#0275b:1300000000000013
#02752:00130013
#02758:0013
#004350:1333
#004340:00330000000033330033000000000000
#004330:00003300003300000000333300000000
#004320:00000033330000000000000023000000
#006320:13
#006350:00230000
#008320:1333
#008330:00330000000033330033000000000000
#008340:00003300003300000000333300000000
#008350:00000033330000000000000023000000
#009320:0000001300000000
#009350:00000023
#010320:0000001300000000
#010350:00000023
#0113b0:13
#011380:00230000
#011320:0000001300000000
#011350:0000000000230000
#011380:00000013
#0123b0:3333333323000000
#013380:0000001300000000
#0133b0:00000023
#0143b0:13
#014380:00230000
#014320:0000000000130000
#014350:0000000000000023
#015350:0000001300000000
#015320:00000023
#0163b0:0013
#016380:00000023
#017380:0000001300000000
#0173b0:00000023
#018380:1300002300000000
#0183b0:00000033000000000000000000000000
#018350:0000000013000023
#018320:00000000000000000000003300000000
#020380:13
#020390:00330000
#0203a0:0033
#0203b0:00000023
#0213b0:0013000000000000
#021380:0000002300000000
#021320:0000000000130000
#021350:0000000000000023
#022380:0013000000000000
#0223b0:0000002300000000
#022350:0000000000130000
#022320:0000000000000023
#0233b0:0000130000330000
#023380:0000003300000033
#0243b0:00230000
#025350:13
#025320:00230000
#025380:0000001300000000
#0253b0:0000000000230000
#025350:00000013
#026320:23
#028350:13000000000000003300000000000033
#028340:00330000000033330033000000003300
#028330:00003300003300000000333300330000
#028320:00000033330000000000000033000000
#029350:23
#0293b0:0000133333000000
#0293a0:0000000000333300
#029370:0000000000000033
#030390:3333333300000000
#0303b0:0023
#031380:00130000
#0313b0:0023
#031350:0000000000130000
#031320:0000000000000023
#032320:0013000000000000
#032350:0023
#0333b0:00130033
#033380:0033
#034380:3323
#0343b0:00330000
#035320:00130033
#035350:0033
#036350:3323
#036320:00330000
#037320:0000133333000000
#037330:0000000000333300
#037360:0000000000000033
#038340:3333333300000000
#038320:0023
#039350:00130000
#039320:0023
#039380:0000000000130000
#0393b0:0000000000000023
#0403b0:0013000000000000
#040380:0023
#041320:00130033
#041350:0033
#042350:3323
#042320:00330000
#0433b0:00130033
#043380:0033
#044380:33000023
#0443b0:00330000
#045360:00122200
#045380:00000012
#046380:22
#046340:0000001200220000
#047340:00122200
#0473a0:00000012
#0483a0:22
#048320:0000001200220000
#049320:0000000000130000
#050350:23
#0503b0:0000000000130000
#051380:23
#051350:00130000
#051320:0023
#051380:0000000000130000
#0513b0:0000000000000023
#052350:13
#052320:00000023
#053320:00130000
#053350:0023
#0533b0:0000000000130000
#053380:0000000000000023
#054320:13
#055360:23
#0573b0:00000000133333333333000000000000
#0573a0:0000000000330000
#057390:00000000000000000000003300333333
#057380:00000033
#058390:33333300000033333333000000000000
#0583a0:00000033003300000000000000000000
#0583b0:00330000
#058380:00000000000000000000333323000000
#059330:0013535353535353
#059320:00000053000000530000005300000053
#059340:00000000005300000053000000530000
#060330:5353535353230000
#060340:00530000005300000053000000000000
#060320:00000053000000530000000000000000
#061390:0000000014545454
#061380:00000000000000000054000000540000
#0613a0:00000000000000000000005400000054
#062390:5454545454545454
#062380:00540000005400000054000000540000
#0623a0:00000054000000540000005400000054
#063390:5454545454545454
#063380:00540000005400000054000000540000
#0633a0:00000054000000540000005400000054
#064390:5454545454240000
#064380:00540000005400000054000000000000
#0643a0:00000054000000540000000000000000
#061331:0000000014545454
#061321:00000000000000000054000000540000
#061341:00000000000000000000005400000054
#062331:5454545454545454
#062321:00540000005400000054000000540000
#062341:00000054000000540000005400000054
#063331:5454545454545454
#063321:00540000005400000054000000540000
#063341:00000054000000540000005400000054
#064331:5454545454240000
#064321:00540000005400000054000000000000
#064341:00000054000000540000000000000000
#0653b1:00130033
#065381:0033
#066381:3323
#0663b1:00330000
#067321:00130033
#067351:0033
#068351:3323
#068321:00330000
#069321:0000000000130000
#070351:23
#070321:0000000000130000
#071351:23
#0713b1:0000000000130000
#072381:23
#0723b1:0000000000130000
#073381:23
#073351:0000000000130000
#074321:23
#074351:0000000000130000
#075321:23
#0753b1:00130000
#075381:0023
#075321:0000000000130000
#075351:0000000000000023
#076381:13
#0763b1:0000333333332300
#077391:0000000014545454
#077381:00000000000000000054000000540000
#0773a1:00000000000000000000005400000054
#078391:5454545454540000
#078381:00540000005400000054000056000000
#0783a1:00000054000000540000005400000000
#0793a1:00220000
#077330:0000000014545454
#077320:00000000000000000054000000540000
#077340:00000000000000000000005400000054
#078330:5454545454540000
#078320:00540000005400000054000056000000
#078340:00000054000000540000005400000000
#079340:00220000
