This file was generated by Ched 2.7.0.0.
#TITLE ""
#ARTIST ""
#DESIGNER ""
#DIFFICULTY 0
#PLAYLEVEL
#SONGID ""
#WAVE ""
#WAVEOFFSET 0
#JACKET ""
#REQUEST "ticks_per_beat 480"
#00002: 4
#BPM01: 129
#00008: 01
#TIL00: ""
#VOLUME: ""
#HISPEED 00
#MEASUREHS 00
#0491f:00110000
#0491a:12
#04918:0012000000000000
#04914:12
#04912:00001200130000001300000000130000
#04916:0000001300130000
#0491b:00232300
#04919:00000023
#00119:13
#00114:00000013000000000000000000000000
#0011b:0000001300001300
#00112:00000000000000000013000000000000
#00116:2300002300002300
#00117:00000023000000000023000000000000
#00214:0013
#00219:0013
#00212:00000000000000000000001300000000
#00215:00000013
#00218:00000000000000000000000000130000
#0021b:0000000000000013
#00317:1300001300001300
#00316:00000013000000000013000000000000
#00315:0000000000000013
#0031b:00000000000000000023000000002300
#00312:23000023
#00314:0000002300000000
#00319:00000023000000000000000000000000
#00418:1212131314140000
#00416:00120012000000000000000000001400
#00415:00000000001300130000000000000000
#00414:00000000000000000014001400000000
#00412:00000014
#0041a:00000014
#0051b:13131313
#00512:13131300
#00516:0013000000130000
#00517:0000001300000013
#0061b:00131313
#00612:13000013
#00616:0000130000000013
#00617:0000000000130000
#00712:12131415
#0071c:0012000000000000
#0071b:0000001300000000
#0071a:0000000000140000
#00719:0000000000000015
#00715:1700001500000000
#00714:0017000000000000
#00716:0000160000130012
#00717:0013
#00718:00000012
#00814:12121200
#0081a:00120000001200000012000024000000
#00816:0012001200120000
#00818:00000012000000120000001200000000
#00812:00000024
#00912:13131313
#00917:13131313
#0091b:0013001300130000
#00916:0013001300000013
#01012:13131313
#01017:13131313
#0101b:0013001300130000
#01016:0013001300000013
#01116:1300000000121300
#0111c:12000012
#0111a:0012000000000012
#01118:00120000
#01117:0000001300000000
#01112:0000001200000000
#01114:0012
#01218:1212
#0121a:0012001200001200
#0121c:00120000
#01216:0000000000120000
#01214:0000000000000012
#0291c:00120012
#0291a:0000001200120012
#02918:0012
#02913:00000000001300000013000000130000
#02914:2300231313131313
#02915:00000000000000130000001300000013
#02919:23
#02910:00410000
#03018:1200000012130000
#0301a:0012001200000000
#0301c:00120000
#03012:0000000000130013
#03015:00000013000000130000000013000000
#0301b:00000013
#03016:00000000000000000000000000000013
#03014:1313131300000000
#03013:00130000001300000000000000000000
#0311a:13
#03112:0013001300130000
#03117:0013000000131313
#0311b:00130013
#03116:0000131313000000
#03216:1300000000000013
#0321b:0000000000131300
#03212:00000023
#03312:1300130000000013
#03317:0013000000130013
#03316:0000001300000000
#0331b:23131300
#03319:0000001200000000
#03315:0000000000121300
#03418:13
#0341b:00001300000000130000000023000000
#03412:00130013
#03417:00000000000000130000000000001300
#03416:0013130000000000
#0351b:1300130000000013
#03516:0013000000130013
#03517:0000001300000000
#03512:23131300
#03515:0000001200000000
#03519:0000000000120000
#03518:00000013
#03615:13
#03612:00001300000000130000000013000000
#0361b:0000130000000013
#03616:00000000000000130000000000000000
#03617:00001300130000000000000013000013
#03713:13
#0371b:0013000000000000
#03716:0013000012000000
#03712:00120012
#03714:0000001200120012
#0371a:00000000001300000013000000130000
#03719:0000231313131313
#03718:00000000000000130000001300000013
#03710:00410000
#03816:1212
#03814:0012001200000000
#03812:00120013
#0381b:0000000000130013
#03815:0000000000130000
#03818:00000013000000130000000013000000
#03817:00000000000000000000000000000013
#03819:1313131300000000
#0381a:00130000001300000000000000000000
#03913:13
#0391b:0013001300130000
#03916:0013000000131313
#03912:00130013
#03917:0000131313000000
#04017:1300000000000013
#04012:0000000000131300
#0401b:00000023
#0411b:1300130000000013
#04116:0013000000130013
#04117:0000001300000000
#04112:23131300
#04115:0000001200000000
#04119:0000000000120000
#04118:00000013
#04215:13
#04212:00001300000000130000000023000000
#0421b:00130013
#04216:00000000000000130000000000001300
#04217:0013130000000000
#04312:1300130000000013
#04317:0013000000130013
#04316:0000001300000000
#0431b:23131300
#04319:0000001200000000
#04315:0000000000121300
#04418:13
#0441b:0013000013000013
#04412:00130000
#04417:0013
#04416:0013130000000013
#04514:13
#04519:13
#04512:0013000012000000
#04517:0013000000000000
#0451c:00120012
#04518:0000001200000012
#04516:0000000000120000
#04515:00120000
#04510:00410000
#04612:1200000012000012
#04616:0012001200000000
#0461c:0000121200000000
#04618:0000000012000012
#04714:12
#04716:00001200000000120000000000000000
#0471a:1200000000120000
#0471c:00001200000000001200000000000012
#04718:00120012
#04712:00120012
#04816:1200000012000012
#04814:0012000000000000
#04812:0000121200000000
#0481c:0000121200000012
#04818:0012
#05017:0000001300130000
#0501b:00000000130000001300000000130000
#05019:23
#05012:00232300
#05014:00000023
#05212:0000230000000013
#05217:0000130000120013
#05215:1300001200000000
#05218:0012000000000000
#05219:0013
#0521b:00000013
#0521a:23
#05214:0023
#05216:00000023
#05312:0013000000002418
#0531b:13
#05317:0013000000000000
#0531c:00120000
#05314:0000000012180000
#05316:2300241800000000
#05318:00002412
#05712:00000000001300000013000000140000
#05718:0000001300130000
#05715:00000000000000130000001300000014
#05717:0000000000000014
#05713:2a15000000000000
#0571b:00232300
#0571a:00000024
#05812:000000140000000000000000000000000000000000000000230000000000000000000000000000001400000014000000
#05817:000000140000000033003300000000130000000000000000
#05815:00000014000000000000000000000000
#05816:000000000000000000130000000033003300000000000000
#0581a:240000000000000000241414
#0581b:00230000
#05819:000000000000003300000033000000000000000000000000
#05814:000000000000000000000000003300000033000000000000
#0591a:2413131313131313
#0591b:00000013000000130000001300000013
#05919:00000000001300000013000000130000
#05913:0013131313131313
#05912:24000013000000130000001300000013
#05914:00000000001300000013000000130000
#0601a:1313131313000000
#06019:00130000001300000013000000001300
#0601b:00000013000000130000000013000000
#06013:1313131313000000
#06014:00130000001300000013000000000000
#06012:00000013000000130000000013000000
#06016:00000000000000000000000000000013
#06113:1300000024141414
#06118:0016000012000000
#0611a:0000000000120012
#0611c:00000012
#06112:00001600000000000014000000140000
#06114:00000000000000000000001400000014
#0611f:0021
#06218:1212
#0621a:0012001200120012
#0621c:00120012
#06213:1414141414140000
#06212:00140000001400000014000000000000
#06214:00000014000000140000001400000000
#06216:0000000000000012
#0641b:00000013
#06416:1200000012000013
#06414:0012001200120000
#06412:00120023
#06419:1414141414000000
#0641a:00140000001400000014000000000000
#06418:00000014000000140000000000000000
#06512:1300230000000013
#06517:0013000000130013
#06516:0000001300000000
#0651b:23132300
#06519:0000001200000000
#06515:0000000000122300
#0661b:00001300000000130000000023000000
#06617:00000000000000130000000000001300
#06616:0013130000000000
#06612:00230013
#06618:23
#0671b:1300230000000013
#06716:0013000000130013
#06717:0000001300000000
#06712:23132300
#06715:0000001200000000
#06719:0000000000120000
#06718:00000023
#06812:00001300000000130000000013000000
#06817:0013130000001300
#06814:0000000000000013
#06819:0000000000000013
#06816:00000000000000130000000000000000
#06815:23
#0681b:00230000
#06916:1300001300130000
#06914:0013000000000000
#0691b:1300002300230013
#06919:0013000000000000
#06912:00132313
#06917:00131313
#07017:13131313
#07016:0013001300130000
#07012:23132313
#0701b:0000002300230013
#07117:1300001300130000
#07116:0013130013001300
#0711b:00132313
#07112:2300002300230013
#07216:13131313
#07217:0013001300130000
#0721b:23132313
#07212:0000002300230013
#07316:13
#07317:0013000000000000
#07312:00132313
#0731b:23131313
#07315:0000001300130000
#07318:0000002300230013
#0741b:13131313
#07415:0013001300130000
#07412:23132313
#07418:0000002300230013
#0751b:13
#07515:0013000000000000
#07516:0000130000000012
#0751c:00120000
#0751a:0000001200000000
#07518:0012
#07517:0000000000130000
#07512:2300000000120000
#07514:00000012
#07616:1300000000000012
#0761c:1212
#0761a:0012001200120000
#07618:00120012
#0771a:12000000000000000000001400000014
#07714:00001200000000000000001400000014
#07719:0000000014141414
#07718:00000000000000000014000000140000
#07713:0000000014141414
#07712:00000000000000000014000000140000
#07819:1414141414140000
#07818:00140000001400000014000016000000
#0781a:00000014000000140000001400000000
#07813:1414141414140000
#07812:00140000001400000014000016000000
#07814:00000014000000140000001400000000
#0131b:0013001300000013
#01317:13130000
#01316:0013001300000013
#01312:00130013
#01310:41
#01417:1300001300130000
#0141b:0013
#01412:1300001300132323
#01416:00131300
#01512:0013001300000013
#01516:13130000
#01517:0013001300000013
#0151b:00130013
#0161b:1300001300002300
#01612:00131300
#01616:1300001300001300
#01617:0013
#0171b:13130000
#01717:0013001300000013
#01712:0013001300000013
#01716:00130013
#01816:1300000000000013
#0181b:13000000000000000000003300000000
#01819:00000013000000000000000000000000
#01817:0000001313000000
#01812:00000033000000001300000000000000
#01814:00000000000000000000001300000000
#01916:0013001300130013
#01912:13001313
#01918:13130000
#0191b:0013001300130013
#01917:00001313
#02012:1312
#0201a:0012001200000012
#0201c:00121200
#02016:000000000000000000000000000000120012000000000000
#02018:000000000000000012220000
#02014:0000000000000012
#02813:13130000
#0281a:00130000001300000000000000000000
#02816:00001414000014140000000000000000
#0281b:0000000000130013
#02812:00000000000000000000001300001300
#02815:000000000000000000000000000000000000000000000000000000003300000000000000000000130000000000000000
#02818:00000013
#02814:000000000000000000000000003300000000000000000000
#02116:1218000000000000
#0211a:00120012
#0211c:12
#02114:0000121800001218
#02112:0000000012180000
#02118:0012
#02110:41
#0231b:1300001300130000
#02317:0013000000001300
#02312:1300131300000013
#02316:0013
#02416:00130000000000000000130000000000
#02412:00001313
#02417:0000000000000013
#0241b:00001313
#02516:1400141400141400
#0251b:23000023
#02512:0000002300000000
#02616:1400140000130000
#02612:00001313
#02617:0000000000000013
#0261b:00001313
#02714:0013000000130000
#02717:00130013
#02716:1313
#02719:0000001300000000
#02712:00230023
#0271b:2300000023000023
#05518:2400001200000013
#05516:0000240024122500
#05514:1218000000000000
#05615:2613270000000000
#05618:0000001400000015
#05614:0000000028142900
#02216:1218000000000000
#0221a:00120012
#0221c:12
#02214:0000121800001218
#02212:0000000012180000
#02218:0012
#05116:00130000
#05114:2313
#05112:00000013
#05119:0000001223000000
#05117:0000000000122300
#05115:0000000000000012
#0511b:00230000
#05414:1218000012180000
#0541c:00120000
#05416:0000241800000000
#05418:24002412
#05412:0000000000002418
#06318:12000000000000140000001400000014
#0631a:00001200001400000014000000140000
#06316:0012000012000000
#06314:1200001200120012
#06312:00120012
#06319:0000241414141414
#06310:00410000
#00159:53
#00154:00000063000000000000000000000000
#0015b:0000005300000000
#00152:00000000000000000063000000000000
#00156:1300001300001300
#00157:00000013000000000013000000000000
#00357:5300005300005300
#00356:00000063000000000063000000000000
#00352:33000033
#00354:0000003300000000
#0035b:00000000000000000043000000004300
#00359:00000043000000000000000000000000
#0055b:43004353
#00552:00335333
#00557:0000000000000023
#00556:0000000000230000
#00652:6333
#00656:00230000
#0065b:43000043
#00752:12131415
#0075c:0012000000000000
#0075b:0000001300000000
#0075a:0000000000140000
#00759:0000000000000015
#00956:0000005300000000
#00957:00000053
#00952:0023
#01057:00000053
#01056:0000005300000000
#01052:0023
#01156:63000063
#01157:0000005300000000
#03156:0000002300000000
#0315b:00530000
#03152:0000000000630000
#03157:00000023
#0325a:0000001400000000
#03252:0014
#03352:0000630000000023
#03356:0000002300000000
#0335b:0053
#03357:0000000000230000
#03355:00000053
#03458:63
#0345b:00002300000000230000000000000000
#03452:00530000
#03457:00000000000000230000000000000000
#03456:00530000
#0355b:0000530000000023
#03557:0000002300000000
#03552:0063
#03556:0000000000230000
#03558:00000063
#03655:53
#03652:00002300000000230000000000000000
#0365b:00630000
#03656:00000000000000230000000000000000
#03657:00630000
#02954:1300535353535353
#02953:00000000002300000023000000230000
#02955:00000000000000230000002300000023
#02959:13
#02958:0012
#03054:5353535300000000
#03053:00230000002300000000000000000000
#03055:00000023000000230000000000000000
#03058:1212
#03952:00630000
#03957:0000002300000000
#0395b:0000000000530000
#03956:00000023
#0415b:0000530000000023
#04157:0000002300000000
#04152:0063
#04156:0000000000230000
#04158:00000063
#04255:53
#04252:00002300000000230000000000000000
#0425b:00630000
#04256:00000000000000230000000000000000
#04257:00630000
#04352:0000630000000023
#04356:0000002300000000
#0435b:0053
#04357:0000000000230000
#04355:00000053
#04458:63
#0445b:0023000023000000
#04452:00530000
#04457:0023
#04456:00530000
#0375a:00000000002300000023000000230000
#03759:0000536363636363
#03758:00000000000000230000002300000023
#03756:0012
#03859:6363636300000000
#0385a:00230000002300000000000000000000
#03858:00000023000000230000000000000000
#03856:1212
#0405a:0014
#04052:0000001400000000
#04558:0000002200000022
#0455c:00520052
#04552:0062
#04556:0000000000220000
#04652:6222
#04656:0022005200420000
#04658:0022
#0465c:0000005200420000
#04752:00520000
#04756:00000000000000220000000000000000
#04758:00000052
#0475c:00000000000000000000000000000022
#0485c:0000005200420000
#04858:0022
#04852:0000006200320000
#04856:0022
#04952:00000000000000000000000000230000
#04956:0000000000530000
#05057:0000000000630000
#0505b:00000000000000000000000000230000
#05056:13
#05856:0000002300000000
#05857:0000000000230000
#05852:0053
#0585b:00530000
#0595a:0063636363636363
#0595b:00000023000000230000002300000023
#05959:00000000002300000023000000230000
#05953:0053535353535353
#05952:00000023000000230000002300000023
#05954:00000000002300000023000000230000
#0605a:6363636363000000
#06059:00230000002300000023000000000000
#0605b:00000023000000230000000000000000
#06053:5353535353000000
#06054:00230000002300000023000000000000
#06052:00000023000000230000000000000000
#06556:0000002300000000
#06557:0000000000230000
#06552:0000530000000023
#0655b:0053
#06555:00000053
#0665b:00002300000000230000000000000000
#06657:00000000000000230000000000000000
#06656:00530000
#06658:53
#06652:00530000
#06152:00006600000000000024000000240000
#06153:0000000054545454
#06154:00000000000000000000002400000024
#06158:0056000012000000
#06253:5454545454540000
#06252:00240000002400000024000000000000
#06254:00000024000000240000002400000000
#06258:1212
#06956:0000000000530000
#06952:00000023
#0695b:0000000000130000
#07057:53
#07056:0000000000530000
#07052:13000023
#0705b:0000000000130000
#07157:5300000000630000
#07152:1300000000130000
#0715b:00000023
#07256:63
#07257:0000000000630000
#0725b:13000023
#07252:0000000000130000
#07356:63
#0735b:13
#07355:0000000000530000
#07352:00000023
#07358:0000000000130000
#0745b:53
#07452:13000023
#07455:0000000000530000
#07458:0000000000130000
#0755b:53
#07552:13
#07556:00630000
#07557:0000000000530000
#07656:63
#07759:0000000054545454
#07758:00000000000000000024000000240000
#0775a:00000000000000000000002400000024
#07753:0000000054545454
#07752:00000000000000000024000000240000
#07754:00000000000000000000002400000024
#07859:5454545454540000
#07858:00240000002400000024000056000000
#0785a:00000024000000240000002400000000
#07853:5454545454540000
#07852:00240000002400000024000056000000
#07854:00000024000000240000002400000000
#0135b:0000005300000000
#01356:0000005300000000
#01457:5300000000530000
#0165b:63
#01652:0063
#01656:00000053
#01757:0000006300000000
#01752:0000005300000000
#01856:63
#01857:0053
#01952:53
#01956:0023000000000000
#0195b:0000000000230023
#01957:00005353
#02052:53
#02154:00120012
#0215c:12
#02158:0012
#02357:0023000000002300
#0235b:5300000000530000
#02352:0000006300000063
#02356:0023
#02456:00230000000000000000000000000000
#0255b:13000013
#02552:0000001300000000
#02556:5400005400000000
#02752:00330033
#0275b:4300000043000043
#06757:0000002300000000
#06756:0000000000230000
#0675b:0000630000000023
#06752:0063
#06758:00000063
#06852:00002300000000230000000000000000
#06856:00000000000000230000000000000000
#06857:00630000
#06855:63
#0685b:00630000
#01552:0000006300000000
#01557:0000006300000000
#0225c:12
#02254:00120012
#02258:0012
#0535c:00120000
#05354:0012
#05358:00000012
#05454:1212
#0545c:00120000
#05458:00000012
#05554:12
#0635a:00000000002400000024000000240000
#06359:0000646464646464
#06358:12000000000000240000002400000024
#06356:0012
#06459:6464646454000000
#0645a:00240000002400000024000000000000
#06458:00000024000000240000000000000000
#06456:1212
#00452:00000014
#0045a:00000014
#00852:00000014
#0085a:00000014
#05157:13
#001390:13
#001370:00000023000000000000000000000000
#001341:00000013000000000000000000000000
#001361:0000002300000000
#0013b0:0000001300000000
#001370:00000000000000000023000000000000
#001321:00000000000000000013000000000000
#001361:00000023
#003371:13
#003391:00000023000000000000000000000000
#003360:00000013000000000000000000000000
#003340:0000002300000000
#003371:0000001300000000
#0033b1:00000000000000000023000000000000
#003360:00000000000000000013000000000000
#003320:00000023
#003371:00000013
#0033b1:0000000000000023
#005321:00001323
#005361:0000000000530000
#0053b0:00000013
#005370:0000000000000053
#0063b0:23
#006321:1323
#006361:00530000
#009361:0000001300230000
#009321:0053
#009371:00000013
#0093b1:0000000000000023
#010361:0000001300230000
#010321:0053
#010371:00000013
#0103b1:0000000000000023
#011361:13
#011321:00230000
#011371:0000001300000000
#0113b1:0000000000230000
#011361:00000013
#012321:0023
#0133b1:0000001300000000
#013371:00000023
#013360:0000001300000000
#013320:0000000000230000
#014371:13
#0143b1:00230000
#014371:0000000000130000
#0153b1:23
#015321:0000001300000000
#015361:00000023
#015370:0000001300000000
#0153b0:0000000000230000
#0163b1:13
#016371:00230000
#016321:0013
#016361:00000033
#017321:23
#017371:0000001300000000
#0173b1:00000023
#017320:0000001300000000
#017360:0000000000230000
#018361:13
#018321:00000033000023000000000000000000
#018371:0013
#0183b1:00000000000000000000003300002300
#019321:13230000
#019361:0053000000000000
#019371:00001353
#0193b1:0000000000530053
#020371:23
#020320:13
#020360:0000002300000000
#0233b0:13230000
#023370:0053000000000000
#023320:0000001300230000
#023360:0053
#0233b1:0000000000130023
#023371:00000053
#023320:0000000000000013
#024360:00530000000000000000000000000000
#024320:00230000
#025360:14
#025320:0000532300000000
#025361:0000001400000000
#0253b1:0000000000532300
#028321:0013
#028341:000000000000000000000000003300000000000000000000
#028351:000000000000003300000000
#028361:0000000000230000
#029341:0000135353535353
#029331:00000000005300000053000000530000
#029351:00000000000000530000005300000053
#030341:5353535323000000
#030331:00530000005300000000000000000000
#030351:00000053000000530000000000000000
#0313b1:00132300
#031361:0000005300000000
#031321:0000000000130023
#031371:00000053
#0323b1:13
#032321:0024
#032320:0013000000000000
#0323a0:0000002400000000
#033321:00132300
#033361:0000005300000000
#0333b0:00001323
#033370:0000000000530000
#033351:00000013
#033321:0000000000000053
#034351:23
#034380:13
#0343b0:00005300000000530000000000000000
#034360:0000530000230000
#034321:0000130000230000
#034371:00000000000000530000000000000000
#0353b1:00132300
#035371:0000005300000000
#035320:00001323
#035360:0000000000530000
#035381:00000013
#0353b1:0000000000000053
#036381:23
#036350:13
#036320:00005300000000530000000000000000
#036370:0000530000230000
#0363b1:0000130000230000
#036361:00000000000000530000000000000000
#037391:0000135353535353
#0373a1:00000000005300000053000000530000
#037381:00000000000000530000005300000053
#038391:5353535323000000
#0383a1:00530000005300000000000000000000
#038381:00000053000000530000000000000000
#039321:00132300
#039371:0000005300000000
#0393b1:0000000000130023
#039361:00000053
#040321:13
#0403a1:0024
#0403b0:0013000000000000
#040320:0000002400000000
#0413b1:00132300
#041371:0000005300000000
#041320:00001323
#041360:0000000000530000
#041381:00000013
#0413b1:0000000000000053
#042381:23
#042350:13
#042320:00005300000000530000000000000000
#042370:0000530000230000
#0423b1:0000130000230000
#042361:00000000000000530000000000000000
#043321:00132300
#043361:0000005300000000
#0433b0:00001323
#043370:0000000000530000
#043351:00000013
#043321:0000000000000053
#044351:23
#044380:13
#0443b0:0053000053000000
#044360:00530023
#044321:00130023
#044371:0053
#0453c1:00122200
#045381:0000005200000000
#045320:00001222
#045360:0000000000520000
#0453c1:00000012
#045381:0000000000000052
#0463c1:22
#046320:12220000
#046360:0052000000000000
#0463c0:0000001200220000
#046380:0052
#046361:0000001200220000
#046321:0052
#047321:0000120000220000
#047361:00000000000000520000000000000000
#047381:00000012
#0473c1:00000000000000000000000000000052
#048381:0022000000000000
#0483c1:0000001200220000
#048381:0052
#048320:0000001200220000
#048360:0052
#049360:0000000000130000
#049320:00000000000000000000000000530000
#050360:23
#050370:0000000000130000
#0503b0:00000000000000000000000000530000
#051370:23
#0583b0:00132300
#058390:000000000000003300000033000000000000000000000000
#058370:000000003333000000000000
#058360:0000003300000000
#058321:00001323
#058341:000000000000000000000000003300000033000000000000
#058361:000000000000003333000000
#058371:0000000000330000
#0593a1:0013535353535353
#0593b1:00000053000000530000005300000053
#059391:00000000005300000053000000530000
#0603a1:5353535353230000
#060391:00530000005300000053000000000000
#0603b1:00000053000000530000000000000000
#059330:0013535353535353
#059320:00000053000000530000005300000053
#059340:00000000005300000053000000530000
#060330:5353535353230000
#060340:00530000005300000053000000000000
#060320:00000053000000530000000000000000
#061380:0016000000000000
#0613c0:0000002200000000
#061321:0016002200000000
#061331:0000000014545454
#061321:00000000000000000054000000540000
#061341:00000000000000000000005400000054
#062331:5454545454542400
#062321:00540000005400000054000000000000
#062341:00000054000000540000005400000000
#063391:0000145454545454
#0633a1:00000000005400000054000000540000
#063381:00000000000000540000005400000054
#064391:5454545454240000
#0643a1:00540000005400000054000000000000
#064381:00000054000000540000000000000000
#065321:00132300
#065361:0000005300000000
#0653b0:00001323
#065370:0000000000530000
#065351:00000013
#065321:0000000000000053
#066351:23
#066380:13
#0663b0:00005300000000530000000000000000
#066360:0000530000230000
#066321:0000130000230000
#066371:00000000000000530000000000000000
#0673b1:00132300
#067371:0000005300000000
#067320:00001323
#067360:0000000000530000
#067381:00000013
#0673b1:0000000000000053
#068381:23
#068350:13
#068320:00005300000000530000000000000000
#068370:0000530000230000
#0683b1:0000130000230000
#068361:00000000000000530000000000000000
#069361:0000000000130023
#069321:00000053
#070371:13
#0703b1:0023000000000000
#070361:0000000000130023
#070321:00000053
#071371:13
#0713b1:0023000000000000
#071371:0000000000130023
#0713b1:00000053
#072361:13
#072321:0023000000000000
#072371:0000000000130023
#0723b1:00000053
#073361:13
#073321:0023000000000000
#073351:0000000000130023
#073321:00000053
#0743b1:13
#074381:0023000000000000
#074351:0000000000130023
#074321:00000053
#0753b1:13
#075381:0023000000000000
#075361:00130000
#075321:0023
#075371:0000000000130000
#0753b1:0000000000000023
#076361:13
#076321:00000023
#077391:0000000014545454
#077381:00000000000000000054000000540000
#0773a1:00000000000000000000005400000054
#078391:5454545454540000
#078381:00540000005400000054000056000000
#0783a1:00000054000000540000005400000000
#079381:00220000
#077330:0000000014545454
#077320:00000000000000000054000000540000
#077340:00000000000000000000005400000054
#078330:5454545454540000
#078320:00540000005400000054000056000000
#078340:00000054000000540000005400000000
#079360:00220000
