This file was generated by Ched 2.7.0.0.
#TITLE ""
#ARTIST ""
#DESIGNER ""
#DIFFICULTY 0
#PLAYLEVEL
#SONGID ""
#WAVE ""
#WAVEOFFSET 0
#JACKET ""
#REQUEST "ticks_per_beat 480"
#00002: 4
#BPM01: 129
#00008: 01
#TIL00: ""
#VOLUME: ""
#HISPEED 00
#MEASUREHS 00
#0491f:00110000
#04918:00000014
#04914:0014
#0491a:00140000
#00218:0014
#00918:14
#00914:00140000
#00414:0014
#0051a:1414
#00514:00140000
#00612:1414
#00618:00140000
#00713:00140000
#00719:1414
#01014:14
#01018:00140000
#01314:1414
#01318:00140000
#01310:41
#0141a:14
#01412:0014
#01518:1414
#01514:00140000
#0171a:1414
#01712:00140000
#01814:14
#01818:0014
#01912:14
#0191a:0014
#02118:0014
#0211a:14
#02110:41
#02212:0014
#02214:14
#02518:0014
#0251a:14
#02612:0014
#02614:14
#02914:0014
#0291a:00240014
#02910:00410000
#03018:0014
#03012:00140014
#03314:0014
#03318:00000014
#0331a:00140000
#03412:14
#03518:0014
#03514:00000014
#03512:00140000
#0361a:14
#03714:0014
#03718:00240014
#03710:00410000
#0381a:0014
#03812:00140014
#04114:0014
#04118:00000014
#0411a:00140000
#04212:14
#0551a:00141400
#05512:00000014
#05612:14
#05618:00141400
#05614:00000014
#05714:14
#0571a:00140014
#05712:0014
#05812:14
#05818:00140014
#05814:0014
#05914:14
#06316:14
#06314:00000034
#06315:00343400
#06310:00410000
#06418:00000014
#06413:00340000
#06414:34
#06512:14
#0651a:00140000
#06514:0014
#06518:00000014
#0661a:00140000
#06614:00000014
#06612:14
#0671a:14
#06712:00140000
#06718:0014
#06714:00000014
#06812:00140000
#0681a:14000014
#04318:0014
#04314:00000014
#04312:00140000
#0441a:14
#05014:00000014
#05018:0014
#05012:00140000
#06914:00140000
#06918:0014
#07018:00140000
#07014:0014
#07112:00140000
#0711a:0014
#0721a:00140000
#07212:0014
#07312:00140000
#07314:0014
#07418:0014
#0741a:00140000
#0611f:0021
#06112:00002434
#00814:00000024
#01218:00343400
#02012:00343400
#06215:00003434
#06214:34340000
#07618:00003434
#04510:00410000
#00854:00000014
#04658:0000000000140000
#04854:0000000000140000
#06356:24
#06152:0054
#0013a0:14
#001380:00000024
#003320:14
#003340:00000024
#008320:14
#008340:00000024
#0093a0:0014
#009380:00000024
#010320:0014
#010340:00000024
#0113a0:14
#011380:00240000
#011320:0014
#011340:00000024
#0123a0:14
#012380:00343424
#016320:14
#016340:0024
#020340:14
#020320:00343424
#023380:14
#0233a0:0024
#024340:14
#024320:0024
#0273a0:14
#027380:0024
#028320:14
#028340:0024
#031380:00140000
#0313a0:0024
#031340:00000014
#032320:24
#032380:00140000
#0323a0:0024
#032340:00000014
#033320:24
#0343a0:00140000
#034380:00000024
#036320:00140000
#036340:00000024
#039380:00140000
#0393a0:0024
#039340:00000014
#040320:24
#040380:00140000
#0403a0:0024
#040340:00000014
#041320:24
#0423a0:00140000
#042380:00000024
#044320:00140000
#044340:00000024
#0453a0:00140000
#045380:00000034
#0463a0:00340000
#046380:0000000000240000
#047320:00140000
#047340:00000034
#048320:00340000
#048340:0000000000240000
#0513a0:00140000
#051380:00000024
#052320:00140000
#052340:00000024
#0533a0:00140000
#053380:00000024
#054320:00140000
#054340:00000024
#0593a0:00140000
#061380:00240000
#061320:00001434
#062340:34340000
#062350:00003434
#063360:34
#063350:00343400
#063340:00000034
#064340:34
#064330:00340000
#064320:0024
#069320:00000014
#070340:24
#0703a0:00000014
#071380:24
#071340:00000014
#072320:24
#072380:00000014
#0733a0:24
#073380:00000014
#0743a0:24
#074340:00000014
#075320:24
#0753a0:00140000
#075380:0024
#075320:00000014
#076340:24
#0763a0:00140000
#076380:00003434
#077380:24
#077340:0014
#079320:00240000
