This file was generated by Ched 2.7.0.0.
#TITLE ""
#ARTIST ""
#DESIGNER ""
#DIFFICULTY 0
#PLAYLEVEL
#SONGID ""
#WAVE ""
#WAVEOFFSET 0
#JACKET ""
#REQUEST "ticks_per_beat 480"
#00002: 4
#BPM01: 127
#00008: 01
#TIL00: ""
#VOLUME: ""
#HISPEED 00
#MEASUREHS 00
#0091a:14
#0101a:14
#01112:14
#01212:14
#01318:14
#01418:14
#01514:14
#01510:41
#01614:14
#0251a:14
#0251f:11
#02614:14
#02718:14
#02812:14
#0291a:14
#03014:14
#03318:16
#03312:0016
#0331f:21
#03512:16
#03518:0016
#03510:41
#03718:1616
#03812:1616
#04112:16
#04118:0016
#04318:16
#04312:0016
#04310:41
#04512:1616
#04618:1616
#05412:14
#05518:14
#05614:14
#0571a:14
#05812:14
#0621a:14
#06314:14
#06310:41
#06418:14
#06512:14
#0661a:14
#03212:14
#03118:14
#03912:0026
#03918:26
#04712:26
#04718:0026
#0531a:24
#05310:41
#06112:24
#00510:41
#0013a0:14
#0023a0:24
#003320:14
#004320:24
#005380:14
#006380:24
#007340:14
#008340:24
#0173a0:14
#0183a0:24
#019340:14
#020340:24
#021380:14
#022380:24
#023320:14
#024320:24
#034380:1626
#036320:1626
#040380:1626
#042320:1626
#044380:1626
#048320:1626
#0493a0:14
#0503a0:24
#051320:14
#052320:24
#059380:14
#060380:24
#067340:14
#068340:24
#069380:14
#070380:34
#071380:34003424
