This file was generated by Ched 2.7.0.0.
#TITLE ""
#ARTIST ""
#DESIGNER ""
#DIFFICULTY 0
#PLAYLEVEL
#SONGID ""
#WAVE ""
#WAVEOFFSET 0
#JACKET ""
#REQUEST "ticks_per_beat 480"
#00002: 4
#BPM01: 127
#00008: 01
#TIL00: ""
#VOLUME: ""
#HISPEED 00
#MEASUREHS 00
#0251f:11
#02512:2300130013000014
#02516:00000014000000000000140000000000
#0251b:00000013
#00118:12
#0011a:00120012
#00112:0012000000000000
#00114:0000001200000012
#0011c:0012
#00116:0000000000120000
#0031c:0012000000000000
#00314:00120012
#0031a:0000001200000012
#00316:0012
#00318:0000000000120000
#00312:12
#00912:0000130000000013
#00917:0000130000001313
#0091b:0013
#00916:0013
#0091a:14
#0101b:00130000000013000000000000000000
#01012:0000130000000013
#01016:0013
#01017:0000000000001313
#01112:00140013
#0111a:0014
#0111b:00000013
#01116:0000001400000013
#00516:12
#00514:00120012
#0051c:0012000000000000
#0051a:0000001200000012
#00512:0012
#00518:0000000000120000
#00510:41
#00418:00000000000000000012000000000000
#00419:0000000000320000
#0041a:00000000000000000000003200000000
#0041b:00000032
#0041c:00000000000000000000000000323232
#00816:00000000000000000012000000000000
#00815:0000000000320000
#00814:00000000000000000000003200000000
#00813:00000032
#00812:00000000000000000000000000323232
#0021c:0000001200000000
#00218:0000000000000012
#00612:0000001200000000
#00616:0000000000000012
#0121b:1300000000000000000000001300000000000000330033003313330033003300
#01216:1300001300000000
#01212:00000013000000000000000000000000
#01217:00000013000000000013000000000000
#01312:1400130013000013
#0131b:00130000
#01317:0013001313000000
#01316:00000013
#0141b:1300130000000013
#01417:0000001313000000
#01416:0013000000001313
#01412:00131300
#01414:0000000000130000
#0151a:00140000
#0151b:00000013
#01512:00001413
#01517:0000000000000013
#01516:0000001400000000
#01510:41
#01612:1300001300000013
#01617:1300001300000013
#0161b:00000013000000000000000000000000
#01616:00000013000000000000130000000000
#01614:00000013
#01619:00000013
#01716:0013000000130000
#01714:00130013
#01712:0000001300000013
#01717:0000001300000013
#01719:00130013
#0171b:0013000000130000
#01814:0000130000000013
#01812:0000001300001300
#01817:0000001300000000
#01819:00130000
#0181b:0013000000001300
#01816:0000000000140000
#02017:1300000000130000
#02019:00000013
#0201b:0013000000000013
#02016:0013001400000013
#02014:00000013
#02012:1300000000130000
#01912:0000131300001300
#01919:0000000000000013
#0191b:1313000000001300
#01916:14141400
#02117:0013000000130000
#02119:00130013
#0211b:0000001300000013
#02116:0000001300000013
#02114:00130013
#02112:0013000000130000
#02212:0000001400001300
#02216:0014002400140000
#02214:00140000
#0221b:00000013
#02219:0000000000000013
#0221a:0024000000000000
#02218:00240000
#02312:1313000013000000
#02316:14141414
#0231b:0000131300001300
#02314:0000000000130000
#02319:0000000000000013
#02412:1300001400140000
#02414:0013000000000000
#02416:00130014
#0241a:0000001400000014
#0261b:13131300
#02612:0000000000130000
#02615:00000013
#02618:0000000000000013
#02712:1300001300000013
#0271b:1300001300000013
#02718:0013000000001300
#02715:0000130000130000
#02818:0013000000000000
#02815:00130000
#02812:0000001300000014
#0281b:0000001300000000
#0281a:0000000000140000
#02816:00000014
#0291b:23131300
#02916:00000014000000000000140000000000
#0291a:0000000000000014
#02912:00000013
#03012:13131300
#03017:0013
#03015:00000013
#03019:0000000000130013
#0301b:00000013
#03112:13130000
#03117:13130000
#03116:0013001300000000
#0311b:0013001300000013
#03212:1314
#0321a:00000014
#03218:00130000
#0321b:0000001300000000
#03215:0013000000000000
#03317:1300001300000000
#0331b:00000000000000000013000000000000
#03312:2300001300000016
#03316:00000000130000000013000000000000
#03318:0000000000000016
#0331f:21
#03617:0000001317000000
#03612:0000001300001700
#03616:0013000000000000
#03614:00130000
#03619:00130000
#03512:1300001300000015
#03517:1300001300000000
#0351b:00000000130000000013000000000000
#03516:00000000000000000013000000000000
#03510:41
#03414:0000000000000013
#03416:00000013
#03412:0013
#0341b:00000013
#03419:0000000000130000
#03417:0013
#04116:1300001300000000
#04112:00000000000000000013000000001600
#0411b:2300001300000000
#04117:00000000130000000013000000000000
#04118:0000000000000016
#0431b:1300001300000000
#04316:1300001300000000
#04312:00000000130000000013000000000000
#04317:00000000000000000013000000000000
#04319:0000000000000015
#04310:41
#04219:0000000000000013
#04217:00000013
#0421b:0000001313000000
#04212:00000013
#04214:0000000000130000
#04216:0013
#03712:1300001300001316
#03716:00130000
#03717:1300001300000000
#0371b:00000000000000000013000000000000
#03718:0000000000000016
#0381b:0013000000001300
#03816:0013000000130024
#03814:00130000
#03812:0000001300001300
#03817:0000001300000000
#03819:00130000
#03912:2300000024000013
#0391a:0000002424000000
#03916:24230000
#0451b:1300001300001300
#04517:00130000
#04516:1300001300000000
#04512:00000000000000000013000000001600
#04518:0000000000000016
#04612:0013000000001300
#04617:0013000000130000
#04619:00130000
#0461b:0000001300001300
#04616:0000001300000024
#04614:00130000
#04812:0016
#04818:00000016
#04912:12
#04914:00120012
#04918:0012000000000000
#0491a:0000001200000012
#04916:0012
#0491c:0000000000120000
#0511c:12
#05116:0012000000000000
#0511a:00120012
#05114:0000001200000012
#05118:0012
#05112:0000000000120000
#05016:0000001200000000
#05012:0000000000000012
#00712:0012000000000000
#0071a:00120012
#00714:0000001200000012
#00718:0012
#00716:0000000000120000
#0071c:12
#05212:00000016
#05218:0000001200000000
#05412:1313
#05416:00130000
#05417:1313
#0541b:00130000
#0561b:1313
#05617:00130000
#05616:1313
#05612:00130000
#05817:1313
#0581b:00130000
#05812:1313
#05816:00130000
#06016:1313
#06012:00130000
#0601b:1313
#06017:00130000
#0611b:2313
#06112:2300000013000013
#06115:0013001300001300
#06118:0000130000130000
#06612:0013000000130000
#06615:1313
#0661b:0000001300130000
#06618:00131300
#06412:1300000000130000
#06415:0013000013000000
#06418:1300000000130000
#0641b:0013000013000000
#0681b:1300000000130000
#06818:0013000013000000
#06815:1300000000130000
#06812:0013000013000000
#06212:0000001300130000
#06215:00131300
#0621b:0013000000130000
#06218:1313
#0531b:00130013
#05312:00130013
#05319:0000001300000013
#05316:2414
#05314:0013000000130000
#05310:41
#05512:00130013
#0551b:00130013
#05514:0000001300000013
#05516:2414
#05519:0013000000130000
#06512:2313
#0651b:2300000013000013
#06518:0013001300001300
#06515:0000130000130000
#0631b:2313000013000000
#06312:2300000013000013
#06318:0000130000130000
#06315:0000001300001300
#06310:41
#06712:2313000013000000
#0671b:2300000013000013
#06715:0000130000130000
#06718:0000001300001300
#05716:00001413
#0571b:23000013
#05712:00130000
#05717:00130000
#05714:0000001300000013
#05719:0013000000130000
#05917:00000013
#05912:23000013
#0591b:00130000
#05916:00131400
#05919:0000001300000013
#05914:0013000000130000
#06919:00120012
#07015:00120012
#07119:00120000
#04012:00000016
#04018:0016
#04412:0017
#04417:0013000000001700
#04419:00130000
#0441b:0000001300000000
#04414:00130000
#04416:0000001300000000
#0471a:2424002424002400
#04712:2424000000000000
#04716:0000000024240024
#00956:0053
#00957:0000000000000063
#0095a:14
#0105b:00230000000000000000000000000000
#01056:0053
#01052:0000000000000063
#01057:0000000000000063
#00458:00000000000000000052000000000000
#00856:00000000000000000062000000000000
#0025c:0000005200000000
#00652:0000006200000000
#01256:0000005300000000
#01257:00000000000000000053000000000000
#0125b:0000000000000000000000000000000000000000000000000023000000000000
#01352:1400000000000023
#01357:0063
#01356:00000053
#01457:0063
#0145b:0000000000000053
#01456:0000000000000053
#01657:0000006300000000
#01752:0000000000000063
#02056:0063001400000000
#02452:0000001400000000
#0245a:0000001400000064
#01956:0014
#02556:00000024000000000000000000000000
#02552:0000000000000054
#02852:0000001300000054
#0285b:0000001300000000
#02956:00000024000000000000000000000000
#0295a:0000000000000064
#0315b:0000005300000000
#03156:0000005300000000
#02752:0000001300000013
#0275b:0000001300000013
#0335b:00000000000000000023000000000000
#03357:5300005300000000
#03352:0000005300000016
#03356:00000000000000000023000000000000
#03358:0000000000000016
#03657:0017
#03652:00000017
#03552:5300005300000015
#03557:0000005300000000
#0355b:00000000000000000023000000000000
#03556:00000000000000000023000000000000
#04156:6300006300000000
#04152:00000000000000000023000000001600
#0415b:0000006300000000
#04157:00000000000000000023000000000000
#04158:0000000000000016
#0435b:6300006300000000
#04356:0000006300000000
#04352:00000000000000000023000000000000
#04357:00000000000000000023000000000000
#04359:0000000000000015
#03757:5300005300000000
#0375b:00000000000000000023000000000000
#03758:0000000000000016
#03752:0000000000000016
#03857:0000005300000000
#03952:0014
#0395a:0054
#03956:54000014
#04556:6300006300000000
#04552:00000000000000000023000000001600
#04558:0000000000000016
#04656:0000006300000000
#04852:0016
#04858:00000016
#04756:0000000000000014
#05056:0000006200000000
#05258:0000005200000000
#05252:00000016
#0525c:00000012
#05452:6363
#05456:00630013
#05457:0063
#0545b:00000013
#0565b:5353
#05657:00530013
#05656:0053
#05652:00000013
#05857:6363
#0585b:00630013
#05852:0063
#05856:00000013
#06056:5353
#06052:00530013
#0605b:0053
#06057:00000013
#06652:0023000000230000
#06655:53005313
#0665b:0000002300230000
#06658:00535313
#06452:6300130000230000
#06455:0023000053001300
#06458:6300130000230000
#0645b:0023000053001300
#0685b:5300130000230000
#06858:0023000063001300
#06855:5300130000230000
#06852:0023000063001300
#06255:00636313
#06258:63006313
#06252:0000002300230000
#0625b:0023000000230000
#03252:0054
#04052:00000016
#04058:0016
#04452:0017
#04457:00000017
#002380:12000022000000000000000000000000
#002321:00000012000022000000000000000000
#0023c0:0000001200000000
#002380:00000022
#004320:12000022000000000000000000000000
#0043c1:00000012000022000000000000000000
#004360:00000000000012000022000000000000
#004381:00000000000000000012000000000000
#004391:0000000000320000
#0043a1:00000000000000000000003200000000
#0043b1:00000032
#0043c1:00000000000000000000000000323232
#0053c1:22
#006361:12000022000000000000000000000000
#0063c0:00000012000022000000000000000000
#006321:0000001200000000
#006361:00000022
#0083c1:12000022000000000000000000000000
#008320:00000012000022000000000000000000
#008381:00000000000012000022000000000000
#008360:00000000000000000012000000000000
#008350:0000000000320000
#008340:00000000000000000000003200000000
#008330:00000032
#008320:00000000000000000000000000323232
#009320:22
#009360:0013
#009320:00000023
#009370:0000000000000013
#0103b0:00530000000000000000000000000000
#010370:00230000
#010360:0013
#010320:00000023
#010320:0000000000000013
#011360:0023000000000000
#010371:0000000000000013
#0113b1:0023000000000000
#012361:0000001300000000
#012321:00000000000000000023000000000000
#012370:00000000000000000013000000000000
#0123b0:0000000000000000000000000000000000000000330033003353330033003300
#013370:23
#013370:0013
#0133b0:00000023
#013361:00000013
#013321:0000000000000053
#014361:23
#014371:0013
#0143b1:00000023
#0143b1:0000000000000013
#015371:0023000000000000
#014360:0000000000000013
#015320:0023000000000000
#016370:0000001300000000
#0163b0:0000000000230000
#017320:0000000000000013
#018360:0023000000000000
#020360:0013000000000000
#020320:0000002300000000
#024360:14
#0243a0:00240000
#0243a0:0000000000000014
#025360:00000054000000000000000000000000
#0253a0:0024
#025320:0000000000000014
#026360:0024
#028320:0000000000000014
#029360:00000054000000000000000000000000
#029320:0024
#0293a0:0000000000000014
#030360:0000002400000000
#0313b0:0000001300000000
#031370:00000023
#031361:0000001300000000
#031321:00000023
#032321:0014
#032361:00000024
#033371:13
#0333b1:00230000
#033371:0000001300002300
#0333b1:00000000000000000053000000000000
#033320:0000001300002300
#033360:00000000000000000053000000000000
#035320:13
#035360:00230000
#035370:0000001300002300
#0353b0:00000000000000000053000000000000
#035321:0000001300002300
#035361:00000000000000000053000000000000
#035371:0000000000000013
#0363b1:0023000000000000
#037371:13
#0373b1:00230000
#037371:0000001300002300
#0373b1:00000000000000000053000000000000
#038371:0000001300000000
#0383b1:0000000000230000
#039361:14
#0393a1:00240000
#0393a1:0014
#039361:00000024
#0403b1:1323000000000000
#040350:0013230000000000
#040381:0000132300000000
#040320:0000001323000000
#041360:13
#041320:00230000
#041360:0000001300002300
#041320:00000000000000000053000000000000
#0413b1:0000001300002300
#041371:00000000000000000053000000000000
#0433b1:13
#043371:00230000
#043361:0000001300002300
#043321:00000000000000000053000000000000
#0433b0:0000001300002300
#043370:00000000000000000053000000000000
#043360:0000000000000013
#044320:0023000000000000
#045360:13
#045320:00230000
#045360:0000001300002300
#045320:00000000000000000053000000000000
#046360:0000001300000000
#046320:0000000000230000
#047360:00001454
#047320:0000000000540024
#048320:1323000000000000
#048381:0013230000000000
#048350:0000132300000000
#0483b1:0000001323000000
#050321:12000022000000000000000000000000
#050380:00000012000022000000000000000000
#050361:0000001200000000
#050321:00000022
#0523c1:12000022000000000000000000000000
#052360:00000012000022000000000000000000
#052381:0000001200000000
#0523c1:00000022
#054321:1333
#054361:00330023
#054370:0013
#0543b0:00000023
#0563b0:1333
#056370:00330023
#056361:0013
#056321:00000023
#058371:1333
#0583b1:00330023
#058320:0013
#058360:00000023
#060360:1333
#060320:00330023
#0603b1:0013
#060371:00000023
#062351:13333323
#062321:0000005300530000
#062380:13333323
#0623b0:0053000000530000
#064320:13230000
#064350:0053000000000000
#064381:13230000
#0643b1:0053000000000000
#0643b1:00001323
#064381:0000000000530000
#064350:00001323
#064320:0000000000530000
#066350:13333323
#066320:0053000000530000
#066381:13333323
#0663b1:0000005300530000
#0683b1:13230000
#068381:0053000000000000
#068350:13230000
#068320:0053000000000000
#068320:00001323
#068350:0000000000530000
#068381:00001323
#0683b1:0000000000530000
#069321:12
#070361:22
#0703c0:12
#071380:22
#071321:12
#071351:00000032
#073351:22
#071390:00000012
#073390:22
