This file was generated by Ched 2.7.0.0.
#TITLE ""
#ARTIST ""
#DESIGNER ""
#DIFFICULTY 0
#PLAYLEVEL
#SONGID ""
#WAVE ""
#WAVEOFFSET 0
#JACKET ""
#REQUEST "ticks_per_beat 480"
#00002: 4
#BPM01: 127
#00008: 01
#TIL00: ""
#VOLUME: ""
#HISPEED 00
#MEASUREHS 00
#0251f:11
#02518:00130000
#02515:0000000000000013
#00315:13
#00312:0033333333333300
#00912:13
#0091b:13
#00918:00130013
#00915:0000000013000013
#0101b:00130000
#01015:0000001300000000
#01018:0013
#01012:0000000000000013
#01118:00131300
#01115:0000001300000000
#01112:0000000000000013
#0121b:13
#01218:00000033000013000000000000000000
#01315:0000001300000000
#01318:00131300
#01312:13000013
#0131b:0013000000000000
#01415:00130000
#0141b:0013001300000013
#01412:00001313
#01418:0000000000130000
#01515:00131300
#01518:0000001300000000
#0151b:0000000000000013
#01510:41
#01612:13
#01615:00000033000000000000000013000000
#01618:0000000000000013
#0161b:0000000000130000
#01712:0013000000000000
#01718:0000130000000013
#01715:0000001300001300
#0171b:0000000000130000
#01815:00130000
#01818:0000001300000000
#0181b:0000000000131313
#01912:1313
#01918:0013000000000013
#01915:00130000
#0191b:0000001300000000
#02012:1300000000000013
#0201b:0013000000000000
#02015:0000000000130000
#02018:00000013
#02118:0013000000001300
#02115:0000130000130000
#0211b:0000001300000000
#02112:0000000000000013
#02212:0000000000131313
#0221b:0023000000000000
#02218:00230000
#02215:0000002300000000
#0231b:1313
#02315:0013000000130013
#02318:00130013
#02312:0000001300000000
#0241b:1300000000130013
#02412:0013000000001300
#02418:00130000
#02415:0000001300000000
#0261b:0000000000130000
#02618:00000013
#02615:0000000000000013
#02612:00000013000000000000000000000000
#0271b:1300000000000013
#02712:0013000000000000
#02715:0000130000130000
#02718:0000001300001300
#02818:0013000000130013
#02815:00130013
#02812:0000001300000000
#0291b:00130000
#02912:0000000000000013
#03015:0013000000130000
#03018:0013
#0301b:00000013
#03012:0000000000000013
#0311b:13
#03118:0013000000000013
#03115:00130000
#03112:0000001300000000
#03215:13130000
#03218:0013001300000000
#03212:0013
#0321b:0013
#03318:13000000000000000013000000000000
#0331b:0000001300000000
#0331f:21
#03512:13000000000000000013000000000000
#03515:0000001300000000
#03510:41
#03412:0013
#03415:00000013
#0341b:0000000000000013
#03418:0000000000130000
#0361b:0013000000000000
#03618:0000001300000000
#03615:00130000
#03612:0013
#03712:0000001300000013
#03718:13
#0371b:0000000000000013
#03715:00000000000000000013000000000000
#0381b:0013000000000000
#03818:00130013
#03815:0000001300000023
#04018:13130000
#04015:0013001300000000
#04012:0013
#0401b:0013
#03915:0000230000000013
#0391b:23000023
#03918:0000002300000000
#03912:0023
#04115:13000000000000000013000000000000
#04112:0000001300000000
#0431b:13000000000000000013000000000000
#04318:0000001300000000
#04310:41
#0421b:0013
#04218:00000013
#04212:0000001300000013
#04215:0000000000130000
#04412:0013000000000000
#04415:0000001300000000
#04418:00130000
#0441b:0013
#0451b:0000001300000013
#04515:13
#04512:0000000000000013
#04518:00000000000000000013000000000000
#04612:0013000000000000
#04615:00130013
#04618:0000001300000023
#04815:13130000
#04818:0013001300000000
#0481b:0013
#04812:0013
#04918:13
#0491b:00003300330033133300330033000000
#05115:13
#05112:00003300330033133300330033000000
#05012:13
#05015:00000013000000000000000000000000
#05018:0000001300000000
#0521b:13
#05218:00000013000000000000000000000000
#05215:0000001300000000
#05315:0013000000000013
#05318:00131300
#05312:0000001300130000
#0531b:23000013
#05310:41
#0541b:1313
#05418:00130000
#05518:0013000000000013
#05515:00131300
#0551b:0000001300130000
#05512:23000013
#05612:1313
#05615:00130000
#05712:0013000000000013
#0571b:00131300
#05715:0000001300130000
#05718:23000013
#05818:1313
#0581b:00130000
#0591b:0013000000000013
#05912:00131300
#05918:0000001300130000
#05915:23000013
#06015:1313
#06012:00130000
#06212:1313
#06215:00130000
#06218:1313
#0621b:00130000
#06412:1313
#06415:00130013
#06418:1313
#0641b:00130013
#06318:2313
#06315:0013000000000000
#06312:0000001300000000
#0631b:0000130000333300
#06310:41
#0661b:1313
#06618:00130000
#06615:1313
#06612:00130000
#06512:2313
#06515:0000130000333300
#06518:0013000000000000
#0651b:0000001300000000
#06715:2313
#06718:0013000000000000
#0671b:0000001300000000
#06712:0000130000333300
#0681b:1313
#06818:00130013
#06815:1313
#06812:00130013
#0611b:2313
#06118:0000130000333300
#06115:0013000000000000
#06112:0000001300000000
#0011b:13
#00118:0033333333333333
#0021b:0000001300000000
#00512:13
#00515:0033333333333333
#00510:41
#00612:0000001300000000
#00415:00000013000000000000000000000000
#0041b:0000001300000000
#00418:13
#00718:13
#0071b:0033333333333300
#00818:00000013000000000000000000000000
#00812:0000001300000000
#00815:13
#0471b:0000002300000023
#04715:0023
#04718:0000000000230000
#04712:2323000000002300
#00355:53
#00955:0000000000000053
#00952:13
#0095b:13
#01058:0053
#01052:0000000000000053
#0125b:63
#01258:0000005300000000
#01352:00000063
#0145b:0000000000000063
#01652:53
#01758:0000000000000063
#01952:0063
#0205b:0053000000000000
#02058:0000001300000000
#0245b:0000000000000053
#02558:00230000
#02555:0000000000000053
#0295b:00230000
#02952:0000000000000063
#02858:0000000000000063
#02652:00000023000000000000000000000000
#03055:0023000000000000
#03152:0000005300000000
#03252:0053
#0325b:0063
#03358:53000000000000000023000000000000
#0335b:0000006300000013
#03552:53000000000000000023000000000000
#03555:0000006300000013
#03652:0053
#03752:0000005300000013
#03758:53
#0375b:0000000000000013
#03755:00000000000000000023000000000000
#03855:0000005300000000
#04052:0053
#0405b:0063
#04155:63000000000000000023000000000000
#04152:0000005300000013
#0435b:63000000000000000023000000000000
#04358:0000005300000013
#0445b:0063
#0455b:0000006300000013
#04555:63
#04552:0000000000000013
#04558:00000000000000000023000000000000
#04658:0000006300000000
#0485b:0063
#04852:0053
#04958:63
#0495b:00000000000000230000000000000000
#05155:53
#05152:00000000000000230000000000000000
#05058:0000005300000000
#05255:0000006300000000
#05252:00000013
#0545b:5353
#05458:00530000
#05652:6363
#05655:00630000
#05858:6363
#0585b:00630000
#06055:5353
#06052:00530000
#06258:0053
#06252:0053
#06358:0063
#06655:0063
#0665b:0063
#06552:0063
#06755:0053
#0615b:0053
#0015b:53
#0025b:0000005300000000
#00552:63
#00652:0000006300000000
#0045b:0000006300000000
#00758:63
#00852:0000005300000000
#0013b0:13
#001380:0033333333333333
#002380:33000023
#0023b0:00000033000033000000000000000000
#003350:13
#003320:0033333333333323
#0043b0:0000001300000000
#004380:00000023
#005320:13
#005350:0033333333333333
#006350:33000023
#006320:00000033000033000000000000000000
#007380:13
#0073b0:0033333333333323
#008320:0000001300000000
#008350:00000023
#009350:0000000000000013
#010320:0023000000000000
#010380:0013
#0103b0:00000023
#010320:0000000000000013
#011350:0023000000000000
#0123b0:13000023
#012380:00000033000033000000000000000000
#013320:00000013
#014350:23
#0143b0:0000000000000013
#015380:0023000000000000
#016320:13
#016350:00000033000023000000000000000000
#017380:0000000000000013
#0183b0:0023000000000000
#019320:0013
#019350:00000023
#0203b0:0013000000000000
#020380:0000002300000000
#0243b0:0000000000000013
#025380:00530000
#0253b0:0000000000230000
#025350:0000000000000013
#026320:00000053000000000000000000000000
#026350:0023
#028380:0000000000000013
#0293b0:00530000
#029380:0000000000230000
#029320:0000000000000013
#030350:0053000000000000
#030320:0000002300000000
#031320:0000001300000000
#031350:00000023
#032320:0013
#032350:00000023
#0323b1:0013
#032381:00000023
#033381:13
#0333b1:00230000
#0333b1:0000001300003323
#033381:00000000000000000053000000000000
#035321:13
#035351:00230000
#035351:0000001300003323
#035321:00000000000000000053000000000000
#036321:0013
#036351:00000023
#037381:13
#0373b1:00230000
#037321:0000001300002300
#037351:00000000000000000053000000000000
#038351:0000001300000000
#038321:0000000000230000
#040321:0013
#040351:00000023
#0403b0:0013
#040380:00000023
#041350:13
#041320:00230000
#041320:0000001300003323
#041350:00000000000000000053000000000000
#0433b0:13
#043380:00230000
#043380:0000001300003323
#0433b0:00000000000000000053000000000000
#0443b0:0013
#044380:00000023
#045350:13
#045320:00230000
#0453b0:0000001300002300
#045380:00000000000000000053000000000000
#046380:0000001300000000
#0463b0:0000000000230000
#0483b0:0013
#048380:00000023
#048321:0013
#048351:00000023
#049381:1300000000000023
#0493b1:00003300330033533300330033000000
#050381:0000001300000000
#0503b1:00000023
#051351:1300000000000023
#051321:00003300330033533300330033000000
#052351:0000001300000000
#052321:00000023
#0543b1:1333
#054381:00330023
#056321:1333
#056351:00330023
#058381:1333
#0583b1:00330023
#060351:1333
#060321:00330023
#0613b1:0013
#061381:0000000000333323
#062381:0013
#0623b1:00000023
#062320:0013
#062350:00000023
#063380:0013
#0633b0:0000000000333323
#065320:0013
#065350:0000000000333323
#066350:0013
#066320:00000023
#0663b1:0013
#066381:00000023
#067351:0013
#067321:0000000000333323
#069361:12320022
#0693c0:12320022
#070380:12320022
#070321:12320022
#071321:12320022
#0713c0:12320022
