This file was generated by Ched 2.7.0.0.
#TITLE ""
#ARTIST ""
#DESIGNER ""
#DIFFICULTY 0
#PLAYLEVEL
#SONGID ""
#WAVE ""
#WAVEOFFSET 0
#JACKET ""
#REQUEST "ticks_per_beat 480"
#00002: 4
#BPM01: 127
#00008: 01
#TIL00: ""
#VOLUME: ""
#HISPEED 00
#MEASUREHS 00
#01617:00000013000000000000130000001300
#0161b:13000013
#01612:0000000000130000
#01616:1300001400001300
#01712:1c0013001c130013
#01716:0013001300001300
#01717:0000130000130000
#0171b:0013000000001300
#01817:13130000
#0181b:0013000000001300
#01812:0000130000130013
#01816:0000000000141414
#0251f:11
#02514:00130000
#02512:24001313
#02515:0000000000160000
#0251b:00000013
#02517:0000000000000013
#02017:0000000000130013
#0201b:13130013
#02012:13130000
#02015:0013000000000000
#02018:0013000000000000
#02112:1c0013001c130013
#02116:0013001300001300
#01916:13130000
#0191b:1300000013000013
#01912:0013001300001300
#01917:0013001300000013
#00112:1200001200000000
#00115:00000012000000000000000000000000
#00114:0000000000000012
#0011c:1200001200120000
#0011a:0012000000001200
#00118:0000120012000012
#00218:1200001200000000
#00212:1200001200000012
#0021c:00000012000000000000000000000000
#00216:00000012000000000000000000000000
#0051c:1200001200000000
#00519:00000012000000000000000000000000
#0051a:0000000000000012
#00512:1200001200120000
#00514:0012000000001200
#00516:0000120012000012
#00510:41
#00616:1200001200000000
#0061c:1200001200000012
#00612:00000012000000000000000000000000
#00618:00000012000000000000000000000000
#0031c:12
#00316:1200000012000012
#00319:0012000000000000
#00317:00000012000000000000000000000000
#00315:00120000
#00318:0000001200000000
#00312:0000001200120000
#00314:00000012
#0031a:0000000000000012
#00418:00000012000000000000001200000000
#0041c:12
#00412:1200001200000000
#0041a:00000000000000000012000000000000
#00415:0000000000120000
#00419:00000000000000000000000000000012
#00416:0000000000000012
#00413:00000000000000000000000000120000
#0041b:00000012
#00912:1c131300
#00916:0000130000130013
#0091b:0000001300130013
#00712:12
#00718:1200000012000012
#00715:0012000000000000
#00717:00000012000000000000000000000000
#00719:00120000
#00716:0000001200000000
#0071c:0000001200120000
#0071a:00000012
#00714:0000000000000012
#00816:00000012000000000000001200000000
#00812:12
#0081c:1200001200000000
#00814:00000000000000000012000000000000
#00819:0000000000120000
#00815:00000000000000000000000000000012
#00818:0000000000000012
#0081b:00000000000000000000000000120000
#00813:00000012
#01012:13130013
#01017:1313
#01016:0000000000130013
#0101b:0000000000130013
#01112:1313
#01117:1300130000000013
#0111b:00000013
#01212:13000000000000000013000000000013
#01215:00000000000000000000001300001300
#01218:00000000000000000000130000130000
#0121b:00000013
#01217:1300001300000000
#01216:00000013000000000000000000000000
#02212:1c000013
#0221b:0023002300130013
#02216:0000000000141414
#02217:00230000
#02317:13130000
#02312:13000013
#0231b:0013001300130000
#02316:0013001300000013
#02412:1600000000130000
#02414:0016000000001300
#02416:0000160000140013
#02418:0000001600001400
#01312:1c00130013000013
#01316:0013131313001300
#01317:0000000000000013
#0131b:0013001300000000
#0141b:00131300
#01412:0013000000130013
#01417:0000001300130013
#01416:00001313
#0151b:1313
#01516:1300130000000013
#01512:00000013
#01510:41
#03418:0014140016000000
#03414:00000014000000000000000000000000
#03412:1400001c13001600
#0341b:00000013
#03415:0000000000160016
#0341a:14
#03516:140000130000000000130000001400130000000000000000
#03512:2300130013001c1c
#0351a:000000001400000000140000000000000000000000000000
#03510:41
#04212:1400001c13001318
#0421b:00001313
#04216:0000000000180000
#04214:0014140000000000
#04218:00000014000000000000000000000000
#0421a:14
#03317:0013001300130000
#0331b:23131300
#03316:140000000000000000000000001400000000000000000000
#03312:000000001400000000140000000000000000160000000000
#03318:00000016
#0331f:21
#02812:00131a1700000000
#02816:0014000000140000
#0281a:0000001400000000
#0281b:0000000000130000
#02819:00000013
#02814:00000014
#02817:0000000000000013
#02612:0000000000130000
#02614:00000013
#02616:0000000000000013
#0261b:1300000013000013
#02619:00130013
#02617:0000000000130000
#02716:1800140000140000
#02712:131a131600000014
#02717:0000000000000017
#02714:0000001a
#0271b:0000000000130000
#02919:00130000
#0291b:00001313
#02915:0000000000160000
#02912:00000013
#02916:0000000000000013
#0291a:24
#03012:1300130000001414
#0301a:0000000014140000
#03016:0000001400000000
#03112:1c1300131a130013181300130000001c
#03118:00000016
#03116:00001700000015000000130000180000
#03114:000000000000001a
#03212:1c000012
#0361a:1400001400140000
#03616:0000141424000014
#03618:0014000000000000
#03612:00000014000000000000000024000000
#03614:00140000000000000000000000000000
#03712:13000000000000000000000000000000000000000000000000000000000000000000000000000000000000000000000000000000000000000000000000000000000000000000000000000000000000000000000000000000000000000000000000000000000000000000000000000000000000000000000000000000000000000000000000000000000000000000000000000000000000000000000000000000000000000000000000000000000000000000000000000000000000000000000000000000000000000000000000000000000000000000000000000000000000000000000000000000000000000000000000000000000000000000000000000000000000000000000000000000000000000000000000000000000000000000000000000000000000000000000000000000000000000000000000000000000000000000000000000000000000000000000000000000000000000000000000000000000000000000000000000000000000000000000000000000000000000000000000000000000000000000000000000000000000000000000000000000000000000000000000000000000000000000000000000000000000000000000000000000000000000000000000000000000000000000000000000000000000000000000014000000000000000000000000000000000000000000000000000000000000000000000000000000000000000000000000000000000000000000000000000000000000000000000000000000000000000000000000000000000000000000000000000000000000000000000000000000000000000000000000000000000000000000000000000000000000000000000000000000000000000000000000000000000000000000000000000000000000000000000000000000000000000000000000000000000000000000000000000000000000000000000000000000000000000000000000000000000000000000000016000000000000000000000000000000000000000000000000000000000000000000000000000000000000000000000000000000000000000000001c1c0000000000000000000000000000000000000000000000000000000000000000000000000000000000000000000000000000000000000000000000000000000000000000000000000000000000000000000000000000000000000000000000000000000000000000000000000000000000000000000000000000000000000000000000000000000000000000000000000000000000000000000000000000000000000000000000000000000000000000000000
#03716:1413001400000000
#0371b:0000001300000000
#03717:0013
#0371a:0014000000000000
#03718:00000026
#03816:0014141400000024
#0381b:0013001300130000
#03812:1c13141c
#03817:0013
#03918:2600000000160000
#03912:2616262c2400001c
#03916:0028
#04012:131c001c14001600
#04016:14000000140000000000141400000000
#0401b:00130000
#0401a:0014
#04018:00000016
#04116:0013001300130000
#04112:23131316
#04118:00000016
#04317:0013001300130000
#0431b:23131300
#04312:0000000000001c1c
#04310:41
#04412:1400001400140000
#04416:0000141424000014
#04414:0014000000000000
#0441a:00000014000000000000000024000000
#04418:00140000000000000000000000000000
#0451b:13
#04516:1400001413000000
#04512:0014001300002600
#0451a:0014
#04517:0013000000000000
#04616:0014141413000024
#04612:1c13001300131c00
#0461b:00130000
#0461a:0014
#04812:001c131c14001600
#04816:14000000140000000000141400000000
#0481b:13
#04818:00000016
#0481a:0014
#0471a:0000240000140000
#04712:2400242c2400002c
#04716:2800000024240000
#04912:1200001200000000
#04916:00000012000000000012000000000000
#04914:0000000000000012
#0491c:1200001200120000
#04918:0012120012001200
#0491a:0000000000000012
#0501c:12
#05018:00000012000000000000000012000000
#05016:1200001200000012
#05012:00000000000000000012000000000000
#0511c:1200001200000000
#05118:00000012000000000012000000000000
#0511a:0000000000000012
#05112:1200001200120000
#05116:0012120012001200
#05114:0000000000000012
#05212:12000016
#05218:1200001200000000
#0521c:00000000000000000012000000000000
#05216:00000012000000000000000000000000
#05316:00000014000000000000000000000000
#0531a:0014000000000000
#0531b:0000001300000013
#05312:2c13
#05317:00130000
#05310:41
#05716:00000014130000000000000000000000
#05712:2c14001300000013
#0571b:0013
#0551b:0013001300000013
#05516:00000018140000000000130000001300
#05512:2500001813001300
#05519:25
#05912:25001318000013000000000000001300
#05916:0000141800000000
#0591b:00001313
#05917:0000000000130013
#05919:25
#0611a:0014000000140000
#06112:2c000018000000001300000013001800
#06117:00130000
#0611b:0000001300000013
#06116:0000000014130000
#06312:2518140000000000
#06317:00000013000000000000000000000000
#06319:25
#06310:41
#07018:1212
#0701a:0012001200120012
#0701c:00120012
#07012:0012
#07016:00120012
#0701b:00000032000000000000000000000000
#07019:00000000000000000032000000000000
#06912:1212
#06914:1a12001200120012
#06916:00120012
#0691c:00120012
#06918:0012
#06915:00000032000000000000000000000000
#06913:00000000000000000032000000000000
#07112:1212
#07114:0012001200120000
#07116:000000000000000000000000120000000000000000000000000000000000000032003200000000000000180000180000
#07118:0012
#0711c:000000000000120000000000000000003232000000000000
#0711a:0000000000120000
#07115:00000032000000000000000000000000
#07119:00000000000000000032000000000000
#07113:00000000000000000032000000000000
#05412:28001400000000002c14000016001c00
#0541a:0000001400140000
#05416:00000014280000140000001400000000
#05418:00000016
#0561a:00000000001400140000000000140000
#05616:0000000000000014
#05612:2a001400000000002a00140000000014
#05618:00140014000000000014001400000000
#05614:00002a1400002a00
#0581a:00001400000000000014000000000000
#05812:000028142c14161c
#05816:28000014000000140000001400000000
#05818:00000016
#06012:000000002a140014000000002a140000
#06016:0000000000000014
#06014:2a140014000000002a14001400000000
#0601a:00001400000000000000140000000014
#06018:0000001400000000
#06212:2600161c0000001c2c16001c16001c00
#06218:0000261600161600
#06612:0000001c2600161c2c00161c16001c00
#06618:26001600000000000016000016000000
#06512:2c14001300140013
#06516:00000018130000001400000000001800
#0651b:00001313
#06517:0000000000130000
#0671a:00140000
#06716:00001813000000000000000000000000
#06712:25
#06719:25
#0641a:00000000001400140000000000140000
#06416:00140014000014000014001400001400
#06412:2c0014002c0000002c0014002c000014
#06812:2c0000002c1400142c0000002c140000
#06816:00140014000014000014001400001400
#0681a:00001400000000000000140000000014
#01652:00000013000000000000530000003300
#01656:6300001400002300
#01657:00000053000000000000000000003300
#0165b:1300001300000000
#01757:0000230000530033
#0175b:0063004300002300
#01752:0000000000000053
#01756:0000004300000000
#01857:23230000
#0185b:0063004300000000
#01852:00230000
#01856:0000004300000000
#02057:0000000000000033
#02052:0000233400000033
#02055:0053000000000000
#0205b:00230000
#02058:0063000000000000
#0205a:0000004400000000
#02152:0000000000000033
#02157:0000000000000033
#02156:0000004300000000
#0215b:0000004300000000
#02256:0000004300000000
#0225b:0000004300000000
#01957:0023000000000000
#0195b:53135300
#01956:13531300
#01952:0000002300000000
#00152:0000005200000000
#00252:0000006200000000
#00258:0000006200000000
#0055c:0000006200000000
#00358:0000005200000000
#00458:00000062000000000000000000000000
#00452:6200006200000000
#0065c:0000005200000000
#00656:0000005200000000
#00756:0000006200000000
#00856:00000052000000000000000000000000
#0085c:5200005200000000
#00952:1c53
#00956:0000630000230063
#0095b:0000002300230063
#01052:23
#01057:2353
#01056:0000000000000063
#0105b:0000000000230063
#01152:2353
#01157:2343
#02357:13631300
#02352:63130013
#02356:0023000000000000
#0235b:0000002300000000
#02452:16
#02454:0016000000000000
#02456:00160000
#02458:0000001600000000
#01352:1c00000000000023
#01356:00005363
#01457:0000000000230053
#01452:0000000000000053
#0145b:0053
#0155b:2363
#01556:2333
#01257:5300005300000000
#01256:00000063000000000000000000000000
#01252:1300001300000000
#0125b:00000013000000000000000000000000
#03556:640000000000000000000000002400000000000000000000
#0355a:000000002400000000540000000000000000000000000000
#03552:1300000000001c1c
#03356:540000000000000000000000002400000000000000000000
#03352:000000002400000000640000000000000000660000160000
#03358:0000000000005616
#0335b:13
#02852:0000001700000000
#02752:0000001600000000
#02757:0000000000000017
#03252:5c
#03656:00541400
#0365a:0000002400000000
#03652:00000014
#03756:6423145400140000
#03752:00000000000000000000000000000000000000000000000000000000000000000000000000000000000000000000000000000000000000000000000000000000000000000000000000000000000000000000000000000000000000000000000000000000000000000000000000000000000000000000000000000000000000000000000000000000000000000000000000000000000000000000000000000000000000000000000000000000000000000000000000000000000000000000000000000000000000000000000000000000000000000000000000000000000000000000000000000000000000000000000013000000000000000000000000000000000000000000000000000000000000000000000000000000000000000000000000000000000000000000000000000000000000000000000000000000000000000000000000000000000000000000000000000000000000000000000000000000000000000000000000000000000000000000000000000000000000000000000000000000000000000000000000000000000000000000000000000000000000000000000000000000000000000000000000000000000000000000000000000000000000000000000000000000000000000000000000000000000000000000000024000000000000000000000000000000000000000000000000000000000000000000000000000000000000000000000000000000000000000000000000000000000000000000000000000000000000000000000000000000000000000000000000000000000000000000000000000000000000000000000000000000000000000000000000000000000000000000000000000000000000000000000000000000000000000000000000000000000000000000000000000000000000000000000000000000000000000000000000000000000000000000000000000000000000000000000000000000000000000000000026000000000000000000000000000000000000000000000000000000000000000000000000000000000000000000000000000000000000000000006c5c0000000000000000000000000000000000000000000000000000000000000000000000000000000000000000000000000000000000000000000000160000000000000000000000000000000000000000000000000000000000000000000000000000000000000000000000000000000000000000000000000000000000000000000000000000000000000000000000000000000000000000000000000000000000000000000000000000000000000000000000
#03757:0023
#03758:0000000000002616
#0375a:0024000000000000
#0375b:0000000000130000
#03852:0024
#03856:0000005400000000
#03952:3626000064000000
#03958:5600000000260000
#03956:0048
#03954:00000038
#04052:00001416
#0405a:0014
#04058:00000016
#04152:1300000000006616
#04158:0000000000005616
#04352:0000000000001c1c
#0435b:13
#04456:00641400
#04452:0000002400000000
#0445a:00000014
#04556:5400146423140000
#0455a:0024
#04552:0024000000130016
#04557:0023000000000000
#0455b:00130000
#04558:0000000000000016
#04656:0000006400000000
#0465a:0024
#04852:00001416
#04858:00000016
#0485a:0014
#04752:640000003400344c
#04756:4800000054243400
#04755:0036000000000000
#0475a:0000000000240000
#04952:0000005200000000
#04956:00000000000000000022000000000000
#05052:00000000000000000022000000000000
#05056:5200005200000000
#05058:00000052000000000000000000000000
#0515c:0000006200000000
#05158:00000000000000000022000000000000
#05258:6200006200003600
#0525c:00000000000000000022000000000000
#05256:00000062000000000000000000000000
#05252:00000036
#06156:0054
#0615a:0000000000240000
#0705a:0052005200520052
#07058:2222
#0705c:00220022
#06952:2222
#06954:1a52005200520052
#06956:00220022
#07152:2222
#07154:0052005200520000
#07156:00000000220000000000000000000058
#07158:0022
#0715a:0000000000520000
#02555:0000000000160000
#02552:14
#02955:0000000000160000
#0295a:14
#05458:00000046
#05452:18001c36
#05456:00180000
#05852:00181c36
#05858:00000046
#05856:18
#06258:00160046
#06252:16001c36
#06652:00161c36
#06658:16000046
#06552:0000000000240000
#06556:0064
#06054:4a4a
#06052:004a004a
#06452:3c3c3c3c
#06852:4c4c4c4c
#05652:3a3a
#05654:003a003a
#0305a:0014
#03052:00000014
#03452:0013
#0345b:00000013
#04252:00000013
#0425b:0013
#001320:0000001200000000
#001360:00000022
#002320:0000001200000000
#002360:00000022
#002381:0000001200000000
#0023c1:0000000000005222
#003381:0000001200000000
#0033c1:00000022
#004321:12
#004361:00000022000000000000000000000000
#004380:00000012000000000000000000000000
#0043c0:0000002200000000
#004321:0000001200000000
#004361:00000000000000000022000000000000
#0053c1:0000001200000000
#005381:00000022
#0063c1:0000001200000000
#006381:00000022
#006360:0000001200000000
#006320:0000000000005222
#007360:0000001200000000
#007320:00000022
#0083c0:12
#008380:00000022000000000000000000000000
#008361:00000012000000000000000000000000
#008321:0000002200000000
#0083c0:0000001200000000
#008380:00000000000000000022000000000000
#009360:00132300
#0093b0:0000005300000000
#009321:00001323
#009361:0000000000530000
#0093b0:0000000000130000
#009370:00000023
#009360:0000000000000013
#010320:53
#010360:0023000000000000
#0093b1:0000000000000013
#010371:53
#0103b1:0023000000000000
#010371:00130000
#0103b1:0000002300000000
#010360:0000001300000000
#010320:0023
#010371:00001323
#0103b1:0000000000530000
#010361:0000000000000013
#011321:53
#011361:0023000000000000
#0103b0:0000000000000013
#011370:53
#0113b0:0023000000000000
#011320:00130000
#011360:0000002300000000
#0113b1:0000001300000000
#011371:0023
#011320:0013
#011370:00000023
#012370:13
#0123b0:0000005300002300000000000000000000000000000000000000000000000000
#012361:00000013000000000000000000000000
#012321:0000000000000000005300002300000000000000000000000000000000000000
#012370:0000001300000000
#0123b0:0000000000000000000000000000005300002300000000000000000000000000
#013360:0013
#0133b0:00000023
#013361:00000013
#013321:0000000000000053
#014361:23
#0143b0:13
#014370:0023000000000000
#014360:00130000
#014320:0000002300000000
#0143b0:00001323
#014370:0000000000530000
#014370:0000000000000013
#0153b0:53
#015370:0023000000000000
#014321:0000000000000013
#015361:53
#015321:0023000000000000
#0153b1:00130000
#015371:0000002300000000
#015320:0000001300000000
#015360:0023
#0153b1:0013
#015361:00000023
#016361:13
#016321:0000005300002300000000000000000000000000000000000000000000000000
#016370:00000013000000000000000000000000
#0163b0:0000000000000000005300002300000000000000000000000000000000000000
#016320:0000000000130023
#016360:00000033
#0173b0:0013002300000000
#017370:00330000
#017370:0000000000130023
#0173b0:00000033
#017321:0000000000000013
#018371:53
#018321:0023000000000000
#0183b0:0013002300000000
#018370:00530000
#018321:00130000
#018361:0000002300000000
#0193b1:13230000
#019371:0053000000000000
#019360:00132300
#019320:0000005300000000
#0193b1:0013
#019361:00000023
#020351:0013000000000000
#0203b1:00530000
#020321:0000002400000000
#020380:0013000000000000
#020320:00530000
#0203a0:0000002400000000
#020320:0000000000130023
#020360:00000053
#0213b0:0013002300000000
#021370:00530000
#021370:0000000000130023
#0213b0:00000053
#022360:0013002300000000
#022320:00530000
#023320:13230000
#023360:0053000000000000
#023371:00132300
#0233b1:0000005300000000
#023320:0013
#023360:0000000000230000
#023370:00000013
#0233b0:0000000000000023
#0243a0:00000000000000000000000000001454
#024380:0000000000000000000000000000000000000000000000000000000000540054
#0253a0:54545454545454542400000000000000
#025380:0054005400540054005400540054005400000000000000000000000000000000
#025320:00000000000000000000000000001454
#025340:0000000000000000000000000000000000000000000000000000000000540054
#026320:54545454545454542400000000000000
#026340:0054005400540054005400540054005400000000000000000000000000000000
#028320:00000000000000000000000000001454
#028340:0000000000000000000000000000000000000000000000000000000000540054
#029320:54545454545454542400000000000000
#029340:0054005400540054005400540054005400000000000000000000000000000000
#0293a0:00000000000000000000000000001454
#029380:0000000000000000000000000000000000000000000000000000000000540054
#0303a0:54545454240000000000000000000000
#030380:0054005400540054000000000000000000000000000000000000000000000000
#030360:0000000014240000
#030360:0000000000001424
#032320:1c
#0323c0:00000022
#033360:14240000
#033320:005454000000000000000000
#033320:0000001400240000
#033360:000000000000000000000054005400000000000000000000
#033380:00000016
#033320:0000000000000026
#033321:00000016
#033381:0000000000000026
#035361:14240000
#0353a1:005454000000000000000000
#0353a1:0000001400240000
#035361:000000000000000000000054005400000000000000000000
#036361:00142400
#0363a1:0000005400000000
#036320:0014
#036360:0000000000240000
#036360:00000014
#0363a0:0000000000000024
#037360:14240000
#0373a0:0054000000000000
#037361:0013000000000000
#037321:00230000
#037361:0000001400240000
#037321:0054
#037370:0013
#0373b0:0000000000230000
#037380:0000000000001626
#037320:000000000000000000000000005c0000
#037321:00000000000000000000000000000000000000000000000000000000000000000000000000000000000000000000000000000000000000000000000000000000000000000000000000000000000000000000000000000000000000000000000000000000000000000000000000000000000000000000000000000000000000000000000000000000000000000000000000000000000000000000000000000000000000000000000000000000000000000000000000000000000000000000000000000000000000000000000000000000000000000000000000000000000000000000000000000000000000000000000000000000000000000000000000000000000000000000000000000000000000000000000000000000000000000000000000000000000000000000000000000000000000000000000000000000000000000000000000000000000000000000000000000000000000000000000000000000000000000000000000000000000000000000000000000000000000000000000000000000000000000000000000000000000000000000000000000000000000000000000000000000000000000000000000000000000000000000000000000000000000000000000000000000000000000000000000000000000000000000000000000000000000000000000000000000000000000000000000000000000000000000000000000000000000000000000000000000000000000000000000000000000000000000000000000000000000000000000000000000000000000000000000000000000000000000000000000000000000000000000000000000000000000000000000000000000000000000000000000000000000000000000000000000000000000000000000000000000000000000000000000000000000000000000000000000000000000000000000000000000000000000000000000000000000000000000000000000000000000000000016000000000000000000000000000000000000000000000000000000000000000000000000000000000000000000000000000000000000000000005c000000000000000000000000000000000000000000000000000000000000000000000000000000000000000000000000000000000000000000000000260000000000000000000000000000000000000000000000000000000000000000000000000000000000000000000000000000000000000000000000000000000000000000000000000000000000000000000000000000000000000000000000000000000000000000000000000000000000000000000000
#038361:0000001400240000
#038321:0054
#039381:16260000
#039321:0056000000000000
#039321:0014
#039381:0000000000560000
#039341:00000028
#041361:14240000
#0413a1:00540054000000000000000000000000
#0413a1:0000001400240000
#041361:00000000000000540054000000000000
#041321:00000016
#041381:0000000000000026
#041380:00000016
#041320:0000000000000026
#043360:14240000
#043320:00540054000000000000000000000000
#043320:0000001400240000
#043360:00000000000000540054000000000000
#044360:00142400
#044320:0000005400000000
#0443a1:0014
#044361:0000000000240000
#044361:00000014
#044321:0000000000000024
#045361:14240000
#045321:0054000000000000
#045370:0013000000000000
#0453b0:00230000
#045360:0000001400240000
#0453a0:0054
#045361:0013
#045321:0000000000230000
#045321:000000000000000000000000000000000000000000000000000000000000000000000000000000000000000000000000000000000000000000000000000000000000000000000000000000000000000000000000000000000000000000000000000000000000000000000000000000000000000000000000000000000000000000000000000000000000000000000000000000000000000000000000000000000000000000000000000000000000000000000000000000000000000000000000000000000000000000000000000000000000000000000000000000000000000000000000000000000000000000000000000000000000000000000000000000000000000000000000000000000000000000000000000000000000000000000000000000000000000000000000000000000000000000000000000000000000000000000000000000000000000000000000000000000000000000000000000000000000000000000000000000000000000000000000000000000000000000000000000000000000000000000000000000000000000000000000000000000000000000000000000000000000000000000000000000000000000000000000000000000000000000000000000000000000000000000000000000000000000000000000000000000000000000000000000000000000000000000000000000000000000000000000000000000000000000000000000000000000000000000000000000000000000000000000000000000000000000000000000000000000000000000000000000000000000000000000000000000000000000000000000000000000000000000000000000000000000000000000000000000000000000000000000000000000000000000000000000000000000000000000000000000000000000000000000000000000000000000000000000000000000000000000000000000000000000000000000000000000000000000000000000000000000000000000000000000000000000000000000000000000000000000000000000000000000000000000000000000000000000000000000000000000000000000000000000000000000000000000000000000000000000000000000000000000000000000000000000000000000000000000000000000000000000000000000000000000000000000000000000000000000000000000000000000000000000000000000000000000000000000000000000000000000000000000000000000000000000000000000000000000000000000000000000000000000000000000000000000000000000000000000000000000000000000000000000000000000000000000000000000000000000000000000000000000000000000000000000000000000000000000000000000000000000000000000000000000000000000000000000000000000000000000000000000000000000000000000000000000000000000000000000000000000000000000000000000000000000000000000000000000000000000000000000000000000000000000000000000000000000000000000000000000000000000000000000000000000000000000000000000000000000000000000000000000000000000000000000000000000000000000000000000000000000000000000000000000000000000000000000000000000000000000000000000000000000000000000000000000000000000000000000000000000000000000000000000000000000000000000000000000000000000000000000000000000000000000000000000000000000000000000000000000000000000000000000000000000000000000000000000000000000000000000000000000000000000000000000000000000000000000000000000000000000000000000000000000000000000000000000000000000000000000000000000000000000000000000000000000000000000000165500000000000000000000000000000000000000000000000000000000000000000000000000000000000000000000000000000000000000000000000000000000000000000000000000000000000000000000000000000000000000000000000000000000000000000000000000000000000000000000000000000000000000000000000000000000000000000000000000000000000000000000000000555300000000000000000000000000000000000000000000000000000000000000000000000000000000000000000000000000000000000000000000000000000000000000000000000000000000005700260000000000000000000000000000000000000000000000000000000000000000000000000000000000000000000000000000000000000000000000000000000000000000000000000000000000000000000000000000000000000000000000000000000000000000000000000000000000000000000000000000000000000000000000000000000000000000000000000000000000000000000000000000000000000000000000000000000000000000000000000000000000000000000000000000000000000000000000000000000000000000000000000000000000000000000000000000000000000000000000
#045380:0000000000001626
#045390:000000000000000000000000000000000000000000000000000000000000000000000000000000000000000000000000000000000000000000000000000000000000000000000000000000000000000000000000000000000000000000000000000000000000000000000000000000000000000000000000000000000000000000000000000000000000000000000000000000000000000000000000000000000000000000000000000000000000000000000000000000000000000000000000000000000000000000000000000000000000000000000000000000000000000000000000000000000000000000000000000000000000000000000000000000000000000000000000000000000000000000000000000000000000000000000000000000000000000000000000000000000000000000000000000000000000000000000000000000000000000000000000000000000000000000000000000000000000000000000000000000000000000000000000000000000000000000000000000000000000000000000000000000000000000000000000000000000000000000000000000000000000000000000000000000000000000000000000000000000000000000000000000000000000000000000000000000000000000000000000000000000000000000000000000000000000000000000000000000000000000000000000000000000000000000000000000000000000000000000000000000000000000000000000000000000000000000000000000000000000000000000000000000000000000000000000000000000000000000000000000000000000000000000000000000000000000000000000000000000000000000000000000000000000000000000000000000000000000000000000000000000000000000000000000000000000000000000000000000000000000000000000000000000000000000000000000000000000000000000000000000000000000000000000000000000000000000000000000000000000000000000000000000000000000000000000000000000000000000000000000000000000000000000000000000000000000000000000000000000000000000000000000000000000000000000000000000000000000000000000000000000000000000000000000000000000000000000000000000000000000000000000000000000000000000000000000000000000000000000000000000000000000000000000000000000000000000000000000000000000000000000000000000000000000000000000000000000000000000000000000000000000000000000000000000000000000000000000000000000000000000000000000000000000000000000000000000000000000000000000000000000000000000000000000000000000000000000000000000000000000000000000000000000000000000000000000000000000000000000000000000000000000000000000000000000000000000000000000000000000000000000000000000000000000000000000000000000000000000000000000000000000000000000000000000000000000000000000000000000000000000000000000000000000000000000000000000000000000000000000000000000000000000000000000000000000000000000000000000000000000000000000000000000000000000000000000000000000000000000000000000000000000000000000000000000000000000000000000000000000000000000000000000000000000000000000000000000000000000000000000000000000000000000000000000000000000000000000000000000000000000000000000000000000000000000000000000000000000000000000000000000000000000000000000000000000000000000000000000000000000000000000000000000000000000000000000000000000000000000000005500000000000000000000000000000000000000000000000000000000000000000000000000000000000000000000000000000000000000000000000000000000000000000000000000000000000000000000000000000000000000000000000000000000000000000000000000000000000000000000000000000000000000000000000000000000000000000000000000000000000000000000000000000000000000000000000000000000000000000000000000000000000000000000000000000000000000000000000000000000000000000000000000000000000000000000000000000000000000005500000000000000000000000000000000000000000000000000000000000000000000000000000000000000000000000000000000000000000000000000000000000000000000000000000000000000000000000000000000000000000000000000000000000000000000000000000000000000000000000000000000000000000000000000000000000000000000000000000000000000000000000000000000000000000000000000000000000000000000000000000000000000000000000000000000000000000000000000000000000000000000000000000000000000000000000000000000000000000000000000
#046360:0000001400240000
#0463a0:0054
#047320:14
#047350:0026000000000000
#047360:00001424
#0473a0:0000000000540000
#047361:0000000000140000
#047321:00000024
#049321:0000001200002200
#049361:00000000000000000052000000000000
#050361:12
#050321:00000022000000000000000000000000
#050380:00000012000000000000000000000000
#0503c0:0000002200000000
#050361:0000001200002200
#050321:00000000000000000052000000000000
#0513c1:0000001200002200
#051381:00000000000000000052000000000000
#052381:12
#0523c1:00000022000000000000000000000000
#052360:00000012000000000000000000000000
#052320:0000002200000000
#052381:0000001200002600
#0523c1:00000000000000000052000000000000
#053321:00140000
#053361:0000002400000000
#053371:00001323
#0533b1:0000000000330000
#053360:0000000000130023
#053320:00000033
#0543a0:1424000000000000
#054320:0000142400000000
#055360:00001323
#0553b0:0000000000330000
#0573a0:00140000
#057360:0000002400000000
#057360:00001323
#057320:0000000000330000
#057371:0000000000130023
#0573b1:00000033
#058321:1424000000000000
#0583a1:0000142400000000
#059371:00001323
#059321:0000000000330000
#061321:00140000
#061361:0000002400000000
#061361:00001424
#0613a1:0000000000540000
#062381:1626000000000000
#062321:0000162600000000
#0633b1:0000132300000000
#063360:0000001400340024
#063320:00003434
#063371:0013
#0633b1:0000000000230000
#063371:00000013
#0633b1:0000000000000023
#0653a1:00140000
#065361:0000002400000000
#065361:00001424
#065321:0000000000540000
#066321:1626000000000000
#066381:0000162600000000
#067321:0000132300000000
#067360:0000001400340024
#0673a0:00003434
#067361:0013
#067321:0000000000230000
#067361:00000013
#067321:0000000000000023
#069321:1252
#069341:0052003200520052
#069351:00000032000000000000000000000000
#069361:00520032
#069331:00000000000000000032000000000000
#070321:22
#070380:1252
#0703a0:0052003200520052
#0703b0:00000032000000000000000000000000
#0703c0:00520032
#070390:00000000000000000032000000000000
#071380:22
#071321:1252
#071341:0052003200320000
#071351:00000032000000000000000000000000
#071361:000000000000520000000000000000003232220000000000
#071331:00000000000000000032000000000000
#071380:0012
#071390:00000000000000000032000000000000
#0713a0:0000000000320000
#0713c0:000000000000000000000000000000003232220000000000
#071360:00000000000000000000000000000018
#0733c0:22
