This file was generated by Ched 2.7.0.0.
#TITLE ""
#ARTIST ""
#DESIGNER ""
#DIFFICULTY 0
#PLAYLEVEL
#SONGID ""
#WAVE ""
#WAVEOFFSET 0
#JACKET ""
#REQUEST "ticks_per_beat 480"
#00002: 4
#BPM01: 127
#00008: 01
#TIL00: ""
#VOLUME: ""
#HISPEED 00
#MEASUREHS 00
#0091a:1414
#01012:1414
#01118:14
#01114:0014
#01312:1414
#0141a:1414
#01514:14
#01518:0014
#01510:41
#01912:14
#01918:0014
#02014:14
#0201a:0014
#0231a:14
#02314:0014
#02418:14
#02412:0014
#02514:00140000
#02519:0014
#02513:00000014
#0251f:11
#0251a:14
#02912:14
#02918:00140000
#02913:0014
#02919:00000014
#02712:14140000
#0271a:00001414
#02812:14
#02816:00140000
#0281a:0014
#03118:1616
#03112:00160016
#03218:16
#03312:00140000
#03318:0014
#03314:00000014
#0331f:21
#0331a:24
#0341a:14
#03412:00140000
#03418:00001414
#03414:0000000000140000
#03512:14140000
#0351a:00001414
#03510:41
#03718:14140000
#03714:00001414
#0381a:14
#03812:00140000
#03818:00001414
#03814:0000000000140000
#0411a:00140000
#04114:0014
#04118:00000014
#04112:24
#04212:14
#0421a:00140000
#04214:00001414
#04218:0000000000140000
#0431a:14140000
#04312:00001414
#04310:41
#04514:14140000
#04518:00001414
#04612:14
#0461a:00140000
#04614:00001414
#04618:0000000000140000
#04818:1616
#04812:00160016
#05314:00140014
#0531a:2414
#05310:41
#0541a:14
#05416:00140014
#05412:0014
#05514:00140000
#05512:00000014
#05518:0014
#0551a:14
#05718:00140014
#05712:2414
#05812:14
#05816:00140014
#0581a:0014
#05918:00140000
#0591a:00000014
#05914:0014
#05912:14
#0611a:24140000
#06114:00001414
#0621a:14
#06216:00140014
#06212:0014
#0631a:24140000
#06312:00001414
#06310:41
#06512:24140000
#06518:00001414
#06612:14
#06616:00140014
#0661a:0014
#06712:24140000
#0671a:00001414
#03912:24
#03918:0024
#04714:0024
#0471a:24
#05616:00350000
#06015:00350000
#06419:00350000
#06812:00350000
#00510:41
#03652:0014
#04052:0014
#0405a:0014
#0445a:0014
#0013a0:14
#001390:0034
#002380:24
#003320:14
#003330:0034
#004340:24
#005380:14
#005390:0034
#0063a0:24
#007340:14
#007330:0034
#008320:24
#012380:1424
#016340:1424
#0173a0:14
#017380:0034
#018380:34
#0183a0:0024
#021320:14
#021340:0034
#022340:34
#022320:0024
#026380:1424
#030340:1424
#036340:14
#036330:00340000
#036320:0024
#039320:14
#039340:00240000
#039380:0014
#0393a0:00000024
#040320:14342400
#0403a1:14342400
#044381:14
#044391:00340000
#0443a1:0024
#0473a1:14
#047381:00240000
#047341:0014
#047321:00000024
#0493a1:14
#050371:24
#051321:14
#052351:24
#056391:15
#056361:00353525
#060321:15
#060351:00353525
#064361:15
#064391:00353525
#068351:15
#068321:00353525
#069381:1424
#070341:1424
#071381:14003424
