This file was generated by Ched 2.7.0.0.
#TITLE ""
#ARTIST ""
#DESIGNER ""
#DIFFICULTY 0
#PLAYLEVEL
#SONGID ""
#WAVE ""
#WAVEOFFSET 0
#JACKET ""
#REQUEST "ticks_per_beat 480"
#00002: 4
#BPM01: 220
#00008: 01
#TIL00: ""
#VOLUME: ""
#HISPEED 00
#MEASUREHS 00
#00114:14
#00218:14
#0041a:14
#00410:41
#0051a:14
#00612:14
#00712:14
#00818:14
#00918:14
#01014:14
#01114:14
#0121a:14
#01312:14
#0141a:14
#01410:41
#01512:14
#01914:14
#01618:14
#01714:14
#01818:14
#0201a:14
#0221a:14
#02312:14
#02112:14
#02418:14
#02410:41
#02714:14
#02618:14
#02514:14
#04412:0016
#04418:26
#0441f:21
#03618:14
#03718:14
#03814:14
#03914:14
#0401a:14
#0411a:14
#04212:14
#04312:14
#04518:16
#04612:16
#04618:0016
#04610:41
#04712:16
#04718:0016
#04812:1616
#04918:1616
#05218:0016
#05212:26
#05312:16
#05418:16
#05412:0016
#05518:16
#05512:0016
#05618:1616
#05712:1616
#05812:0016
#05818:26
#06012:16
#06018:0016
#06112:16
#06118:0016
#06212:1616
#06210:41
#06318:1616
#06618:0016
#06612:26
#06818:16
#06812:0016
#06918:16
#06912:0016
#07018:1616
#07112:16
#07118:0016
#07212:1616
#07210:41
#07318:16
#07312:0016
#07418:1616
#07512:16
#07518:0016
#07612:16
#07718:14
#07814:14
#07918:14
#08012:14
#0811a:14
#08212:14
#0831a:14
#0281f:11
#00018:24
#08413:24
#08419:24
#003340:1424
#0283a0:14
#0293a0:24
#030320:14
#031320:24
#032380:14
#033380:24
#034340:14
#035340:24
#050320:1626
#051380:1626
#059380:1626
#064320:1626
#065380:1626
#067320:1626
