This file was generated by Ched 2.7.0.0.
#TITLE ""
#ARTIST ""
#DESIGNER ""
#DIFFICULTY 0
#PLAYLEVEL
#SONGID ""
#WAVE ""
#WAVEOFFSET 0
#JACKET ""
#REQUEST "ticks_per_beat 480"
#00002: 4
#BPM01: 220
#00008: 01
#TIL00: ""
#VOLUME: ""
#HISPEED 00
#MEASUREHS 00
#0281f:11
#0281b:001300001300
#02817:1313
#02816:00130013
#02812:1313
#06615:00130000
#06618:001300000000
#0661b:230000000000130000000013
#06617:00000013
#06616:0013
#06612:230013
#06917:00230013
#06912:000000230000000013000000
#0691b:1313
#06916:0013
#0321b:00001313
#03212:00130000
#03217:13130000
#03216:00000013
#08116:13000013
#0811b:00130013
#08117:0013
#08112:0013
#08012:13000013
#08017:000013
#08016:000000000013000000000000
#07717:13000013
#07716:000000000000130000000013
#0771b:0013
#07712:00130013
#0761b:00000013
#07616:000013
#07617:000000000013000000000000
#07612:26
#07618:26
#07912:13
#00018:000000000013000013000000
#00015:00130013
#0001b:23
#00012:23
#0711b:23000013
#07116:00002313
#07112:00130000
#07117:00130000
#00218:00130013
#00215:000000000013000013000000
#0021b:13
#00212:13
#0111a:001400140000
#01116:000000130013000000000000
#01118:000000000014
#01119:000014
#01114:000000000000000000000014
#01113:00000014
#01112:240000000000001400000000
#0731b:00130000
#07317:00002313
#07312:23000013
#07316:00130000
#07816:00000013
#0781b:130013
#07812:000000130013000000000000
#07817:000000000013000000000000
#07412:000000230000000000140014
#07416:240000240000001400001400
#0741a:000000141400
#07218:000000000000001300000013
#07215:000000001313
#0721b:00230013
#07212:0013
#07216:00230000
#07217:23
#07210:41
#07015:000000000000001300000013
#07018:000000001313
#07012:00230013
#0701b:0013
#07017:00230000
#07016:23
#06117:00000013
#06117:00000013
#06112:130013
#0611b:00231300
#06116:00231300
#0571b:130000131300
#05712:000000000000000000130013
#05717:000000000013
#05716:000000000000001300000000
#05718:001300000000
#05715:00130000
#05612:000000230000130000000013
#05615:00000013
#05618:000013
#0561b:00231300
#05815:001300000000
#05812:000000000000130000000013
#05816:00000013
#05817:0013
#0581b:230013
#05818:00260000
#06519:00230013
#06514:00230013
#06516:2424
#0651a:0024
#0671b:000000000000130000000013
#06717:00230013
#06712:000000230000000013000000
#06716:1313
#04312:0013
#04319:00000013
#04317:0013
#04314:00000013
#01814:0019000000000000
#01812:00130000
#0181b:00001313
#01813:0000000000190000
#01816:0023
#01817:23
#0151b:000000000000000000000013
#01512:0013
#01515:000013
#01518:000000000013000000130000
#01712:000000130000000000000013
#0171b:130013
#01717:00130000
#01918:2313
#01915:1319000023000000
#0191b:00000013
#01912:0000130000190000
#00617:000000000013000000130000
#00612:000000130013000013000000
#0061b:13
#00817:130013
#00812:00000013
#0081b:000000000013000000000000
#00816:000000130013000000000000
#0641a:24000014
#06412:24142400
#06217:00000013
#06212:2313
#06216:00130000
#06210:41
#0631b:23000013
#06316:0013
#06312:00130000
#0211b:13000013
#02112:000000000013000000000000
#02117:000000000000000000000013
#02116:000013
#02017:00130000
#02016:230013
#02012:00130000
#0201b:23
#02212:130000131300
#02217:000000131300
#02216:00130000
#0221b:00130000
#01612:000000000013000000000013
#0161b:000013
#01616:13
#05116:00002313
#0511b:000000131300
#05119:00130000
#05112:13
#05114:00130000
#05117:23
#04816:00000013
#0481b:2313
#04817:00130000
#04812:23
#04912:13000013
#04917:0013
#0491b:00130000
#05016:13
#05016:13
#0501b:00000013
#05017:00130000
#05012:0013
#0231b:00131300
#02317:00000013
#02316:0013
#02312:00000013
#08316:24141414
#0831a:000000000014001400000014
#08312:001300001414
#00916:0013
#0091b:00131300
#00912:00000013
#00917:00000013
#00517:0013
#00512:00131300
#00516:000000000000000000130013
#0051b:00000013
#06812:230013
#06817:00000013
#06816:000013000000130000000013
#0601b:230013
#06016:00000013
#06017:000013000000130000000013
#05912:000000000000130000000013
#0591b:000000230000000013000000
#05916:00230013
#05917:1313
#03517:00130000
#0351b:13000013
#03512:00130000
#03518:000000000000000000000013
#03515:000000000013
#03516:13
#0341b:0013
#03416:00131300
#03417:13000013
#03316:000000000013000000000000
#0331b:000000000013000000000000
#03312:130000130000000000000013
#03317:001300000000
#0101a:001400140000
#01016:240000130013000000000000
#01012:000014
#01017:000000000000000000130013
#0541b:000000000000000013000013
#05416:000000000000000000000013
#05412:001300000000
#05417:13131300
#0531b:00000013
#05317:0013
#05312:0013
#05316:00000013
#05212:230000131300
#05217:230000131300
#05216:000000130000000000000013
#0521b:000000130000000000000013
#05516:00000013
#0551b:000013
#05517:0013
#05512:0013
#04612:000000000000000013000013
#04617:000000000000000000000013
#0461b:001300000000
#04616:13131300
#04610:41
#04512:00000013
#04516:0013
#0451b:0013
#04517:00000013
#0441b:230000131300
#04416:230000131300
#04417:000000130000000000000013
#04412:000000130000000000000013
#0441f:21
#04212:2300001300000013
#04217:2300001300000013
#04214:00131313
#04219:00131313
#04216:0013000000130000
#0421b:0013000000130000
#02917:131300000000
#0291b:000000000013000000000013
#02912:131300000000
#02916:000000000013000000000000
#0271b:13
#02715:00130000
#02718:001300000000
#02712:130000000024000024000000
#0271a:000000000024000024000000
#01416:230000131300
#0141b:230000131300
#01417:00130000
#01412:00130000
#01410:41
#01316:000000000013000000000000
#01317:13000013
#00416:130013
#00412:000000000013000000000000
#00417:000000130013000000000000
#0041b:23000013
#00410:41
#00317:00130013
#00312:00130013
#0031b:23
#00316:23
#0411b:0013
#04116:0013
#04112:00260000
#04118:26
#03718:130000000000130000000013
#03712:001300001300
#03715:000000000013000000000000
#0371b:00130013
#03815:1313
#03818:000013000000000013000013
#03812:00130013
#0381b:000000000013000000000000
#0391b:001300001300
#03918:000000000013000000000000
#03912:00130013
#03915:130000000000130000000013
#03112:000000000013000000000013
#0311b:131300000000
#03116:131300000000
#03117:000000000013000000000000
#0821b:230000130000000000000013
#08212:230000000013000000130000
#08216:001400141400
#04717:00000013
#04712:000013
#04716:0013
#0471b:0013
#01212:000000000000000000000013
#01217:000013
#0121b:00130000
#01216:00130000
#01218:26
#03612:130000000013000000000000
#03615:000013000000000013000013
#0361b:00130013
#03618:0013
#03012:001300001300
#03016:1313
#03017:00130013
#0301b:0013
#0261b:001300000000
#02617:000000000000000000000013000000000000000000000000
#02612:000000000000000000000013000000000000000000000000
#02616:001300000000
#02516:000000000000000000000013
#02517:000013
#02512:130013
#02417:000000000000000000000013
#02416:130013
#0241b:130013
#02410:41
#00118:000000130013000000130000
#00112:0013
#00115:001300000000
#07512:00232626
#07515:00260000
#07518:26000026
#04013:00000025
#04018:2425
#04014:00240000
#08412:2c
#06552:14
#0655a:0014
#0645a:0014
#06452:14
#02256:000000000000000000000013
#0225b:000000000000000000000013
#02257:000053
#02252:000053
#0355b:6343
#03556:6343
#03557:00230000
#03552:00230000
#01656:630013
#0165b:000013
#01652:000000000053000000000000
#05557:00130000
#05552:00130000
#05352:00130000
#05357:00130000
#05356:00000053
#04756:00130000
#0475b:00130000
#0455b:00130000
#04556:00130000
#04557:00000063
#04356:43
#0435b:43
#02957:002300001300
#02952:000013
#0295b:000000000053000000000000
#02956:000000000053000000000000
#0035b:6343
#00356:6343
#00357:00230000
#00352:00230000
#0315b:000013
#03156:002300001300
#03152:000000000063000000000000
#03157:000000000063000000000000
#0255b:0000001300000000
#02556:0000001300000000
#02552:63
#02452:0000001300000000
#02457:0000001300000000
#0245b:53
#01457:000000000000000000000013
#01452:000000000000000000000013
#01456:000063
#0145b:000063
#06652:13
#07057:00130000
#07056:13
#07256:00130000
#07257:13
#07555:00560000
#07558:16000016
#07552:0016
#07652:16
#0765b:00000053
#07357:00001353
#07352:13
#07356:00630000
#07456:14140000
#07156:00001363
#0715b:13
#07157:00530000
#06952:00130000
#06957:00130053
#0695b:63
#06752:00130000
#06757:00130000
#06756:63
#0595b:00130000
#05956:00130000
#05957:53
#06156:00130000
#0615b:00130000
#06157:00000063
#06152:53
#05858:00460000
#01955:0029000063000000
#01958:53
#01952:0000000000290000
#01856:0063
#01857:53
#01854:0029000000000000
#01853:0000000000290000
#05652:00130000
#0565b:00130000
#05156:0013
#05157:13
#05257:13
#05256:000000000000000000000063
#0525b:000000000000000000000063
#05252:000053
#04257:5300002300000023
#04252:5300002300000023
#04254:00535353
#04259:00535353
#04256:0023000000230000
#0425b:0023000000230000
#01258:46
#01256:00630000
#04152:00160000
#04158:16
#0415b:0053
#04156:0053
#04053:00000015
#04058:1415
#04054:00140000
#08452:3c
#04456:13
#04457:000000000000000000000053
#04452:000000000000000000000053
#0445b:000063
#02752:000034
#0275a:000000000044000000000000
#0005b:13
#00052:13
#03252:00630000
#0325b:00000053
#08156:23
#08052:00000063
#07757:23
#07952:23
#07856:00000053
#0785b:63
#05755:00130000
#00657:00000063
#0065b:53
#00857:63
#00852:00000063
#06257:00000013
#06256:00130000
#0635b:00000013
#06352:00130000
#0215b:63
#02057:00530000
#02056:000063
#0175b:000063
#01757:00530000
#04856:00000013
#04857:00130000
#04952:00000013
#0495b:00130000
#0505b:00000063
#05057:00230000
#05056:23
#05052:0053
#03456:0053
#03457:63
#03356:000000000053000000000000
#0335b:000000000053000000000000
#0545b:000000000000000000000063
#05456:000000000000000000000063
#05457:13
#04652:000000000000000000000053
#04657:000000000000000000000053
#04656:13
#01356:000000000063000000000000
#01357:53
#00957:00000053
#00456:53
#0045b:00000053
#03952:00130013
#03852:00130013
#0375b:00130013
#0365b:00130013
#0265b:005300000000
#02657:000000000000000000000023000000000000000000000000
#02652:000000000000000000000023000000000000000000000000
#02656:005300000000
#0033b0:1323
#003370:00530000
#003361:1323
#003321:00530000
#004361:13
#004321:00230000
#0043b1:00000013
#005371:00230000
#0063b1:13
#006371:00230000
#006371:00000013
#0073b1:00230000
#007350:00132300
#007381:00001323
#007320:00000013
#008320:23
#008371:13
#0083b1:00230000
#008321:00000013
#009361:00230000
#009371:00000013
#0103b1:23
#012361:00130000
#012321:000023
#013371:13
#0133b1:000000000023000000000000
#013360:000000000013000000000000
#013320:00000023
#0143b0:000013
#014370:000000000000000000000023
#014361:000013
#014321:000000000000000000000023
#016361:13
#016321:00230000
#016370:000000130023000000000000
#016321:000000000013000000000000
#016361:000023
#017371:00130000
#0173b1:0023
#017360:000000132300
#0173b1:000013
#017371:000000000000000000000023
#018371:13230000
#018341:0059000000000000
#018361:00001323
#018331:0000000000590000
#019381:13230000
#019351:0059000000000000
#019351:00001323
#019321:0000000000590000
#020371:00130000
#0203b1:000023
#020360:000013
#021320:23
#0213b1:13
#021371:000000000023000000000000
#022321:000013
#022361:000000000000000000000023
#022370:000013
#0223b0:000000000000000000000023
#0243b0:13
#024370:0000332300000000
#024321:0000132300000000
#025321:13
#025361:0000332300000000
#0253b0:0000132300000000
#0263b0:130033000000000000230000
#026370:000000000000000000000053000000000000000000000000
#026361:000013000000000000230000
#026321:000000000000000000000053000000000000000000000000
#029371:001300002300
#0293b1:000000000033000000000000
#029360:000000000013000000000000
#029320:000023
#031360:001300002300
#031320:000000000033000000000000
#031371:000000000013000000000000
#0313b1:000023
#032321:00130000
#032361:0023
#0323b1:00000013
#033371:23
#0333b1:000000000013000000000000
#033371:000023
#033360:000000000013000000000000
#033320:000023
#034370:13
#0343b0:00230000
#034360:0013
#034320:00000023
#0353b0:1323
#035370:00530000
#035361:1323
#035321:00530000
#041361:0013
#041321:00000023
#0413b0:0013
#041370:00000023
#042320:1300005300000053
#042360:0053000000530000
#042340:00333333
#043360:23
#042371:1300005300000053
#0423b1:0053000000530000
#042391:00333333
#0433b1:23
#0443b1:000013
#044371:000000000000000000000033
#0453b1:00230000
#044320:000000000000000000000013
#045360:00230000
#045370:00000013
#0463b0:23
#0463b0:0013
#046370:000023
#046320:000000000000000000000013
#047360:00230000
#046371:000000000000000000000013
#0473b1:00230000
#048321:00132300
#0483b1:00000013
#0493b1:23
#049321:00132300
#0493b1:00000013
#0503b1:23
#050360:13
#050320:00230000
#050371:00130000
#0503b1:0023
#050320:0013
#050360:00000023
#0503b1:00000013
#051371:23
#052321:000013
#052361:000000000000000000000033
#053321:00230000
#0523b0:000000000000000000000013
#053370:00230000
#053360:00000013
#054320:23
#054320:0013
#054360:000023
#0543b0:000000000000000000000013
#055370:00230000
#054361:000000000000000000000013
#055321:00230000
#056321:13230000
#0563b0:13230000
#059370:13
#0593b0:00230000
#060320:00132300
#061320:13
#061360:00230000
#061370:00000013
#0623b0:23
#0623a0:00140000
#062360:0024
#062320:00000014
#063360:24
#063360:00140000
#0633a0:0024
#063360:00000014
#064320:24
#0643a1:1424
#064361:00340000
#064320:0014
#064360:00000034
#065320:24
#067360:13
#067320:00230000
#0683b0:00132300
#0693b0:13
#069370:00230000
#069370:00000013
#0703b0:23
#071370:00130000
#0713b0:0023
#071360:00000013
#072320:23
#073360:00130000
#073320:0023
#073370:00000013
#0743b0:23
#075350:00160000
#075380:0026
#076320:000000130023000000000000
#0763b0:00000013
#077370:53
#0773b0:00230000
#0783b0:13
#078370:00230000
#078360:00000013
#079320:53
#079360:00230000
#0793b1:00130000
#079391:0023
#079360:0013
#079340:00000023
#079391:00000013
#080371:23
#0803b1:000000130023000000000000
#080321:00000013
#081361:53
#081321:00230000
