This file was generated by Ched 2.7.0.0.
#TITLE ""
#ARTIST ""
#DESIGNER ""
#DIFFICULTY 0
#PLAYLEVEL
#SONGID ""
#WAVE ""
#WAVEOFFSET 0
#JACKET ""
#REQUEST "ticks_per_beat 480"
#00002: 4
#BPM01: 220
#00008: 01
#TIL00: ""
#VOLUME: ""
#HISPEED 00
#MEASUREHS 00
#00015:00000013
#00018:00130000
#00012:23
#0001b:23
#00115:00130000
#00118:00000013
#00212:13
#0021b:13
#00218:00000013
#00215:00130000
#01518:00000013
#01515:0013
#01718:130000000000000000000013
#01715:00130000
#03218:13
#03215:00130000
#0321b:0013
#03212:00000013
#05116:00140000
#05112:0024
#0511a:24
#04412:00130000
#04418:000000130000000000000013
#04415:2313
#0441b:23
#0441f:21
#05818:000000000000130000000013
#05815:000013
#05812:230000230000000000000013
#0581b:23230000
#05615:13
#05612:0013
#05618:00000013
#0561b:00230000
#05918:00000013
#05915:00230000
#0591b:00230000
#00518:00000013
#00515:0013
#0091b:00000013
#00912:0013
#01018:000013000000000000130000
#01015:000000130000000013000000
#0101b:0013
#01012:23
#01118:000014000000000000140000
#01114:000000140000000014000000
#0111a:0014
#01112:24
#0141b:0013
#01415:00130000
#01418:23
#01410:41
#02318:00000013
#02315:0013
#02218:130013
#02215:00130000
#02412:00130000
#0241b:13
#02418:000000000000000000130000000000000000000000001300
#02415:000013
#02410:41
#02515:000000000000000000130000000000000000000000001300
#0251b:00130000
#02512:13
#02518:000013
#02618:001300000000
#02812:13
#02815:00130000
#02818:0013
#0281b:00000013
#0281f:11
#0331b:13
#03318:00130000
#03315:0013
#03312:00000013
#03512:13
#0351b:13
#04315:0013
#04318:00000013
#04515:00000013
#04815:00130013
#04818:0013
#0481b:23
#04812:23
#04912:13
#04918:00130013
#04915:0013
#0491b:13
#0521b:00130000
#05215:00130000
#05212:230000000000000000000013
#05218:2313
#05318:00000013
#0601b:230000130000000000000013
#06012:23130000
#06015:000000000000130000000013
#06018:000013
#04115:0013
#04118:00260013
#04112:26
#06212:00131300
#06218:0013
#0621b:23000013
#06215:23
#06210:41
#06615:000000000000130000000013
#06618:000013
#0661b:230000130000000000000013
#06612:23130000
#06718:001300000000000000130000
#06712:001300000000000000000000
#06715:00230000
#0671b:00230000
#06918:00230013
#06915:001300000000130000000000
#0691b:001300000000130000000000
#06912:00230013
#07514:00140000
#07518:00140000
#07512:24000024
#0751a:24000024
#07615:000000000013000000000000
#0761b:00000013
#0761a:24
#07612:24
#07812:13000013
#0781b:13
#07818:000000000013000000000000
#07718:13000013
#07715:0013
#08215:000013000000000000130000
#08218:000000130000000013000000
#0821b:2313
#08212:2313
#08314:000014000000000000140000
#08318:000000140000000014000000
#0831a:2414
#08312:2414
#00718:0013
#00715:00000013
#01618:000000000013000000000000
#01615:000000000000000000000013
#01612:23
#0161b:23
#0301b:13
#03018:00130000
#03015:0013
#03012:00000013
#03115:000000000000000000000013
#03415:0013
#03418:13
#0461b:00130000
#04615:000000130000000000000013
#04618:1313
#04612:13
#04610:41
#04718:0013
#04715:00000013
#05412:00130000
#05418:00130000
#0541b:230000000000000000000013
#05415:2313
#05512:0013
#05518:00000013
#0681b:23130000
#06812:230000130000000000000013
#06818:000000000000000000000013
#07015:0013
#07018:00240013
#07014:24
#07218:0013
#07215:00000013
#07214:00240000
#07210:41
#0711a:00000014
#07112:00140000
#07114:24
#07118:0024
#0731a:00140000
#07312:00000014
#07318:24
#07314:0024
#07418:00240014
#07414:0014
#07915:13000013
#07918:0013
#0801b:13
#08012:13
#08015:000000000013000000000000
#08018:00000013
#0811b:13000013
#08112:0013
#01812:0019000000000000
#01815:2300000000190000
#01818:0023
#01912:0019000000000000
#01915:2300000000190000
#01918:0023
#05715:13000013
#05718:000013
#0631b:00131300
#06315:0013
#06312:23000013
#06318:23
#06115:0013
#06118:00230013
#0611b:0013
#06112:00230013
#02012:24
#02712:000000000024000000000000
#0271a:000024
#04014:24
#04018:00240025
#04013:0025
#08412:26
#08418:26
#01212:24
#04215:23
#0421b:23
#0651a:0024
#06512:24
#06516:00240000
#0031b:23
#00312:23
#0641b:23
#06415:23
#06412:0023
#06418:0023
#00410:41
#00352:0013
#0035b:0013
#05152:0014
#0515a:14
#0145b:0063
#01458:000000000000000000000013
#02258:000053
#0225b:000000000000000000000013
#02658:006300000000
#03555:0013
#03552:53
#03558:0013
#0355b:63
#04458:000000000000000000000053
#05858:000000000000000000000063
#05852:000000130000000000000063
#0585b:00130000
#06655:000000000000000000000053
#0665b:130000000000000000000053
#06652:13
#07552:54
#07554:00240000
#07558:00240000
#0755a:64
#0765a:14
#07652:14
#0765b:00000053
#07758:23
#01252:14
#01658:000000000063000000000000
#01755:00530000
#02752:000000000014000000000000
#0275a:000014
#03455:0063
#03458:53
#04355:13
#0435b:13
#0455b:00130000
#04655:000000000000000000000063
#04752:00130000
#05252:000000000000000000000053
#05355:00130000
#0545b:000000000000000000000063
#05558:00130000
#06055:000000000000000000000053
#0605b:000000000000000000000053
#0655a:0014
#06552:14
#06752:002300000000000000000000
#06758:002300000000000000000000
#06755:00130000
#0675b:00130000
#06858:000000000000000000000063
#06852:000000000000000000000063
#06955:002300000000000000000000
#0695b:002300000000000000000000
#06958:00130000
#06952:00130000
#07058:00140000
#07054:14
#07254:00140000
#07258:14
#0715a:00000024
#07154:64
#07152:00240000
#07158:0054
#0735a:00240000
#07358:54
#07352:00000024
#07354:0064
#07458:00140000
#07454:14
#07852:00000063
#07955:23
#08058:00000063
#0815b:23
#08458:16
#08452:16
#01852:0029000000000000
#01855:6300000000290000
#01858:0053
#01952:0029000000000000
#01955:6300000000290000
#01958:0053
#05755:63
#0645b:63
#06455:63
#06452:0053
#06458:0053
#05955:00130000
#0595b:00130000
#06158:00130000
#06152:00130000
#0033b0:1323
#003321:1323
#0043b1:13000033
#004381:000000000033000000000000
#005381:00230000
#006321:13000033
#006351:000000000033000000000000
#007351:00230000
#008381:13000033
#0083b1:000000000033000000000000
#0093b1:00230000
#0123b1:00130000
#012381:000023
#013351:13000023
#013321:000000000033000000000000
#0143b1:0013
#014381:000000000000000000000023
#016381:000000130033000000000000
#0163b1:000023
#017351:00130000
#017321:000000332300
#018351:13230000
#018321:0059000000000000
#018381:00001323
#018351:0000000000590000
#019351:13230000
#019321:0059000000000000
#019381:00001323
#019351:0000000000590000
#020381:00130000
#0203b1:000033
#021381:23
#021350:13000023
#021320:000000000033000000000000
#022380:000000133300
#0223b0:000000000000000000000023
#026380:133300000000
#0273b0:23
#029350:130023
#029320:000000000033000000000000
#031380:130023
#0313b0:000000000033000000000000
#034380:13
#0343b0:00230000
#034350:0013
#034320:00000023
#035320:13
#035350:0023
#0353b1:13
#035381:0023
#036321:130000000033330000000033
#036351:000033330000000033330000
#037321:330000000033330000000000
#037351:000033330000000033230000
#0383b1:130000000033330000000033
#038381:000033330000000033330000
#0393b1:330000000033330000000000
#039381:000033330000000033230000
#042351:1333
#042321:00330033
#043351:23
#0423b0:1333
#042380:00330033
#0433b0:23
#044380:000000000000000013000033
#0453b0:00230000
#046350:000000000000000013000033
#047320:00230000
#050350:13230000
#0503b1:13230000
#050381:00001323
#050320:00001323
#052320:000000000000000013000033
#053350:00230000
#0543b0:000000000000000013000033
#055380:00230000
#057350:13
#057320:0000002300000000
#058380:000000000000000000000013
#0593b0:00230000
#058321:000000000000000000000013
#059351:00230000
#060351:000000000000000000000013
#061321:00230000
#0603b0:000000000000000000000013
#061380:00230000
#0643b0:13
#064380:00230000
#064351:13
#064321:00230000
#064321:0013
#064351:00000023
#064380:0013
#0643b0:00000023
#066350:000000000000000000000013
#067320:005300000000000000000000
#067350:00230000
#0663b1:000000000000000000000013
#067381:005300000000000000000000
#0673b1:00230000
#0683b1:0013
#068381:000000000000000000330033
#0693b1:005300000000000000000000
#069381:00230000
#068350:0013
#068320:000000000000000000330033
#069350:005300000000000000000000
#069320:00230000
#071340:1424
#071320:00540000
#071381:0014
#0713a1:00000034
#072381:24
#073381:1424
#0733a1:00540000
#073340:0014
#073320:00000034
#074340:24
#075320:1424
#075340:00540000
#0753a1:1424
#075381:00540000
#0763b1:00000013
#077381:53
#0773b1:00230000
#078321:00000013
#079351:53
#079321:00230000
#080381:00000013
#0813b1:53
#081381:00230000
