This file was generated by Ched 2.7.0.0.
#TITLE ""
#ARTIST ""
#DESIGNER ""
#DIFFICULTY 0
#PLAYLEVEL
#SONGID ""
#WAVE ""
#WAVEOFFSET 0
#JACKET ""
#REQUEST "ticks_per_beat 480"
#00002: 4
#BPM01: 220
#00008: 01
#TIL00: ""
#VOLUME: ""
#HISPEED 00
#MEASUREHS 00
#00012:00140014
#0001a:2414
#0011a:00140000
#00116:0014
#00112:00000014
#00218:1414
#00214:00140014
#00314:00000014
#00418:1414
#00412:00140000
#00410:41
#00518:00000014
#00614:1414
#0061a:00140000
#00812:00140000
#00818:0014
#00918:00000014
#01012:14140000
#0101a:00001414
#01114:1414
#01118:00140014
#01214:14
#01414:1414
#0141a:00140014
#01410:41
#01514:14
#01518:0014
#01612:1414
#01618:00140000
#01718:1414
#01712:00140014
#02018:14
#02218:1414
#02212:00140014
#02318:14
#02314:0014
#0241a:1414
#02414:00140000
#02410:41
#02514:1414
#0251a:00140014
#02814:14140000
#02818:00001414
#0281f:11
#02912:1414
#0291a:00140014
#03014:14140000
#03018:00001414
#03112:1414
#0311a:00140014
#03212:14
#0321a:00000014
#03218:00140000
#03214:0014
#03312:14
#03318:00140000
#03314:0014
#0331a:00000014
#03412:0014
#03418:00000014
#03414:14
#0341a:00140000
#04018:1414
#04014:00140014
#0411a:1414
#04112:00140014
#04216:0014
#0421a:14
#04218:00340034
#04418:00140000
#04414:0014
#0441a:00000014
#04412:24
#0441f:21
#0451a:00000014
#04614:14
#0461a:00140000
#04612:0014
#04618:00000014
#04610:41
#04812:14
#04818:00140000
#04814:0014
#0481a:00000014
#04912:14
#04918:00140000
#04914:0014
#0491a:00000014
#05118:00160000
#05112:2626
#0561a:14
#05614:00140000
#05618:0014
#05612:00000014
#0571a:14
#05714:00140000
#05718:0014
#05712:00000014
#05812:00140000
#05818:0014
#05814:00000014
#0581a:24
#05214:00140000
#05218:0014
#05212:00000014
#0521a:24
#05312:00000014
#05418:14
#05412:00140000
#0541a:0014
#05414:00000014
#05912:00000014
#06018:14
#06014:00140000
#0601a:0014
#06012:00000014
#06512:00160000
#06518:2626
#06314:00000014
#0631a:0014
#06312:00140000
#06318:14
#06218:14
#06212:00140000
#0621a:0014
#06214:00000014
#06210:41
#0661a:00140000
#06614:0014
#06618:00000014
#06612:24
#0671a:00000014
#06814:14
#06818:00140000
#06812:0014
#0681a:00000014
#0701a:00140000
#07016:0014
#07012:00000014
#07014:24
#07212:00140000
#07216:0014
#0721a:00000014
#07218:24
#07210:41
#07114:00000014
#0741a:00140000
#07416:0014
#07412:00000014
#07414:24
#07318:00000014
#07514:00000014
#07612:00140000
#0761a:0014
#07618:24
#07718:00000014
#07814:14
#0781a:00140000
#07812:0014
#08118:00000014
#08212:14140000
#0821a:00001414
#08314:14
#08318:00140016
#08312:0016
#08012:00140000
#0801a:0014
#08412:26
#00358:0014
#03552:0014
#0435a:14
#0425a:64
#04256:0024
#04452:14
#0585a:14
#0525a:14
#06652:14
#08452:16
#003380:1424
#004320:00000014
#005320:00342400
#0063a0:00000014
#0073a0:00343400
#008380:24
#008320:00000014
#009320:00342400
#012380:00140000
#0133a0:34
#013380:00000024
#018380:14
#0183a0:0024
#019340:14
#019320:0024
#020340:00140000
#021320:34
#021340:00000024
#026340:14
#026320:0024
#027380:14
#0273a0:0024
#035320:1424
#036390:1535
#036380:00350035
#037390:3535
#037380:00350025
#038320:1535
#038330:00350035
#039320:3535
#039330:00350025
#0423a0:14
#042380:00340034
#042360:0034
#0433a0:24
#045320:14240000
#047340:14240000
#047380:00001424
#050320:14240000
#0503a0:00001424
#0533a0:14240000
#055380:14240000
#055340:00001424
#0593a0:14
#059380:00240000
#061380:14
#0613a0:00240000
#061340:0014
#061320:00000024
#0643a0:14
#064380:00240000
#064320:0014
#064340:00000024
#067320:14
#067340:00240000
#069340:14
#069320:00240000
#069380:0014
#0693a0:00000024
#0713a0:14
#071380:0024
#073320:14
#073340:0024
#0753a0:14
#075380:0024
#076340:00000014
#077320:00342400
#078380:00000014
#0793a0:00343400
#080380:24
#080340:00000014
#081320:00342400
