This file was generated by Ched 2.7.0.0.
#TITLE ""
#ARTIST ""
#DESIGNER ""
#DIFFICULTY 0
#PLAYLEVEL
#SONGID ""
#WAVE ""
#WAVEOFFSET 0
#JACKET ""
#REQUEST "ticks_per_beat 480"
#00002: 4
#BPM01: 196
#00008: 01
#TIL00: ""
#VOLUME: ""
#HISPEED 00
#MEASUREHS 00
#0101a:14
#0121a:14
#01114:14
#01314:14
#01418:14
#01512:14
#01618:14
#01712:14
#0181a:14
#01810:41
#0191a:14
#02014:14
#02114:14
#02218:14
#02318:14
#02412:14
#02512:14
#0261a:14
#02714:14
#02818:14
#02912:14
#0421a:14
#0431a:14
#04412:14
#04512:14
#04618:14
#04714:14
#0481a:14
#04912:14
#05018:14
#05114:14
#05312:16
#05318:0016
#05412:16
#05418:0016
#05512:16
#05518:0016
#05718:16
#05712:0016
#05818:16
#05812:0016
#05918:16
#05912:0016
#06312:16
#06318:0016
#06310:41
#06518:16
#06512:0016
#06912:14
#07018:14
#07114:14
#0721a:14
#0731a:14
#07412:14
#07512:14
#07618:14
#07610:41
#07718:14
#07814:14
#07914:14
#0801a:14
#08014:0014
#0801f:11
#0811a:14
#08212:14
#08218:0014
#08312:14
#0841a:14
#08414:0014
#0851a:14
#09312:0016
#09318:16
#09310:41
#09512:16
#09518:0016
#09612:16
#09618:0016
#09712:1616
#09212:2616
#0921f:21
#10018:16
#10012:0016
#10118:16
#10112:0016
#10412:16
#10418:0016
#10512:16
#10518:0016
#05218:26
#05210:41
#03618:34
#03519:34
#04014:34
#03913:34
#03410:41
#0013a0:14
#0023a0:24
#003340:14
#004340:24
#005380:14
#006380:24
#007320:14
#008320:34
#009320:0026
#0303a0:14
#0313a0:24
#032320:1434
#033320:24
#0343a0:14
#035390:34
#036380:34
#037380:24
#038320:14
#039330:34
#040340:34
#041340:24
#052380:1626
#056320:1626
#060380:1626
#061320:1626
#062380:1626
#064320:1626
#066380:16000036
#068380:26
#086320:14
#087340:0000000000000034
#089340:24
#090390:14
#091380:0026
#094380:1626
#098380:1626
#099320:1626
#102380:1636
#103380:3626
#106340:1424
#107380:1424
#108320:14003434
#109320:0024
#110380:14
#111380:24
#112340:14000000000000000000000000340000
#114340:00000034000000000000000000000000
#116320:0024
