This file was generated by Ched 2.7.0.0.
#TITLE ""
#ARTIST ""
#DESIGNER ""
#DIFFICULTY 0
#PLAYLEVEL
#SONGID ""
#WAVE ""
#WAVEOFFSET 0
#JACKET ""
#REQUEST "ticks_per_beat 480"
#00002: 4
#BPM01: 196
#00008: 01
#TIL00: ""
#VOLUME: ""
#HISPEED 00
#MEASUREHS 00
#0101b:00130000
#01016:0000001300000000
#01019:2513
#01014:0000000000130000
#01017:00000013
#01012:2500000000000013
#01416:0013000000000013
#01412:0000001313000000
#01417:0013
#0141b:1313000000001313
#01512:0013130000000013
#01517:00130000
#0151b:0000000013130000
#01516:0000000000130000
#01718:0000000000130000
#01712:0000130000000013
#0171b:0013
#01715:00000013
#01716:0024140000000000
#01818:13
#01815:0013000000000000
#0181b:00130000
#01816:0000000000000013
#01810:41
#01918:0000001300130000
#01915:0013
#0191b:00000013
#01916:0000000000000013
#02215:0013000000000000
#0221b:0000130000130013
#02216:00000013
#02218:13
#02212:0000001300000000
#02318:0000000000000013
#02315:00000013
#02416:0000001300000000
#02412:0000000000000013
#0241b:13
#02417:00000013
#02715:0013000000001300
#02718:0000000000130013
#0271b:0000001300000000
#02712:0013
#02818:0000130000000013
#02815:0013000000001300
#0281b:1300001300130000
#02812:13
#03018:0012000000001200
#03016:0000120000120000
#0301a:1200000000000024
#03012:0000002400000000
#03118:0012001200000000
#03116:00120000
#03112:0000002400000000
#0411a:0000001400000000
#04112:00000014
#04116:0000140000000014
#04114:0014
#04118:0000000000140000
#0411c:12
#0421a:1414
#04218:00000013
#04212:2400000014000013
#04216:00140000
#04315:1300000000000013
#04318:0013000000001300
#04312:0014
#0441b:1300000000000013
#04418:00130013
#04415:0000001300000013
#04412:1300000000330000
#0441a:0014
#04512:0013130014001300
#0451a:0014
#04516:00000014
#04517:0033000000000000
#04617:0013
#0461b:00000013
#04612:0013
#04616:24000013
#0461a:24
#04716:00130013
#0471b:00130013
#04717:13
#04712:0013
#04818:0000001300001300
#0481b:0000000000130000
#04815:00131300
#04812:00000013
#04817:13
#04814:0000000000000033
#04819:0033000000000000
#05116:0000001400000000
#0511a:0014
#05112:00141400
#05118:00000013
#05115:0000000000130013
#00116:0012
#00118:1200000000000012
#0091b:0000130023230000
#00912:0000000000230000
#01116:0013000000000000
#0111b:00130000
#01115:00001313
#01118:0000000000130013
#01212:13000023
#0121b:13000023
#01215:00130000
#01218:00130000
#02017:0013000000000013
#02015:0000001300130000
#02018:0013
#02012:00000013
#06116:0013130000000000
#06118:0000000000000013
#06112:0013
#06117:0013
#0611b:00130000
#06017:0000000000001313
#06012:1300000000130013
#0601b:2313
#05917:0013000000000000
#05912:0013000013000000
#0591b:0000001300000000
#05915:00000013
#05918:0000000000130013
#0581b:0000001300000013
#05816:0000130000000013
#05812:0000000000130000
#05817:00000013
#05212:2600000013000013
#05217:0000000000001313
#0521b:13
#05210:41
#0531b:0013000000000000
#05318:0000000000120012
#05316:00130000
#05312:0000000000220000
#05712:00130000
#0571b:0013001300000000
#05717:0000000000001313
#05716:0013000000000000
#06516:00130000
#0651b:0000130000000013
#06517:0013
#06512:0000000000130000
#06718:00130013
#06715:0000001300000013
#06712:0013
#0671b:0000000000130000
#07615:00130013
#07612:0013
#0761b:13000013
#07618:0000001300000000
#07610:41
#11012:12
#11018:00120000
#11014:0000001200000000
#1101a:0000000000120000
#11216:1200000000120000
#11212:00120000
#1121c:00000012
#07715:00130013
#07718:0013001300000000
#07712:1313
#07719:0000000000330033
#07815:00130013
#07812:1313
#07818:0000001300000023
#0781b:1300000000130000
#08912:0000130000000013
#08915:0000001300130000
#08918:0013
#0891b:00130013
#1031b:0000000000000013
#10317:1323
#10316:0000230000000013
#10312:0000000000230000
#10412:0000001300000013
#10417:0000000000000013
#1041b:0000001300000000
#10616:0000000013000013
#10612:2600001300001300
#1061b:1300000013000013
#11116:0012
#11112:00000012
#0261b:2300000013000013
#02612:2300000013000013
#02615:0000002300000000
#02618:0000002300000000
#0041a:0012
#00418:00000012
#00216:0012000000001200
#00218:0000120000000012
#00214:12
#00516:12
#00512:0000001200000000
#0051c:12
#00518:00001212
#00514:0032
#00614:00120012
#00616:12
#00612:0012
#0061a:32320012
#0061c:0012000000000000
#01616:2414002414002414
#0161b:0013000000000013
#01612:0013
#03212:2414000000000000
#0321a:0000000000140000
#03216:2424
#03213:0000000000000034
#03312:0014000012000000
#03318:00000012
#03316:24
#00716:12
#0071c:12000012
#00712:0000001200000000
#0071a:00320000
#00714:0000000000320000
#00316:1200000000001212
#00318:0000121200000000
#0031c:0000000000000012
#05512:0000001300000013
#0551b:00130013
#05515:0000000000130000
#05518:0013
#0631b:1300001300000013
#06312:00130013
#06318:0000000000130000
#06315:0013
#06310:41
#05612:13000013
#05617:13
#05616:0000000000000013
#0561b:0000000000000013
#02116:0013000000130000
#0211b:0000130000130000
#02112:0000001300000000
#0291b:13000013
#02917:00130000
#02912:13131300
#02916:00000013
#02919:0033003300000000
#02914:0000000000330033
#0341c:0012
#03414:00120012
#03416:0012
#03412:12
#03410:41
#0351c:0012
#03518:12
#03514:00120012
#03512:12
#03516:0012
#03716:12
#03712:0012
#0371c:12
#0371a:00120012
#03718:0012
#03612:00001212
#0361c:12
#0361a:00120012
#03618:0012
#03614:0000000000000012
#03816:12
#03814:00120012
#03812:0012
#0381c:0012
#03918:12
#0391a:00120012
#0391c:0012
#03912:0012
#04016:12
#04014:00120012
#04012:0012
#04018:0012
#05016:0000140000140000
#0501a:1400002400001400
#05012:2400001400002400
#04918:0000130013131313
#0491b:13
#04915:00000000000013000013001300130000
#04916:13
#04914:0033000000000000
#0621b:0000131300000000
#06218:1300000000131300
#06417:00130000
#0641b:2313
#06416:2323
#0661b:13
#06616:23000013
#06812:13000013
#06818:13
#06816:0000130000000013
#0681b:0000001300000013
#06814:0013
#06819:0000000000130000
#0701b:00130000
#07012:0000130000000013
#07018:0000001300130023
#07015:00001313
#07017:13
#0711b:0013000000000000
#07112:0000001300000000
#07115:0023000000000000
#07118:0000002300000000
#0731a:00000013
#07319:0013
#07318:00130000
#07215:00000013
#07214:0013
#07213:00130000
#07212:13
#0751a:00000013
#07519:0013
#07518:00130000
#07413:00000013
#07414:0013
#07415:00130000
#07918:00000013000000000000000000000000
#07915:0013130000000000
#07912:0000001400240000
#0791a:0000002400140000
#0851b:00000013
#08517:00130000
#08519:1313
#08516:0000000000000023
#08512:0000002300000000
#0841b:00130013
#08417:0013
#08416:0000130000000023
#08412:2313
#09013:00000000000000000000000000000000000000000000000000000000001a0000
#06916:0013
#06917:0013000000000000
#06919:00000013
#06912:0013000000000000
#08612:00000013
#0861b:0023230000000023
#08618:0000000023230000
#09116:0014000000000000
#09112:002c
#05419:13130000
#0541a:0000001400140000
#05413:23
#05414:0000002400000000
#09917:0013230000000000
#09915:0000000000000013
#09912:00130000
#09918:00000013
#09816:0000000000001313
#0981b:2300000000130023
#09812:2313
#09814:00130000
#09716:0013000000000000
#0971b:0013000013001300
#09718:0000001300000013
#09715:0000000000130000
#09712:00001313
#09612:0000001300000013
#09617:0000130000000013
#0961b:0000000000130000
#09616:00000013
#0951b:0000130000000013
#09512:0023001300000000
#09516:0000000000001313
#09517:0023000000000000
#0931b:0000001300000013
#09318:0000000000130000
#09312:00130023
#09315:0023
#09310:41
#0941b:13000013
#09412:0000000000000023
#09417:0000000000000023
#09416:23
#09414:00330000
#09419:00330000
#10012:0000132300000000
#10015:2300000000132300
#10216:00130000
#10212:2313
#1021b:23000013
#10217:0023
#10512:1316
#10517:13
#10518:0000001600260000
#10716:0000000000000013
#10712:0013
#1071b:0013000000000000
#10715:00130000
#10718:0000001300000000
#1081b:1313
#10818:0000001300001300
#10812:0013
#10815:0000000000130000
#10915:00130000
#10918:0000001300140015
#10914:0014
#10913:00000015
#11318:0000000000000000000032000000001200000032000000000000000032000000
#10115:0000001300000013
#10112:23001313
#10118:0000130000130000
#1011b:00001313
#10117:23
#09212:0000002400142300
#09214:23130000
#09217:00000023
#0921a:23
#09218:0000002400000000
#0921f:21
#0801f:11
#0801a:2424
#08017:00240024
#0871b:2300000000230000
#08718:0000232300000023
#08715:0000000000000023
#08812:0023230000000026
#08815:0000000023230000
#08115:00240024
#08112:0024
#08217:00240024
#0821a:0024
#08315:00240024
#08312:0024
#01315:000000000033000000000000
#01316:003300
#01318:000033
#01319:000000000000003300000000
#0131a:003300000000
#0131b:003300000000000000000000
#01313:000000000000000000003333
#00156:0062
#00158:52
#01052:1500000000000013
#01059:15
#0115b:00130000
#0125b:63000013
#01252:53000013
#01258:00230000
#01255:00230000
#01856:0000000000000053
#03252:14
#0325a:0014
#04252:14
#0425a:0014
#07858:0000000000000013
#0785b:53
#08858:0000000000000016
#08852:0000000000000016
#02652:0023
#0265b:0000000023000053
#02658:0000005300000000
#02655:0000006300000000
#00556:62
#00552:0000002200000000
#00558:00000052
#00356:6200000000000062
#00358:0000005200000000
#0035c:0000000000000052
#05252:1600000000000053
#0525b:63
#05652:53
#05657:53
#0645b:5353
#06457:00230013
#06456:0053
#06452:00000013
#09152:001c
#09156:0024000000000000
#10357:23
#10356:00530000
#10352:0000000000130000
#0075c:62000062
#00752:0000005200000000
#01956:0000000000000053
#02057:0000000000000063
#02452:0000000000000053
#0245b:53
#02456:0000005300000000
#02457:00000053
#0225b:0000000000000053
#02252:0000005300000000
#02256:00000053
#02156:0000000000630000
#02152:0000006300000000
#02758:0013000000000000
#02755:0013000000000000
#0295b:63
#02957:00230000
#02952:0053
#02956:00000023
#0315c:0000000000120000
#03158:0000005200000000
#03454:00520052
#03456:0022
#03452:22
#0345c:12
#03554:00520052
#03552:22
#03556:0022
#0365c:22
#0365a:00620062
#03658:0022
#0375c:22
#0375a:00620062
#03758:0022
#03856:22
#03854:00620062
#03852:0022
#03958:22
#0395a:00520052
#0395c:0022
#04056:22
#04054:00620062
#04052:0022
#0445a:0014
#0445b:0000000000000053
#04455:0000005300000000
#0465a:14
#04657:0013
#04656:14000053
#04652:0023
#04552:0014
#0455a:0054
#04556:00000054
#04352:0014
#05052:14000014
#0505a:0000001400005400
#0065c:0022000000000000
#03352:1452
#03358:00000052
#05757:0000000000000053
#0585b:0000005300000013
#0635b:13
#06356:13
#06556:00530000
#06552:0000000000530000
#06656:00000053
#06852:13
#0685b:0000000000000063
#06856:0000000000000063
#07952:0000000000140000
#0795a:0000001400000000
#08456:0000530000000053
#08452:5353
#09053:00000000000000000000000000000000000000000000000000000000005a0000
#00258:00520000
#04852:00000053
#04857:23
#04956:23
#05952:0013000000000000
#06956:0053
#06957:0053000000000000
#06952:0053000000000000
#07052:1300000000000013
#08652:00000023
#06052:53
#0605b:13
#06057:0000000000000023
#06152:0023
#06156:00530000
#06157:0023
#0615b:00530000
#09652:0000006300000013
#0975b:0013000000000000
#0945b:63
#09456:63
#09556:0000000000000063
#10256:00230000
#10252:6363
#10257:0053
#1025b:00000053
#09952:00630000
#09957:00630000
#1065b:5313
#10652:36
#10552:53
#10557:53
#10558:0000000000460000
#1125c:00000062
#11358:0000000000000000000000000000002200000000000000000000000000000000
#05552:13
#05557:13
#04757:2313
#0475b:00530000
#04756:00000053
#04752:0023
#0715b:0013000000000000
#07152:0000001300000000
#09852:13
#0985b:63
#09856:0000000000000023
#10858:00000053
#1085b:0013
#0765b:13000013
#07658:0000001300000000
#10752:0013
#08556:0000000000000053
#08552:0000005300000000
#10152:13
#10157:13
#05356:00130000
#0935b:13
#09356:13
#001380:12
#0013c0:0022
#001361:0012
#001321:0000000000000022
#002381:00120000
#0023c1:00000022
#003361:12
#003321:00220000
#003381:0000001200000000
#0033c1:0000000000003232
#004381:00220000
#003360:0000000000000012
#004320:00220000
#005360:12000022
#005320:0000003200000000
#005340:0032
#005381:00000012
#0063a1:32320000
#0063c1:0052000000000000
#006381:0022
#0073c1:12
#0073a1:00320000
#007381:0000002200000000
#007320:0000001200000000
#007340:0000000000320000
#007360:00000022
#0073c1:00000012
#008381:00220000
#008321:00000012
#009351:0026
#012321:1323
#012351:00530000
#0123b0:1323
#012380:00530000
#0133b0:133300000000000000000000
#0133a0:003300000000
#013390:00230000
#013361:000000133300000000000000
#013351:000000000033000000000000
#013341:0023
#013390:000000000000133300000000
#013380:000033
#013370:00000023
#013341:00000013
#013331:000000000000000000003333
#014321:23
#018361:0000001300000000
#018321:0000000000230000
#018370:0000000000130000
#0183b0:0000000000000023
#018361:0000000000000013
#019321:00230000
#019361:0000000000000013
#020321:0023000000000000
#020371:0000000000000013
#0213b1:0023000000000000
#021321:0000001300000000
#021361:0000000000330000
#022321:23
#022321:0000001300000000
#022361:0000000000230000
#022361:00000013
#023321:0023
#0223b0:0000000000000013
#023370:0023
#024320:13230000
#0243b1:13
#024371:00230000
#0243b1:0000001300230000
#024360:0000001300000000
#024320:0000000000230000
#024370:00000013
#0253b0:0023
#024321:0000000000000013
#025361:0023
#026321:13230000
#026351:0033000000000000
#0263b0:13230000
#026380:0033000000000000
#026380:0000001300230000
#0263b0:0053
#026351:0000001300230000
#026321:0053
#0263b1:0000000000000013
#027381:3323000000000000
#028321:0000001300000000
#028341:0033
#028361:0000000000230000
#0293b1:1323
#029391:0033003300000000
#029371:00330000
#029320:0013
#029340:0000000000330033
#029360:00000033
#030320:23
#031380:0000001200000000
#0313c0:0000000000220000
#032360:14
#0323a0:0024
#032361:0014
#032331:0000000000000034
#033321:24
#033360:14
#0333a0:0024
#033321:0012
#033361:00000022
#033380:00000012
#0343c0:22
#034321:12
#034341:00520052
#034361:0052
#035321:52
#035341:00520052
#035361:0052
#036321:22
#0363c0:12
#0363a0:00520052
#036380:0052
#0373c0:52
#0373a0:00520052
#037380:0052
#0383c0:22
#038361:12
#038341:00520052
#038321:0052
#039361:22
#039380:12
#0393a0:00520052
#0393c0:0052
#040380:22
#040361:12
#040341:00520052
#040321:0052
#041361:22
#0433b1:00132300
#044351:0000001300000000
#044321:0000000000332300
#0443b1:0000000000000013
#045371:0033230000000000
#0453a1:0014
#045361:00000034
#0463a1:24
#046321:0013
#046361:00000033
#047321:23
#047370:1323
#0473b0:00330000
#047321:0013
#047361:00000033
#048321:23
#048370:13
#048390:0033000000000000
#0483b0:00230000
#048320:00000013
#048340:0000000000000033
#049360:33
#049340:0033000000000000
#049320:00230000
#0503a0:00000014
#051360:00240000
#0523b0:13
#052370:0023
#052320:0000000000000013
#053360:0023000000000000
#053320:0000000000120022
#054330:13230000
#054340:0000001400240000
#054360:00000013
#054320:0000000000000053
#055320:23
#0543b1:00000013
#054371:0000000000000053
#055371:23
#056321:13
#056361:0023
#056370:13
#0563b0:0023
#057360:0013
#057320:00000023
#057370:0000000000000013
#0583b0:00230000
#0583b0:0000001300000000
#058370:0000000000230000
#060320:13
#060360:0023
#060370:0000000000000013
#0613b0:0033330000002300
#061370:0053
#061361:00130023
#061321:0053
#062321:1300000000333300
#062361:0000333300000000
#063361:23
#0643b1:1333
#064371:0000530000532300
#064360:0013
#064320:0000000000532300
#065360:00130000
#065320:0023
#065320:0000000000130000
#065360:0000000000000023
#066360:1333333333003300
#067320:0023000000000000
#0663b1:0000000000000000000000000000000000000000000000001353535353535353
#0663a1:00000000000000000000000000000000000000000000000000000000000000000000000000000000000000000000000000530053005300530053005300530053
#0673b1:5353535323000000000000000000000000000000000000000000000000000000
#0673a1:00530053005300530000000000000000000000000000000000000000000000000000000000000000000000000000000000000000000000000000000000000000
#068361:0000000000000013
#069321:0033000000000000
#069361:0033
#070321:23
#0683b0:0000000000000013
#069370:0033000000000000
#0693b0:0023
#0723b1:13333333
#0723a1:0033003300330033
#0733b1:23
#073320:13333333
#073330:0033003300330033
#074320:23
#0743b1:13333333
#0743a1:0033003300330033
#0753b1:23
#075320:13333333
#075330:0033003300330033
#076320:23
#0773b0:0013
#077390:0000000000330033
#077380:00000033
#0783b0:33
#078380:00230000
#080320:14343434
#080330:0034003400340034
#081320:24
#0813a1:14343434
#081391:0034003400340034
#0823a1:24
#082320:14343434
#082330:0034003400340034
#083320:24
#0833a1:14343434
#083391:0034003400340034
#0843a1:24
#084320:1353
#084360:00530023
#084360:0000000000000013
#085320:00230000
#085320:0000001300000000
#085360:00000023
#085360:0000000000000013
#086320:00000053
#087350:0000000000230000
#087380:0000000000000013
#088380:0000000000000026
#090360:14
#090330:00000000000000000000000000000000000000000000000000000000005a0000
#091360:0054000000000000
#091320:002c
#0923a0:13230000
#092380:0000001400240000
#092370:00000013
#0923b0:0000000000000053
#0933b0:23
#092321:00000013
#092361:0000000000000053
#093361:23
#0943b1:13
#094391:00330000
#094371:0023
#094360:13
#094340:00330000
#094320:0023
#095370:0013
#0953b0:00000023
#095360:0000000000000013
#096320:00230000
#096320:0000001300000000
#096360:0000000000230000
#0983b0:13
#098370:0023
#098360:0000000000000013
#099320:0033330000000000
#099360:0023
#099371:00130000
#0993b1:0023
#1003b1:1300000000333300
#100371:0000333300000000
#101371:23
#102321:1333
#102361:00530023
#102370:0013
#1023b0:00000033
#103370:53
#1033b0:00230000
#103361:00130000
#103321:0023
#1043b1:13230000
#104360:13
#104320:00230000
#104320:00001323
#1043b1:0013
#104371:00000023
#105371:13
#1053b1:00230000
#105320:13
#105360:00230000
#1063b0:13
#106370:0000002300000000
#107370:0000000000130000
#1073b0:0000000000000023
#108360:0013000000000000
#108320:0000002300000000
#108380:00000013
#1093b0:00230000
#110360:00000012
#111360:0022000000000000
#111381:0012000022000000
#1123c1:12
#112381:00220000
#112381:0000001200000000
#1123c1:0000000000220000
#1123c1:00000012
#113381:0000000000000000000032000000005200000032000000000000000032000000
#1143c1:00000032000000000000000000000000
#116381:0022
