This file was generated by Ched 2.7.0.0.
#TITLE ""
#ARTIST ""
#DESIGNER ""
#DIFFICULTY 0
#PLAYLEVEL
#SONGID ""
#WAVE ""
#WAVEOFFSET 0
#JACKET ""
#REQUEST "ticks_per_beat 480"
#00002: 4
#BPM01: 196.0
#00008: 01
#TIL00: ""
#VOLUME: ""
#HISPEED 00
#MEASUREHS 00
#0801f:11
#08012:13
#08015:00130013
#08018:0000000000000013
#0801b:0000000000130000
#07112:0000001400000000
#0711a:0014000000000000
#07012:0000000000000014
#07018:00001313
#07015:0000001300130000
#0701b:00130000
#0411b:0013
#04118:13
#0401b:0013
#04018:13
#03912:0013
#03915:13
#03812:0013
#03815:13
#0371b:13
#0371a:0033
#03618:13
#0361a:0033
#03512:13
#03513:0033
#03415:13
#03413:0033
#03410:41
#08814:0000001400000000
#08818:0000001400000000
#02215:0000001300000000
#02218:00000013
#0221b:00130000
#02212:0013000000000013
#0211b:0000000000130000
#02118:0000001300000000
#06216:13000013
#0621b:0000000000130000
#06217:0000001300000000
#06212:00130000
#0611b:0000000000000013
#06112:00003313330000000000000000000000
#08616:00000014
#08418:0000130000000023
#08415:00000013
#0841b:23
#0821b:1300000000000013
#08218:0000001300000000
#08212:00000013
#08112:0013000000130000
#08115:0000000000000013
#08118:00000013
#0831b:00000013
#08312:0000000000000013
#08318:0013
#08315:1300000000130000
#0761a:0000000000140000
#07614:14000014
#07618:0000001400000000
#07612:00140000
#07610:41
#07412:1300000000000013
#07415:0000001300000000
#0741b:00000013
#07414:0033000000000000
#0731b:0013000000130000
#07318:0000000000000013
#07315:00000013
#0721b:13
#07218:0000001300000000
#07215:0000000000000013
#0721a:0000000000330000
#07512:00000013
#0751b:0000000000000013
#07515:0013
#07518:1300000000130000
#1131b:0000000000000000000000000000001200000000000000000000000032000000
#1131c:0000000000000000000032000000000000000032000000000000000000000000
#11218:00000012
#11014:12000012
#1101a:0000000000120000
#11016:0000001200000000
#11018:00120000
#10918:0000001400140014
#10914:00141414
#1081b:0013000000001300
#10815:0000001300000000
#10812:1300000000130000
#10818:0013
#10718:0000130000000013
#10715:0000000000130000
#10518:0013
#10512:0000001300260000
#10212:00130013
#10215:2313
#10316:13
#1031b:0000000000000013
#10312:0000000000230000
#10318:0023
#10115:23130013
#10118:0000001300000013
#10112:0013
#1011b:2300000000130000
#09915:00000013
#0991b:00003313330000000000000000000000
#09918:0000000000000013
#10016:00130000
#10017:0000000000130000
#10012:24000024
#1001a:0000002400000000
#0971b:0013000013000000
#09715:0000000000130000
#09712:0013001300000013
#09718:00000013
#09615:00000013
#09618:0000001300000013
#09418:00000013
#09415:23
#09412:0000000000000023
#09413:00330000
#09515:0000001300000013
#09518:00130000
#09512:0023000000000000
#09315:00132300
#09318:0000001300130000
#0931b:2300000000000013
#09312:23000023
#09310:41
#09815:00001313
#09818:2300000000130023
#0771b:0013000013000000
#07718:00130013
#07715:0000001300000000
#07719:0000000000330033
#07812:00130000
#07815:0000003313330000
#0781a:0000000000000024
#06816:0014
#06815:0000000000000013
#0681a:00000014
#06812:00140000
#06818:13
#06418:2313
#0641b:00130000
#06318:13130013
#06315:0000001300000013
#0631b:0013
#06312:1300000000130000
#06310:41
#06512:00130000
#06518:0000000000000013
#06515:0033
#06015:1300000000130013
#06018:00001313
#05912:0013000013000000
#05918:0000000000130000
#0591b:0013001300000013
#05915:00000013
#05315:00130000
#0531b:0013000000000000
#05318:0000000000240000
#05512:1300000000000013
#0551b:13000013
#05518:00131300
#05515:0000001300130000
#05415:00000013
#05418:0000002600000000
#05413:25
#05218:0000000000000013
#05217:00140000
#05212:00000013
#0521a:24
#05210:41
#0491a:0000000000000014
#04916:0013000000000000
#04818:1313
#04812:00000013
#0481b:0000000000130000
#04815:0000001300000000
#04715:00130000
#04712:1313
#04615:00000013
#04612:2313
#04617:23
#04415:1300000000130013
#0441b:00000013
#04412:0000001300000000
#04418:00130000
#01915:00000013
#01912:0013
#01918:0000000000130013
#0191b:0000001300000000
#01418:1300001300000000
#01415:00000013
#01412:0013000013000000
#0141b:0000000000000013
#01014:00000013
#01019:0000001300000000
#0101b:0000000000000013
#0101a:0000000000130000
#01013:0013
#01012:00130000
#01018:26
#00713:12000012
#00716:0000001200000000
#00715:0000320000320000
#0061b:00120000
#00618:12000012
#04519:00000013
#04516:0013
#0451b:0013
#04514:00000013
#04512:0033000000000000
#04318:13
#0431b:0000330000000013
#04315:00000013
#0431a:0033000000000000
#04212:0000000000000013
#04215:0013
#04218:23000013
#0321a:0014000000000014
#03212:0000000000140000
#03218:0024
#03214:24
#03015:0013000000001300
#03018:1300130000130000
#03012:0000002300000000
#0301b:0000000000000023
#03115:0013000000000000
#03118:00130000
#0311b:0000000000130000
#03112:0000002300000000
#02915:00130000
#02912:1313
#02718:0013000000000000
#02712:0013000000000000
#0271b:0000000000000013
#02715:00000013
#0261b:2300000000000013
#02615:0000000013000013
#02612:0000002300000000
#02015:0000000000130013
#02018:00000013
#0201b:0013
#02012:0000001300000000
#01818:0013000000130000
#0181b:0000001300000000
#01815:0000130000000013
#01812:13
#01810:41
#01118:0013000013001300
#01112:00130000
#01115:0000000000130013
#0121b:00130000
#01218:13
#01215:00000023
#00516:12000012
#00513:00120000
#00216:1200000000000012
#0021a:00000012
#00214:00320000
#00215:0032000000000000
#1061b:0000000000000013
#10615:00000013
#10612:0000001300000000
#10618:2613
#05818:00000013
#05815:0000001300000013
#06912:0013000000000000
#06915:0013
#05112:0000000000130000
#0511b:00130000
#05115:0000001300000013
#05118:00001313
#0031b:0000000000000012
#00318:0000001200000000
#07915:0013000000000000
#07918:00130000
#0791a:0000000000240000
#07912:0000002400000000
#06615:23000013
#05615:00000013
#0561b:0000000000000013
#05618:13
#05718:0000001300000013
#0571b:0013000000000000
#05715:00130000
#0501a:0000000000140000
#05012:00140000
#05015:24000024
#05017:0000002400000000
#02812:13
#02818:0013000000000013
#02815:00130013
#02418:00000013
#02415:0000000000000013
#01518:0000000013000013
#01512:0000000000130000
#0151b:00130000
#01515:0013000000000000
#0331a:0014000000000000
#03314:24
#01716:00140000
#01715:00000013
#01712:0013
#01718:0000000000000013
#0171b:0023000000130000
#01616:0014000014000014
#01612:23000023
#0161b:0000002300000000
#00418:00000012
#00416:0012
#1041b:0000000000000013
#10412:0000001300000000
#08912:0000000000000013
#0891b:00000013
#08915:0000001300130000
#08918:00131300
#06715:0000001300000013
#0671b:00130013
#06712:0000000000130000
#06718:0013
#00118:12
#0011b:0012
#02318:00000013
#02315:0000000000000013
#0921f:21
#09218:25000023
#09212:0000002600000000
#08712:0000000000000024
#0871a:0000000000000024
#0851a:0000000000000024
#08515:0000002300000000
#00914:0000000000240000
#00918:0024
#09112:002c
#01315:000000000000003300000000
#01314:000033
#0131b:003300000000000000000000
#0131a:003300000000
#0885a:0000000000000044
#08852:0000000000000034
#08854:0000002400000000
#08858:0000002400000000
#0645b:00230013
#06458:6363
#07052:1300000000000014
#09455:63
#08752:0000000000000064
#0875a:0000000000000054
#0855a:0000000000000054
#08555:0000006300000000
#08458:0000230000000063
#0845b:63
#1015b:13
#10155:13
#09858:6300000000000063
#09352:13
#0935b:13
#10255:5353
#10252:00230063
#0525a:54
#05257:00240000
#04652:1353
#04657:13
#04655:00000053
#01255:00000013
#0125b:00230000
#01258:63
#01058:16
#0105b:0000000000000013
#02652:0000005300000000
#02655:0023
#10352:0000000000130000
#10356:23
#0795a:0000000000140000
#07952:0000001400000000
#05055:14000014
#05057:0000001400000000
#09152:001c
#10658:16
#1065b:0000000000000053
#10552:0000000000160000
#0785a:0000000000000014
#07852:00530000
#07855:0023
#04258:13
#07152:0000001400000000
#0715a:0014000000000000
#0415b:0023
#04158:63
#0405b:0023
#04058:63
#03952:0023
#03955:53
#03852:0023
#03855:53
#0375b:23
#03658:63
#03552:23
#03455:53
#02255:0000005300000000
#02252:0000000000000053
#0215b:0000000000530000
#02158:0000005300000000
#08656:00000024
#0825b:53
#08258:0000005300000000
#08052:63
#08055:00230000
#08355:63
#07654:14000014
#07658:0000001400000000
#07452:63
#07455:0000006300000000
#0725b:53
#07258:0000002300000000
#07558:53
#1135b:0000000000000000000000000000002200000000000000000000000000000000
#11258:00000052
#1085b:00000013
#10758:00530000
#0995b:00000023000000000000000000000000
#09555:0000000000000063
#09658:0000006300000000
#0775b:0063
#07758:00000023
#06552:00630000
#06352:13
#06358:13
#06152:00000023000000000000000000000000
#06055:5300000000000053
#05355:00130000
#05552:13
#0555b:13
#04858:63
#04852:00000053
#04755:00530000
#04752:5353
#04455:0000000000000063
#00753:52000052
#00756:0000006200000000
#0065b:00220000
#00658:52
#04358:53
#0315b:0000000000130000
#02955:00230000
#02952:5353
#02055:0000000000000053
#01958:0000000000000063
#01152:00130000
#00256:62
#06952:0053000000000000
#06955:0053
#06855:0000000000000063
#06858:13
#04956:0023000000000000
#0035b:0000000000000052
#00358:0000005200000000
#06655:00000053
#05758:0000000000000053
#05658:53
#02458:00000053
#02455:0000000000000053
#00553:00220000
#00556:62
#0335a:0054000000000000
#05855:0000005300000000
#01855:0000000000000053
#00158:52
#0015b:0062
#001380:1200000000000022
#0013b0:0032
#002360:12
#002350:0032000000000000
#002340:00320000
#002330:0022
#003380:1200323200000000
#0033b0:0000000000003232
#004380:00220000
#005360:1222
#005330:00520000
#006380:1222
#0063b0:00320000
#007330:12000032
#007350:0000320000320000
#007360:0000003200000000
#008370:00520000
#009350:00260000
#012380:1323
#0123b0:00530000
#0133b0:133300000000000000000000
#0133a0:003300000000
#013380:00230000
#013350:000000000000133300000000
#013340:000033
#013320:00000023
#018350:0000000000000013
#019320:00230000
#019380:0000000000000013
#0203b0:0023000000000000
#020350:0000000000000013
#021320:0023000000000000
#021380:0000001300000000
#0213b0:0000000000330000
#022380:23
#022350:0000001300000000
#022320:0000000000230000
#022320:0000000000000013
#023350:0023
#0243b0:13230000
#024320:0000001300230000
#024380:00000013
#0253b0:0023
#024351:0000000000000013
#025321:0023
#0263b1:13230000
#026381:0053000000000000
#026321:0000001300230000
#026351:0053
#027351:0000001300000000
#027321:0000000000230000
#0273b0:0000001300000000
#027380:0000000000230000
#0283b0:0000001300230000
#029320:1333
#029350:00530023
#0333a0:0014000000000000
#033360:0024
#034350:13
#034330:0033
#035320:33
#035330:0033
#036350:23
#036381:13
#0363a1:0033
#0373b1:33
#0373a1:0033
#038381:23
#038350:13
#038320:0033
#039350:33
#039320:0033
#040350:23
#040381:13
#0403b1:0033
#041381:33
#0413b1:0033
#042381:23
#043381:13
#0433a1:0033000000000000
#0433b1:00332300
#044351:0000000000000013
#045321:0033230000000000
#046321:0013
#046351:00000033
#047321:3333
#047351:00330023
#048381:13
#0483b1:00230000
#048321:00000013
#049361:0053000000000000
#049321:0023
#0523a1:1424
#052371:00540000
#053381:0000000000140024
#054331:15250000
#054381:0000001600260000
#056381:13
#0563b1:0023
#057321:00001323
#057381:0000000000000013
#0583b1:00230000
#058351:0000001300000000
#058321:0000000000230000
#060351:13
#060321:00230000
#060351:0000000000000013
#061321:00003353330000000000000000000000
#061351:0023
#064381:1333
#0643b1:00530023
#065321:00130000
#065351:0000000033230000
#066351:1333333333003300
#067321:0023000000000000
#068351:0000000000000013
#069321:0033000000000000
#069351:0033
#070321:23
#0723b1:13000023
#072381:0000005300000000
#0723a1:0000000000330000
#073351:00130000
#073321:0023
#074321:1300000000230000
#074341:0033000000000000
#074351:0000333300000000
#075381:13
#0753b1:00230000
#0773b1:0013
#077391:0000000000330033
#077381:00000033
#0783b1:23
#078321:00130023
#078351:0000003353330000
#080321:1323
#080351:00530000
#081381:00130000
#0813b1:0023
#0823b1:1300000000230000
#082381:0000333300000000
#083351:13
#083321:00230000
#0843b1:1323
#084381:00530000
#084381:0000000000000013
#0853b1:00230000
#085351:0000001300000000
#085321:00000023
#0853a1:0000000000000014
#086361:00000054
#0873a1:0000000000240000
#0873a1:0000000000000014
#088381:0000005400000000
#0883a1:0000000000000024
#087320:0000000000000014
#088340:0000005400000000
#088320:0000000000000024
#090360:14
#091320:002c
#092380:15250000
#092320:0000001600260000
#094350:13
#094330:00330000
#094320:0023
#0953b0:00001323
#095350:0000000000000013
#096320:00230000
#096380:0000001300000000
#0963b0:0000000000230000
#098380:13
#0983b0:00230000
#098380:0000000000000013
#0993b0:00003353330000000000000000000000
#099380:0023
#102350:1333
#102320:00530033
#103360:53
#103320:00230000
#104350:13
#104320:00230000
#104380:0013
#1043b0:00000023
#105350:13
#105320:00230000
#1063b0:0000000000000013
#107380:00330000
#1073b0:0023
#111380:0012000000002200
#1113b0:0032
#112360:1200000000220000
#112330:0000323200000000
#112380:00000012
#1133c0:0000000000000000000032000000000000000032000000000000000000000000
#1133b0:0000000000000000000000000000005200000000000000000000000032000000
#114380:00000032000000000000000000000000
#1163c0:0022
