This file was generated by Ched 2.7.0.0.
#TITLE ""
#ARTIST ""
#DESIGNER ""
#DIFFICULTY 0
#PLAYLEVEL
#SONGID ""
#WAVE ""
#WAVEOFFSET 0
#JACKET ""
#REQUEST "ticks_per_beat 480"
#00002: 4
#BPM01: 196
#00008: 01
#TIL00: ""
#VOLUME: ""
#HISPEED 00
#MEASUREHS 00
#0101b:0000131300000000
#0101a:0013
#01019:0000000000130000
#01018:26000013
#01017:0000000000000013
#01016:00140000
#01012:14
#01714:00000016
#01716:0000130000160000
#01712:0023001300000016
#01718:0016
#01715:00000000000000130000000000000000
#01818:1200001200000000
#0181a:0012000000120000
#0181c:0000120000000012
#01812:22121212
#01810:41
#02312:0000000000000012
#02316:00000012000000000000000012000000
#0231c:12121212
#02412:0000001200001212
#0241c:12121212
#02416:12
#02716:0000001300000000
#02719:00000013
#0271b:0000001300130000
#02712:1200000000130013
#02717:0000000000000013
#0271c:12
#02714:0013
#02812:0000131300001300
#02817:0013000000001300
#02814:0000000000000013
#02815:13
#02819:00130000
#02816:0013
#0281b:0000001300130000
#03014:0012002200001200
#03016:0000120000120000
#03012:1200000000000022
#03017:13
#04212:16001c001600131c
#04218:2616
#04217:00000013
#04319:0013000000000000
#0431b:13000013
#04312:000013000000001c
#04316:13000013
#04317:0000131300000000
#04318:0016
#04417:1300001300001300
#0441b:0000130013000013
#04419:0000000000130000
#04412:13001613
#04416:0000000000000013
#04514:0000001300000000
#04518:00001615
#04512:0013000016000000
#04516:00130000
#0451b:00130000
#04515:0000000000000014
#04517:0000000000150000
#01118:0013000016001300
#01112:00000000130000160000000000000000
#0111b:0000130000130000
#01115:0013000000000013
#01217:13
#01216:00130000
#01212:13000024
#0121a:00000024
#0331c:0012
#03316:00001400001400000000000000000000
#03312:2824000000001200
#05017:0012120000000000
#05016:0000000014140000
#05012:1600002600001600
#05018:2600001600002600
#05015:0000000000000016
#05817:0013000000001300
#05816:0000001300000013
#0581b:0000000000130000
#05812:00001c1300001300
#0581a:0000000000000014
#05917:0013000000000012
#05912:0014000014000000
#05915:0000001600000000
#05916:0000000000140000
#0591a:0014
#05914:00000013
#05919:00000013
#0521b:00000013
#05216:0000000013001313
#05212:23130000
#05210:41
#0531b:0013000000000000
#05312:00001312
#05317:00130000
#0531c:0000000000120012
#05318:00000012
#05316:0000000000220000
#05712:0000130000000013
#05717:00131300
#05716:0013000000001313
#0571b:0013000000000000
#05612:13001313
#05617:00000013
#05615:00130000
#0561b:0000000000000013
#05616:0000000000000013
#07718:0013000000130000
#07712:0000001300000013
#07715:00130013
#0771b:13131300
#1061b:1300001313001300
#10612:0000130013000013
#10617:0000000000001313
#10616:0013001300000000
#10716:00000013
#1071b:0013000013000013
#10719:00130000
#10712:0000131313000000
#10717:0000001300000000
#1081b:0000001313001300
#10812:00131317
#10816:0000000000130000
#10817:0013000000000000
#11117:00000012
#1111c:0012000000000000
#11119:0012
#11112:12
#11116:0000003212320000
#06812:0000130013000013
#0681b:0000001313000013
#06815:1500000000130000
#06818:00000013
#06816:0000001300000000
#02212:1200000000001212
#02214:0012000000000000
#02216:0000121200000000
#0221c:00121212
#0131a:1414
#01316:001400001400001400001400
#01318:001400001400
#01314:00140014
#01312:140000000014000000000014
#01918:00120000000000000000000000000000
#01912:12121212
#0191c:0000000000000012
#0291b:1300000000130013
#02917:0013000013001300
#02916:1300130000130000
#02912:0013001313000000
#04916:00120012000000000000000000000000
#04915:00000000001300130000000000000000
#04914:00000000000000000014001400000000
#04913:00000000000000000000000000150015
#04918:1212131314141515
#06512:00130000
#06517:0000000013130000
#06516:00130000
#06319:0000001300000013
#06316:00130013
#06314:0000000000130000
#06312:1313
#0631b:00130013
#06317:0013
#06310:41
#06112:0013130000000013
#06116:0000130000000013
#06117:0013
#0611b:0013
#06216:1300001300001300
#06212:0000130000130000
#06217:0000000000000013
#0621b:00000013
#0701b:0000130013000023
#07012:0000001c00000013
#07018:0000000000130000
#07016:15
#07015:00001313
#07118:0013002600000000
#07112:0000001600000000
#07115:0023000000000000
#07915:00000013000000000000000000000000
#07918:0000132600160000
#0791b:0013000000000000
#07912:00000000001316000000260000000000
#08512:0013002300000014
#08516:00130000
#0851a:00000000000014000000000000000013
#0851b:0000000000130023
#08517:00000013
#08515:0033
#08518:33
#08412:2300000000130014
#0841b:0000130000130023
#08417:00001313
#08416:00130000
#0841a:24
#08414:0033003300000000
#00112:1212
#00114:0012001200000000
#00116:00120000
#0011a:0000000000120012
#00115:00000012
#00118:16
#00212:12
#00218:0000120000120000
#00214:0012000000000012
#00216:0000001200001200
#0021c:0012
#00318:1200001200000000
#00312:0012000000001200
#0031c:00120000
#00314:0012
#00317:0000000000120012
#00414:12
#0041a:00120012
#00417:0012001200120012
#0041c:0012
#06718:00121200
#06716:0000001200120000
#06714:00000012
#06712:0000000000000012
#0671a:0012000000000000
#00516:0012000000000000
#0051c:00120000
#00518:0000001200000000
#00512:1212
#0051a:0000000000120012
#00515:00000012
#00519:12
#00612:12
#00618:0000120000120000
#00614:0012000000000012
#00616:0000001200001200
#0061c:0012
#00718:1200001200000000
#00712:0012000000001200
#0071c:00120000
#00714:0012
#00717:0000000000120012
#02012:12121212
#0201c:0000000000000012
#02514:0012
#02517:0000000000120012
#0251a:00000012
#0251c:12120000
#02516:00120000000000000000000000000000
#0261c:2212
#02616:0000000000220012
#02612:22000012
#02618:0000002200000022
#08915:0000001600001200
#0891a:00140000
#08914:0013
#08916:0000000000140000
#08917:0000000000000012
#08919:00001312
#08912:00140000
#11217:00000012
#1121c:1200000000120000
#11218:0000121200000000
#11212:12
#11216:0000001200000000
#00814:1200001200000000
#0081a:00120012
#00817:0012000000000000
#00818:0000000012000012
#0081c:0000000000120000
#00816:00000012
#03216:00001400001400002800140000140000
#03212:2824000000000014
#0321a:2400000000240000
#07616:00131300
#07617:0013000000130000
#0761b:1313
#07615:0000001600000000
#07618:00000016
#07612:1613001300001300
#07610:41
#02112:12121212
#0211c:0000000000120000
#02118:00000000000012000000000000120000
#01417:0013001300000013
#0141b:13001313
#01517:0013000000130000
#01516:0000000000000013
#0151b:00131300
#01616:23001323
#01612:0013002300000013
#03112:0012000000220000
#03114:00120000
#03116:0000002200000000
#03412:0012
#03417:0012
#0341c:12
#03410:41
#0351c:12
#03514:0012000000001200
#03517:0012
#03516:1200000000000012
#04012:0000121200000000
#0401c:12
#04017:0000000012120000
#03817:00001212
#0381c:12
#03812:0012
#03912:12
#03917:0012
#0391c:00120000
#03918:00000012
#0391a:0012
#03617:0012
#03612:12
#0361c:00121200
#03618:0000000000000012
#03712:12
#03717:00001212
#0371c:0012120012000000
#04118:00160000
#04117:0000001600000000
#04116:0016
#04115:0000000000160000
#04114:00000016
#04113:0000000000000016
#04612:24001613
#0461b:00001313
#04617:0000000000130013
#0461a:24
#0471b:00130013
#04712:13131300
#04716:0013001300001300
#04718:0016
#05115:16
#05114:0000181800000000
#05118:0016000000000000
#05112:002600001c000000
#05412:0013000014001400
#05416:130000000000000000000000000000000000000000000000000000000000000000000000000000000000000000000000000000000000000000000000000000000000000000000000000000000000000000000000000000000000000000000000000000000000000000000000000000000000000000000000000000000000000000000000000000000000000000000000000000000000000000000000000000000000000000000000000000000000000000000000000000000000000000000000000000000000000000000000000000000000000000000000000000000000000000000000000000000000000000000000000000000000000000000000000000000000000000000000000000000000000000000000000000000000000000000000000000000000000000000000000000000000000000000000000000000000000000000000000000000000000000000000000000000000000000000000000000000000000000000000000000000000000000000000000000000000000000000000000000000000000000000000000000000000000000000000000000000000000000000000000000000000000000000000000000000000000000000000000000000000000000000000000000000000000000000000000000000000000000000000130000000000000000000000000000000000000000000000000000000000000000000000000000000000000000000000000000000000000000000000000000000000000000000000000000000000000000000000000000000000000000000000000000000000000000000000000000000000000000000000000000000000000000000000000000000000000000000000000000000000000000000000000000000000000000000000000000000000000000000000000000000000000000000000000000000000000000000000000000000000000000000000000000000000000000000000000000000000000000000000240000000000000000000000000000000000000000000000000000000000000000000000000000000000000000000000000000000000000000000000000000000000000000000000000000000000000000000000000000000000000000000000000000000000000000000000000000000000000000000000000000000000000000000000000000000000000000000000000000000000000000000000000000000000000000000000000000000000000000000000000000000000000000000000000000000000000000000000000000000000000000000000000000000000000000000000000000000000000000000000140000000000000000000000000000000000000000000000000000000000000000000000000000000000000000000000000000000000000000000000000000000000000000000000000000000000000000000000000000000000000000000000000000000000000000000000000000000000000000000000000000000000000000000000000000000000000000000000000000000000000000000000000000000000000000000000000000000000000000000000000000000000000000000000000000000000000000000000000000000000000000000000000000000000000000000000000000000000000000000000000000000000000000000000000000000000000000000000000000000000000000000000000000000000000000000000000000000000000000000000000000000000000000000000000000000000000000000000000000000000000000000000000000000000000000000000000000000000000000000000000000000000000000000000000000000000000000000000000000000000000000000000000000000000000000000000000000000000000000000000000000000000000000000000000000000000000000000000000000000000000000000000000000000000000000000000000000000000000000000000000000000000000000000000000000000000000000000000000000000000000000000000000000000000000000000000000000000000000000000000000000000000000000000000000000000000000000000000000000000000000000000000000000000000000000000000000000000000000000000000000000000000000000000000000000000000000000000000000000000000000000000000000000000000000000000000000000000000000000000000000000000000000000000000000000000000000000000000000000000000000000000000000000000000000000000000000000000000000000000014140000000000000000000000000000000000000000000000000000000000000000000000000000000000000000000000000000000000000000000000000000000000000000000000000000000000000000000000000000000000000000000000000000000000000000000000000000000000000000000000000000000000000000000000000000000000000000000000000000000000000000000000000000000000000000000000000000000000000000000000000000000000000000000000000000000000000000000000000000000000000000000000000000000000000000000000000000000000000000000000
#0541a:0000001400141400
#05417:0013000000000000
#0541b:23
#05512:0000001c131c001c
#05516:00130013
#0551b:00130013
#05517:0013
#06012:00000013
#06017:0000000013131313
#0601b:23130000
#06417:23130000
#06412:23
#0641b:0023
#06617:00000012
#0661b:23
#06612:23
#06616:0000343434000000
#06916:00130000
#0691b:00131313
#06912:0000001300000000
#06917:0000001300230000
#06918:1313000000000000
#06915:00130000000000000000000000000000
#09716:0013000000140000
#0971a:0014000014000000
#09718:0000001300000000
#09717:0000000000000012
#09712:0014
#09719:00000013
#09714:00000013
#09715:00000000000000130000000000000000
#09617:0000001300000013
#09612:00001c0000131c14
#09616:0013000000000000
#0961b:0000001300000000
#0951b:0000130000000013
#09516:0023130013000000
#09517:0000000000001313
#09512:0023000000000000
#0941b:23001313
#09416:0000000000001323
#09417:24130000
#09412:0000000000130023
#1011b:2300001313000013
#10116:00130013
#10112:2300130000131300
#10117:0013
#0991b:0023230000130013
#09917:0000130000001313
#09916:0000001300000000
#09912:0000001300000000
#1001b:0000130000130000
#10016:0000000000000013
#10012:00000013
#10017:2300002300002300
#09312:0000131c001c231c
#09317:00130023
#0931b:0023
#09316:0023
#09310:41
#0981b:00000013
#09816:2400000013131323
#09812:00130000
#0981a:24
#10216:00130013
#1021b:2313
#10212:00230013
#10217:2323
#1021a:00000000000000000000000000000033
#10219:0000000000000033
#10218:00000000000000000000000000330000
#10215:00000000000000000033000000000000
#10214:0000000000330000
#10213:00000000000000000000003300000000
#10316:0000000000000013
#1031b:1300000023000013
#10317:13000033000000000000230000000000
#10312:0000130000230000
#10318:0033000000000000
#1031a:00330000000000000000000000000000
#1041b:0000130000000013
#10417:0000001300000000
#10416:1800000000000013
#10412:0000001318001300
#1041a:000000000000000000000000003300000000000000000000
#10419:000000000000003300000000
#10418:0000000000330000
#10413:003300000000000000000000000000000000000000000000
#10414:003300000000000000000000
#10415:0033000000000000
#1051b:00131300
#10517:00000000000013000000000000140000
#10512:0000001318230000
#10516:1800000000280000
#10513:003300000000000000000000000000000000000000000000
#10514:003300000000000000000000
#10515:0033000000000000
#10916:00130000
#10912:0000121314151617
#11312:00000000001200000000000000000000
#11315:0000000000000000000000000000000000000012000000000000000000000000
#11318:0000000000000012
#11416:000000000012000000000000000000000000000000000000
#11414:001200000000
#1101c:1200000000120000
#11018:00120012
#1101a:0000001200000000
#11012:12
#11016:0000003212320000
#0921b:0013000000000000
#09217:23130000
#09212:2300002400142400
#0921a:00001424
#09216:000000000000000000000000000000000000000000000000000000000000000000000000000000000000000000000000000000000000000000000000000000000000000000000000000000000000000000000000000000000000000000000000000000000000000000000000000000000000000000000000000000000000000000000000000000000000000000000000000000000000000000000000000000000000000000000000000000000000000000000000000000000000000000000000000000000000000000000000000000000000000000000000000000000000000000000000000000000000000000000000130000000000000000000000000000000000000000000000000000000000000000000000000000000000000000000000000000000000000000000000000000000000000000000000000000000000000000000000000000000000000000000000000000000000000000000000000000000000000000000000000000000000000000000000000000000000000000000000000000000000000000000000000000000000000000000000000000000000000000000000000000000000000000000000000000000000000000000000000000000000000000000000000000000000000000000000000000000000000000000000000000000000000000000000000000000000000000000000000000000000000000000000000000000000000000000000000000000000000000000000000000000000000000000000000000000000000000000000000000000000000000000000000000000000000000000000000000000000000000000000000000000000000000000000000000000000000000000000000000000000000000000000000000000000000000000000000000000000000000000000000000000000000000000000000000000000000000000000000000000000000000000000000000000000000000000000000000000000000000000000240000000000000000000000000000000000000000000000000000000000000000000000000000000000000000000000000000000000000000000000000000000000000000000000000000000000000000000000000000000000000000000000000000000000000000000000000000000000000000000000000000000000000000000000000000000000000000000000000000000000000000000000000000000000000000000000000000000000000000000000000000000000000000000000000000000000000000000000000000000000000000000000000000000000000000000000000000000000000000000000140000000000000000000000000000000000000000000000000000000000000000000000000000000000000000000000000000000000000000000000000000000000000000000000000000000000000000000000000000000000000000000000000000000000000000000000000000000000000000000000000000000000000000000000000000000000000000000000000000000000000000000000000000000000000000000000000000000000000000000000000000000000000000000000000000000000000000000000000000000000000000000000000000000000000000000000000000000000000000000000000000000000000000000000000000000000000000000000000000000000000000000000000000000000000000000000000000000000000000000000000000000000000000000000000000000000000000000000000000000000000000000000000000000000000000000000000000000000000000000000000000000000000000000000000000000000000000000000000000000000000000000000000000000000000000000000000000000000000000000000000000000000000000000000000000000000000000000000000000000000000000000000000000000000000000000000000000000000000000000000000000000000000000000000000000000000000000000000000000000000000000000000000000000000000000000000000000000000000000000000000000000000000000000000000000000000000000000000000000000000000000000000000000000000000000000000000000000000000000000000000000000000000000000000000000000000000000000000000000000000000000000000000000000000000000000000000000000000000000000000000000000000000000000000000000000000000000000000000000000000000000000000000000000000000000000000000000000000000000000014140000000000000000000000000000000000000000000000000000000000000000000000000000000000000000000000000000000000000000000000000000000000000000000000000000000000000000000000000000000000000000000000000000000000000000000000000000000000000000000000000000000000000000000000000000000000000000000000000000000000000000000000000000000000000000000000000000000000000000000000000000000000000000000000000000000000000000000000000000000000000000000000000000000000000000000000000000000000000000000000
#0921f:21
#0091b:00132300
#00912:0013000000260000
#00918:0000000000260000
#07212:12121212
#07219:0000000000130000
#07217:00130013
#0721b:1300000000000013
#07312:12121212
#0731b:0013000000000013
#07317:0000000000130000
#07319:00000013
#07414:12121212
#0741b:1300001300001300
#07417:0000000000000013
#07419:0033000033000000
#07517:0013000013130000
#0751b:13
#07514:12121212
#07519:0000000000001313
#07817:00000000001500000000000000000000
#07816:1300000000000024
#07812:00000000000000150000000000000000
#07818:00000000000000000015000000000000
#07813:00000000000000000000001500000000
#07819:00000000210000000000000000150000
#0781b:13000021
#07814:0000002100000000
#0781a:0021
#07815:0000000000210000
#08014:0033003300130000
#08016:00130013
#08012:1300000000000013
#0801f:11
#0801a:24242424
#08112:0013000000000013
#08116:0000000000130000
#08114:00000013
#0811a:24242424
#08316:0013000013130000
#08312:13
#08314:0000000000001313
#0831a:24242424
#08212:1300001300001300
#08216:0000000000000013
#0821a:24242424
#08214:0033000033000000
#08619:13131313
#0861a:00130013001300130013001300130013
#0861b:0013001300130013
#08613:0023000000000000
#08612:0000230000230000
#08614:0023
#08615:0000000000000023
#08719:13130000
#0871a:00130013001300000000000000002400
#0871b:0013000000000000
#08713:000000000000000000000014
#08714:000000000000000000000000000000000000000000000014
#08712:2300002300260024
#08718:0000000000260000
#08716:00230000
#08813:140000000000000014000000000000001400000000000000140000000000000014000000000000140000000000140000000000140000000000140000000000140000000000140000000000140000000000140000000000000000000000000000
#08812:001400000014000000140000140000140000140000000000
#08814:000000000000140000000000000014000000000000140000000000140000000000140000000000140000000000000000
#0881a:0000240000240024
#08816:0024
#08818:0024000000000000
#04816:28000000180000140000000000000000
#04812:0014002400180018
#0481a:00001424
#09012:0000000000000016
#09018:0000000000000016
#09016:22
#09116:12
#09118:12
#09112:0026
#01257:63
#0125a:00000044
#01256:00630000
#01252:00000034
#0185c:0000000000000052
#07856:5300000000000014
#07857:00000000005500000000000000000000
#07859:00000000210000000000000000550000
#07852:00000000000000650000000000000000
#07854:0000002100000000
#07858:00000000000000000055000000000000
#0785a:0021
#07853:00000000000000000000006500000000
#07855:0000000000210000
#0785b:13000021
#02252:0000000000000062
#02256:0000006200000000
#02356:00000022000000000000000000000000
#05252:13
#05256:0000000000000043
#01058:46
#01056:00240000
#01052:5400000000000034
#01152:00330000
#0115b:00430000
#01958:00220000000000000000000000000000
#0195c:0000000000000062
#0295b:53
#02957:0023000000000000
#02952:0063
#02956:0000000000230000
#05052:3600003600003600
#05058:4600004600004600
#0605b:13
#06257:0000000000000023
#06256:3300003300003300
#0625b:00000053
#0635b:43
#06352:33
#0705b:0000000000000043
#07056:45
#07052:0000000000000033
#07155:0033000000000000
#07158:0043004600000000
#07152:0000003600000000
#0265c:0022
#02656:0000000000620052
#02652:00000022
#02658:0000005200000052
#0275c:22
#02752:22
#02756:0012000000000000
#02758:0012000000000000
#06557:0000000063630000
#06556:00530000
#08456:00230000
#08452:5300000000000034
#0845a:14
#0845b:0000000000000063
#0885a:0000440000440044
#08853:640000000000000064000000000000006400000000000000640000000000000064000000000000640000000000640000000000640000000000640000000000640000000000640000000000640000000000640000000000000000000000000000
#08852:002400000024000000240000240000240000240000340000
#08854:000000000000240000000000000024000000000000240000000000240000000000240000000000240000000000000000
#11257:00000052
#11252:52000032
#11256:0000002200000000
#05757:0063
#05756:0000000000000023
#1065b:6313
#10652:3500000000000053
#10656:0023000000000000
#0205c:0000000000000052
#02456:52
#02452:0000005200000062
#0215c:0000000000520000
#02158:00000000000052000000000000220000
#02556:00220000000000000000000000000000
#02552:00320000
#03057:53
#03256:00000000002400000000000000240000
#03252:0054000034000000
#0325a:4400000000640000
#0335a:44
#03356:00000000002400000000000000000000
#03352:0054000000006200
#0335c:0052
#03457:1262
#03452:0052
#0345c:62
#0355c:62
#03557:0052
#03857:0052
#0385c:62
#03952:52
#03957:0062
#03657:0052
#03652:62
#0365c:0052
#03752:52
#03757:0062
#0405c:62
#04057:0062
#04258:46
#04252:0036
#04358:0046
#04357:0000002300000000
#04352:00530000
#04452:5336
#0445b:0000000000000063
#04558:00004665
#04552:0056
#04555:0000000000000024
#04557:0000000000250000
#0465b:00006363
#04657:0000000000230023
#04652:3436
#0465a:44
#04752:53535300
#04756:0023002300002300
#04758:0046
#05158:0046000000000000
#05152:003600005c000000
#05352:00000022
#05356:0000000000620000
#05357:00330000
#05452:00002454
#05457:0023000000000000
#05456:000000000000000000000000000000000000000000000000000000000000000000000000000000000000000000000000000000000000000000000000000000000000000000000000000000000000000000000000000000000000000000000000000000000000000000000000000000000000000000000000000000000000000000000000000000000000000000000000000000000000000000000000000000000000000000000000000000000000000000000000000000000000000000000000000000000000000000000000000000000000000000000000000000000000000000000000000000000000000000000000000000000000000000000000000000000000000000000000000000000000000000000000000000000000000000000000000000000000000000000000000000000000000000000000000000000000000000000000000000000000000000000000000000000000000000000000000000000000000000000000000000000000000000000000000000000000000000000000000000000000000000000000000000000000000000000000000000000000000000000000000000000000000000000000000000000000000000000000000000000000000000000000000000000000000000000000000000000000000000000000000000000000000000000000000000000000000000000000000000000000000000000000000000000000000000000000000000000000000000000000000000000000000000000000000000000000000000000000000000000000000000000000000000000000000000000000000000000000000000000000000000000000000000000000000000000000000000000000000000000000000000000000000000000000000000000000000000000000000000000000000000000000000000000000000000000000000000000000000000000000000000000000000000000000000000000000000000000000000000000000640000000000000000000000000000000000000000000000000000000000000000000000000000000000000000000000000000000000000000000000000000000000000000000000000000000000000000000000000000000000000000000000000000000000000000000000000000000000000000000000000000000000000000000000000000000000000000000000000000000000000000000000000000000000000000000000000000000000000000000000000000000000000000000000000000000000000000000000000000000000000000000000000000000000000000000000000000000000000000000000000000000000000000000000000000000000000000000000000000000000000000000000000000000000000000000000000000000000000000000000000000000000000000000000000000000000000000000000000000000000000000000000000000000000000000000000000000000000000000000000000000000000000000000000000000000000000000000000000000000000000000000000000000000000000000000000000000000000000000000000000000000000000000000000000000000000000000000000000000000000000000000000000000000000000000000000000000000000000000000000000000000000000000000000000000000000000000000000000000000000000000000000000000000000000000000000000000000000000000000000000000000000000000000000000000000000000000000000000000000000000000000000000000000000000000000000000000000000000000000000000000000000000000000000000000000000000000000000000000000000000000000000000000000000000000000000000000000000000000000000000000000000000000000000000000000000000000000000000000000000000000000000000000000000000000000000000000000000000000000000000000000000000000000000000000000000000000000000000000000000000000000000000000000000000000000000000000000000000000000000000000000000000000000000000000000000000000000000000000000000000000000000000000000000000000000000000000000000000000000000000000000000000000000000000000000000000000000000000000000000000000000000000000000000000000000000000000000000000000000000000000000000000000000000000000000000000000000000000000000000000000000000000000000000000000000000000000000000000000000024240000000000000000000000000000000000000000000000000000000000000000000000000000000000000000000000000000000000000000000000000000000000000000000000000000000000000000000000000000000000000000000000000000000000000000000000000000000000000000000000000000000000000000000000000000000000000000000000000000000000000000000000000000000000000000000000000000000000000000000000000000000000000000000000000000000000000000000000000000000000000000000000000000000000000000000000000000000000000000000000
#0545b:63
#0545a:00000064
#0585a:0000000000000044
#05852:0000002300000000
#05952:0034000000000000
#06157:0023
#06152:00630000
#0615b:0023
#06156:00630000
#06452:53000033
#06457:00230000
#0645b:00000043
#06657:00000052
#06652:53
#06855:35
#0765b:53
#07657:0023000000000000
#07655:0000001600000000
#07652:3600006300005300
#07656:0023
#07658:00000046
#07952:0000000000360000
#07958:0000004600000000
#0975a:0044000000000000
#09557:0000000000000023
#09556:0053
#0965b:0000002300000000
#09652:0000000000000034
#10056:0000000000000023
#10052:00000063
#10057:4300004300004300
#09956:0000002300000000
#09952:0000002300000000
#09957:00530000
#0995b:00530000
#10256:00230063
#1025b:6353
#10257:0063
#10252:00000063
#10552:0000000038530000
#10556:4800000000480000
#10557:00000000000000000000000000240000
#10456:48
#10452:0038
#10752:0013
#1085b:00001363
#10852:00000037
#10956:00230000
#11052:52
#11056:0022
#11152:52
#11156:0022
#09856:34
#1015b:43
#10152:33
#00856:00000052
#05552:34
#0555a:44
#0925a:00002454
#09256:000000000000000000000000000000000000000000000000000000000000000000000000000000000000000000000000000000000000000000000000000000000000000000000000000000000000000000000000000000000000000000000000000000000000000000000000000000000000000000000000000000000000000000000000000000000000000000000000000000000000000000000000000000000000000000000000000000000000000000000000000000000000000000000000000000000000000000000000000000000000000000000000000000000000000000000000000000000000000000000000230000000000000000000000000000000000000000000000000000000000000000000000000000000000000000000000000000000000000000000000000000000000000000000000000000000000000000000000000000000000000000000000000000000000000000000000000000000000000000000000000000000000000000000000000000000000000000000000000000000000000000000000000000000000000000000000000000000000000000000000000000000000000000000000000000000000000000000000000000000000000000000000000000000000000000000000000000000000000000000000000000000000000000000000000000000000000000000000000000000000000000000000000000000000000000000000000000000000000000000000000000000000000000000000000000000000000000000000000000000000000000000000000000000000000000000000000000000000000000000000000000000000000000000000000000000000000000000000000000000000000000000000000000000000000000000000000000000000000000000000000000000000000000000000000000000000000000000000000000000000000000000000000000000000000000000000000000000000000000000000540000000000000000000000000000000000000000000000000000000000000000000000000000000000000000000000000000000000000000000000000000000000000000000000000000000000000000000000000000000000000000000000000000000000000000000000000000000000000000000000000000000000000000000000000000000000000000000000000000000000000000000000000000000000000000000000000000000000000000000000000000000000000000000000000000000000000000000000000000000000000000000000000000000000000000000000000000000000000000000000000000000000000000000000000000000000000000000000000000000000000000000000000000000000000000000000000000000000000000000000000000000000000000000000000000000000000000000000000000000000000000000000000000000000000000000000000000000000000000000000000000000000000000000000000000000000000000000000000000000000000000000000000000000000000000000000000000000000000000000000000000000000000000000000000000000000000000000000000000000000000000000000000000000000000000000000000000000000000000000000000000000000000000000000000000000000000000000000000000000000000000000000000000000000000000000000000000000000000000000000000000000000000000000000000000000000000000000000000000000000000000000000000000000000000000000000000000000000000000000000000000000000000000000000000000000000000000000000000000000000000000000000000000000000000000000000000000000000000000000000000000000000000000000000000000000000000000000000000000000000000000000000000000000000000000000000000000000000000000000000000000000000000000000000000000000000000000000000000000000000000000000000000000000000000000000000000000000000000000000000000000000000000000000000000000000000000000000000000000000000000000000000000000000000000000000000000000000000000000000000000000000000000000000000000000000000000000000000000000000000000000000000000000000000000000000000000000000000000000000000000000000000000000000000000000000000000000000000000000000000000000000000000000000000000000000000000000000000000000000024240000000000000000000000000000000000000000000000000000000000000000000000000000000000000000000000000000000000000000000000000000000000000000000000000000000000000000000000000000000000000000000000000000000000000000000000000000000000000000000000000000000000000000000000000000000000000000000000000000000000000000000000000000000000000000000000000000000000000000000000000000000000000000000000000000000000000000000000000000000000000000000000000000000000000000000000000000000000000000000000
#09252:53000064
#00158:16
#02852:0000006300000000
#02856:0023
#0745b:5300005300000000
#0755b:53
#07557:0023000000000000
#07257:00230000
#0725b:53
#08356:0023000000000000
#08352:63
#08252:6300006300000000
#08056:00230000
#08052:63
#08552:0000005300000034
#0855a:00000000000044000000000000000053
#0855b:0000000000000023
#08659:23232323
#0865b:0023002300230023
#0865a:00530053005300530053005300530053
#08652:0000330000330000
#08759:23230000
#0875a:00530053005300000000000000000000
#0875b:0023004300000000
#08752:3300003300160024
#08758:0000000000160000
#08753:000000000000000000000064
#08754:000000000000000000000000000000000000000000000024
#0935a:44
#09352:34
#10352:0000630000130000
#10357:2300000000130000
#1035b:23
#00952:0023000000000000
#09052:0000000000000066
#09058:0000000000000056
#09156:22
#09158:2246
#09152:0036
#008360:00000012
#009320:0053000029000000
#010320:1400000000000024
#010360:00540000
#012370:13
#0123b0:0023
#012361:00130000
#012321:0023
#014371:13003333
#014321:0033003300000033
#015321:0033000000330023
#015371:00333300
#0163b1:13003333
#016361:0033003300000033
#017361:0033000000000000
#0173b1:00230000
#0183c1:0000000000000012
#019381:00520000000000000000000000000000
#0193c1:00220000
#019381:0000001222000000
#0193a1:0000000000122200
#0193c1:0000000000000012
#020381:0022000000000000
#020381:0000001200320000
#0203c1:00003222
#0203c1:0000000000000012
#021381:0022000000000000
#021381:00000000000012000000000000520000
#0213c1:0000000000320000
#0223c1:22
#022361:0000001200000000
#022321:0000000000220000
#022321:0000000000000012
#023361:00000052000000000000000000000000
#023321:0022
#024361:12
#024321:00220000
#024321:0000001200000000
#024361:0000000000220000
#024321:0000000000000012
#025361:00520000000000000000000000000000
#025321:00220000
#026321:12220000
#026361:0032000000000000
#0263c0:12220000
#026380:0032000000000000
#026380:0000001200220000
#0263c0:0032
#026361:0000000000120032
#026321:00000052
#027321:52
#027361:0022000000000000
#026380:0000000000000012
#0273c0:52
#027380:0022000000000000
#028320:0000001300230000
#028360:0033
#0293b0:13230000
#029370:0033000000000000
#029320:00001323
#029360:0000000000330000
#030370:13
#0303b0:00530000000000000000000000000000
#0313b0:0000003300000000
#031390:0000000000000000000000000054000054000000000000000000000054000054
#0313a0:00000000000000540000000000000054
#031370:0000000000000000000000000000005400000000540054005400005400000000
#031360:0000000000000000000000000000000000540000000000000054000000000000
#031380:0000000000000000000000000000000000005400000000000000540000540000
#031350:0000000000000000000000000000000000000054005400540000000000000000
#0323a0:24
#032320:0014000024000000
#032360:00000000005400000000000000000000
#0323a0:0000000000140000
#032360:00000000000000000000000000540000
#0333a0:24
#033320:0014000024000000
#033360:00000000005400000000000000000000
#0333c1:0012
#033371:00000022
#033320:00000012
#034370:22
#0343c1:1200000000520000
#034371:0052000032000000
#0353c1:3200000000520000
#035371:0052000032000000
#0363c1:22
#034320:0012
#034360:0000000000000022
#035320:00122200
#036320:1200000000520000
#036370:0052000032000000
#037320:3200000000520000
#037370:0052000032000000
#038320:22
#0363c1:0000001232000000
#036381:00000022
#0383c1:1200000000520000
#038371:0052000032000000
#0393c1:22
#039320:1200000000520000
#039370:0052000032000000
#040320:22
#0403c1:1200000000520000
#040371:0052000032000000
#0413c1:22
#040370:00000012
#041370:22
#043320:00132300
#043370:0000005300000000
#044320:13
#044370:00230000
#0443b0:0000000000000013
#045360:0023000000000000
#045320:0016
#045370:0000000000550000
#045330:00000025
#045381:00000015
#045351:0000000000000054
#0463a1:24
#0463b1:00001333
#046371:0000000000330033
#0473b1:23
#047320:13333300
#047360:0033003300005300
#048320:23
#051320:001c
#052320:23
#0523a1:145400000000000000000054240000000000000000000000
#052391:005400005400000000000000000000000000000054000054000000000000000000000000000000000000000000000000
#052381:000000540054005400000000000000000000540000540000000000000000000000000000000000000000000000000000
#052371:000000000000540000540054000000540054005400000000000000000000000000000000000000000000000000000000
#052361:000000000000000054005400005400005400000000000000000000000000000000000000000000000000000000000000
#052351:000000000000545400000000000000000000000000000000
#052321:0000000000000013
#053371:0023000000000000
#0533b1:00130000
#053361:0023
#053361:0000000000120022
#053321:00000052
#0543b1:13230000
#054371:0053000000000000
#054361:0000001400240000
#054321:0054
#054321:00000014
#054361:0000000000000054
#055321:24
#0543a0:00000014
#054360:000000000000000000000000000000000000000000000000000000000000000000000000000000000000000000000000000000000000000000000000000000000000000000000000000000000000000000000000000000000000000000000000000000000000000000000000000000000000000000000000000000000000000000000000000000000000000000000000000000000000000000000000000000000000000000000000000000000000000000000000000000000000000000000000000000000000000000000000000000000000000000000000000000000000000000000000000000000000000000000000000000000000000000000000000000000000000000000000000000000000000000000000000000000000000000000000000000000000000000000000000000000000000000000000000000000000000000000000000000000000000000000000000000000000000000000000000000000000000000000000000000000000000000000000000000000000000000000000000000000000000000000000000000000000000000000000000000000000000000000000000000000000000000000000000000000000000000000000000000000000000000000000000000000000000000000000000000000000000000000000000000000000000000000000000000000000000000000000000000000000000000000000000000000000000000000000000000000000000000000000000000000000000000000000000000000000000000000000000000000000000000000000000000000000000000000000000000000000000000000000000000000000000000000000000000000000000000000000000000000000000000000000000000000000000000000000000000000000000000000000000000000000000000000000000000000000000000000000000000000000000000000000000000000000000000000000000000000000000000000000000000000000000000000000000000000000000000000000000000000000000000000000000000000000000000000000000000000000000000000000000000000000000000000000000000000000000000000000000000000000000000000000000000000000000000000000000000000000000000000000000000000000000000000000000000000000000000000000000000000000000000000000000000000000000000000000000000000000000000000000000000000000000000000000000000000000000000000000000000000000000000000000000000000000000000000000000000000000000000000000000000000000000000000000000000000000000000000000000000000000000000000000000000000000000000000000000000000000000000000000000000000000000000000000000000000000000000000000000000000000000000000000000000000000000000000000000000000000000000000000000000000000000000000000000000000000000000000000000000000000000000000000000000000000000000000000000000000000000000000000000000000000000000000000000000000000000000000000000000000000000000000000000000000000000000000000000000000000000000000000000000000000000000000000000000000000000000000000000000000000000000000000000000000000000000000000000000000000000000000000000000000000000000000000000000000000000000000000000000000000000000000000000000000000000000000000000000000000000000000000000000000000000000000000000000000000000000000000000000000000000000000000000000000000000000000000000000000000000000000000000000000000000000000000000000000000000000000000000000000000000000000000000000000000000000000000000000000000000000000000000000000000000000000000000000000000000000000000000000000000000000000000000000000000000000000000000000000000000000000000000000000000000000000000000000000000000000000000000000000000000000000000000000000000000000000000000000000000000000000000000000000000000000000000000000000000000000000000000000000000000000000000000000000000000000000000000000000000000000000000000000000000000000000000000000000000000000000000000000000000000000000000000000000000000000000000000000000000000000000054000000000000000000000000000000000000000000000000000000000000000000000000000000000000000000000000000000000000000000000000000000000000000000000000000000000000000000000000000000000000000000000000000000000000000000000000000000000000000000000000000000000000000000000000000000000000000000000000000000000000000000000000000000000000000000000000000000000000000000000000000000000000000000000000000000000000000000000000000000000000000000000000000000000000000000000000000000000000000000000000
#0553a0:24
#056350:145400000000000000000054240000000000000000000000
#056360:005400005400000000000000000000000000000054000054000000000000000000000000000000000000000000000000
#056370:000000540054005400000000000000000000540000540000000000000000000000000000000000000000000000000000
#056380:000000000000540000540054000000540054005400000000000000000000000000000000000000000000000000000000
#056390:000000000000000054005400005400005400000000000000000000000000000000000000000000000000000000000000
#0563a0:000000000000545400000000000000000000000000000000
#0573b0:0000001323000000
#057371:0013
#057321:00000023
#057361:0000000000000013
#0583b1:0023000000000000
#058321:0000001300000000
#058371:0000000000230000
#060321:145400000000000000000054240000000000000000000000
#060331:005400005400000000000000000000000000000054000054000000000000000000000000000000000000000000000000
#060341:000000540054005400000000000000000000540000540000000000000000000000000000000000000000000000000000
#060351:000000000000540000540054000000540054005400000000000000000000000000000000000000000000000000000000
#060361:000000000000000054005400005400005400000000000000000000000000000000000000000000000000000000000000
#060371:000000000000545400000000000000000000000000000000
#0603b1:0000000000000013
#061361:0023000000000000
#061321:00130023
#061371:0053
#061360:00130023
#0613b0:0053
#0623b0:13
#062390:0033000000000000
#062370:00230000
#0623b0:0000001300000000
#062390:0033
#062370:0000000000230000
#0623b0:00000013
#062370:0000000000000033
#0633b0:23
#064320:1333
#064370:00530000
#0643b0:00000023
#0643b1:0013
#064321:00000023
#065361:00130000
#0653b1:0023
#065370:0013
#065320:0000000000005323
#065371:0000000000130000
#0653b1:0000000000005323
#066321:13
#066361:0034343434000000
#066371:00000032
#067321:22
#0663c0:0000000000000000000000000000000000000000000000001252525252525252
#0663b0:00000000000000000000000000000000000000000000000000000000000000000000000000000000000000000000000000520052005200520052005200520052
#0673c0:22
#0683b0:13
#068360:00230000
#069360:00001323
#069320:0000000000330000
#070320:13
#070370:00230000
#0723b0:1323
#072370:00530000
#0733b0:00130000
#073370:0023
#0743b0:13
#074390:0033000000000000
#074370:00230000
#0743b0:0000001300000000
#074390:0033
#074370:0000000000230000
#0753b0:13230000
#075370:0033000000000000
#0763b0:13230000
#076370:0033000000000000
#076320:0000001300230000
#076360:0033
#076320:00000013
#077370:23
#077340:0012
#077320:0000000000000000000000000000000000000056000000000000000000000000
#077330:0000000000240000
#0773a0:00000012
#077380:0000000000000000000000000000000000000000000000000000005600000000
#077390:0000000000000024
#078360:13
#078320:00230000
#078391:0000112100000000
#078371:00000000005500000000000000000000
#078340:0000001121000000
#078320:00000000000000550000000000000000
#0783a1:0000000011210000
#078381:00000000000000000055000000000000
#078350:0000000000112100
#078330:00000000000000000000005500000000
#0783b1:0000000000001121
#078391:00000000000000000000000000550000
#080321:1323
#080341:0033003300000000
#080361:00330000
#081321:00130000
#081341:0000003300000000
#081361:0023
#082321:13
#082341:0033000000000000
#082361:00230000
#082321:0000001300000000
#082341:0033
#082361:0000000000230000
#083321:13230000
#083361:0033000000000000
#084321:1323
#084341:0033003300000000
#084361:00330000
#0843b1:0000000000000013
#085381:33
#085361:0023000000000000
#085321:0000001300000000
#085351:0033
#085371:0000000000230000
#0853b1:0000000000000013
#0853a1:00000000000000000000000000000053
#086391:53535353
#0863a1:00530053005300530053005300530053
#0863b1:0053005300530053
#087391:53530000
#0873a1:00530053005300000000000000000000
#0873b1:0053002300000000
#087321:0000000000000014
#087331:000000000000000000000054
#087341:000000000000000000000000000000000000000000000054
#088331:540000000000000054000000000000005400000000000000540000000000000054000000000000540000000000540000000000540000000000540000000000540000000000540000000000540000000000540000000000000000000000000000
#088321:005400000054000000540000540000540000540000240000
#088341:000000000000540000000000000054000000000000540000000000540000000000540000000000540000000000000000
#090361:12
#090381:0000000000000056
#091381:5226
#090380:12
#090320:0000000000000056
#091360:52
#091320:0026
#092320:13230000
#092360:0053000000000000
#092360:0000001400240000
#0923a0:0054
#0923a0:00000014
#092360:0000000000000054
#0933a0:24
#092321:00000014
#092361:000000000000000000000000000000000000000000000000000000000000000000000000000000000000000000000000000000000000000000000000000000000000000000000000000000000000000000000000000000000000000000000000000000000000000000000000000000000000000000000000000000000000000000000000000000000000000000000000000000000000000000000000000000000000000000000000000000000000000000000000000000000000000000000000000000000000000000000000000000000000000000000000000000000000000000000000000000000000000000000000000000000000000000000000000000000000000000000000000000000000000000000000000000000000000000000000000000000000000000000000000000000000000000000000000000000000000000000000000000000000000000000000000000000000000000000000000000000000000000000000000000000000000000000000000000000000000000000000000000000000000000000000000000000000000000000000000000000000000000000000000000000000000000000000000000000000000000000000000000000000000000000000000000000000000000000000000000000000000000000000000000000000000000000000000000000000000000000000000000000000000000000000000000000000000000000000000000000000000000000000000000000000000000000000000000000000000000000000000000000000000000000000000000000000000000000000000000000000000000000000000000000000000000000000000000000000000000000000000000000000000000000000000000000000000000000000000000000000000000000000000000000000000000000000000000000000000000000000000000000000000000000000000000000000000000000000000000000000000000000000000000000000000000000000000000000000000000000000000000000000000000000000000000000000000000000000000000000000000000000000000000000000000000000000000000000000000000000000000000000000000000000000000000000000000000000000000000000000000000000000000000000000000000000000000000000000000000000000000000000000000000000000000000000000000000000000000000000000000000000000000000000000000000000000000000000000000000000000000000000000000000000000000000000000000000000000000000000000000000000000000000000000000000000000000000000000000000000000000000000000000000000000000000000000000000000000000000000000000000000000000000000000000000000000000000000000000000000000000000000000000000000000000000000000000000000000000000000000000000000000000000000000000000000000000000000000000000000000000000000000000000000000000000000000000000000000000000000000000000000000000000000000000000000000000000000000000000000000000000000000000000000000000000000000000000000000000000000000000000000000000000000000000000000000000000000000000000000000000000000000000000000000000000000000000000000000000000000000000000000000000000000000000000000000000000000000000000000000000000000000000000000000000000000000000000000000000000000000000000000000000000000000000000000000000000000000000000000000000000000000000000000000000000000000000000000000000000000000000000000000000000000000000000000000000000000000000000000000000000000000000000000000000000000000000000000000000000000000000000000000000000000000000000000000000000000000000000000000000000000000000000000000000000000000000000000000000000000000000000000000000000000000000000000000000000000000000000000000000000000000000000000000000000000000000000000000000000000000000000000000000000000000000000000000000000000000000000000000000000000000000000000000000000000000000000000000000000000000000000000000000000000000000000000000000000000000000000000000000000000000000000000000000000000000000000000000000000000000000000000054000000000000000000000000000000000000000000000000000000000000000000000000000000000000000000000000000000000000000000000000000000000000000000000000000000000000000000000000000000000000000000000000000000000000000000000000000000000000000000000000000000000000000000000000000000000000000000000000000000000000000000000000000000000000000000000000000000000000000000000000000000000000000000000000000000000000000000000000000000000000000000000000000000000000000000000000000000000000000000000000
#093321:24
#094371:145400000000000000000054240000000000000000000000
#094361:005400005400000000000000000000000000000054000054000000000000000000000000000000000000000000000000
#094351:000000540054005400000000000000000000540000540000000000000000000000000000000000000000000000000000
#094341:000000000000540000540054000000540054005400000000000000000000000000000000000000000000000000000000
#094331:000000000000000054005400005400005400000000000000000000000000000000000000000000000000000000000000
#094321:000000000000545400000000000000000000000000000000
#095321:0000001323000000
#095360:0013
#0953b0:00000023
#095370:0000000000000013
#096320:0023000000000000
#0963b0:0000001300000000
#096360:0000000000230000
#0983a0:145400000000000000000054240000000000000000000000
#098390:005400005400000000000000000000000000000054000054000000000000000000000000000000000000000000000000
#098380:000000540054005400000000000000000000540000540000000000000000000000000000000000000000000000000000
#098370:000000000000540000540054000000540054005400000000000000000000000000000000000000000000000000000000
#098360:000000000000000054005400005400005400000000000000000000000000000000000000000000000000000000000000
#098350:000000000000545400000000000000000000000000000000
#098320:0000000000000013
#099370:0023000000000000
#0993b0:00132300
#099360:0000005300000000
#099371:00132300
#099321:0000005300000000
#100321:13
#100341:0033000000000000
#100361:00230000
#100321:0000001300000000
#100341:0033
#100361:0000000000230000
#100321:00000013
#100361:0000000000000033
#101321:23
#1023b1:1333
#102361:00530033
#102381:00000000000000000000000000330000
#102391:0000000000000033
#1023a1:00000000000000000000000000000033
#1033b1:33
#1033a1:00330000000000000000000000000000
#103381:0033000000000000
#103371:00000033000000000000000000000000
#103361:00230000
#102370:0013
#102350:00000000000000000033000000000000
#102340:0000000000330000
#102330:00000000000000000000003300000000
#102320:00000033
#103370:53
#103320:00330000
#103360:0023
#104320:13
#104330:003300000000000000000000000000000000000000000000
#104340:003300000000000000000000
#104350:0033000000000000
#104370:00230000
#1043b0:0013
#1043a0:000000000000000000000000003300000000000000000000
#104390:000000000000003300000000
#104380:0000000000330000
#104360:00000023
#105320:13
#105330:003300000000000000000000000000000000000000000000
#105340:003300000000000000000000
#105350:0033000000000000
#105370:00230000
#105320:0000000000130000
#105370:00000000000000000000000000540000
#106320:25
#1063b1:13230000
#106361:0053000000000000
#106321:0000000000000013
#107371:0023000000000000
#107371:0000000000130000
#1073b1:00000023
#108361:13
#108321:0023000000000000
#1083b1:00000013
#109361:00530000
#1093b1:0000000000000023
#110321:12
#110361:0000003252320000
#111321:32
#111361:0000003252320000
#112321:32000022
#112361:0000003200000000
#112370:00000012
#1133c0:0000000000000022
#114380:00120000
#1163c0:0022
