This file was generated by Ched 2.7.0.0.
#TITLE ""
#ARTIST ""
#DESIGNER ""
#DIFFICULTY 0
#PLAYLEVEL
#SONGID ""
#WAVE ""
#WAVEOFFSET 0
#JACKET ""
#REQUEST "ticks_per_beat 480"
#00002: 4
#BPM01: 196.0
#00008: 01
#TIL00: ""
#VOLUME: ""
#HISPEED 00
#MEASUREHS 00
#00718:14
#0071a:0000003400001400
#01418:1414
#01514:1414
#0161a:1414
#01712:1414
#0221a:14
#02214:00140000
#02218:0014
#02212:00000014
#02412:14
#02418:00140000
#02414:0014
#0241a:00000014
#02612:00140000
#02618:0014
#02614:00000014
#0261a:24
#0271a:14
#02712:00140000
#02718:0014
#02714:00000014
#0281a:14
#02814:00140000
#02818:0014
#02812:00000014
#02918:14
#02914:00140000
#0291a:0014
#03012:14
#03312:0014
#03316:00000014
#03318:26
#0341a:14
#03418:0014
#03410:41
#0351a:14
#03614:14
#03612:0014
#03714:14
#03818:14
#0381a:0014
#03918:14
#04012:14
#04014:0014
#04112:14
#0421a:1414
#04214:00140000
#04312:1414
#04318:00140000
#0441a:14
#04412:00140000
#04418:0014
#04512:14
#0451a:00140000
#04514:0014
#0461a:14
#04712:14
#04818:00000014
#05014:00000014
#05312:0014
#0531a:14
#05214:0014
#05218:26
#05210:41
#05414:00140000
#05418:0014
#05412:00000014
#0541a:14
#0551a:14
#05518:0014
#05514:00140014
#05618:14
#05614:00000014
#06612:00000014
#0661a:00000014
#0681a:0014
#06812:26
#06914:14
#06918:0014
#07012:1400000000000014
#07014:0000001400000000
#0761a:14
#07614:00140000
#07610:41
#07712:14
#07718:00140000
#0781a:14
#07814:00140000
#07818:0014
#07812:00000014
#07813:0000000000000034
#08418:14
#08412:00140000
#0841a:0014
#08414:00000014
#08518:14
#08512:00140000
#0851a:0014
#08514:00000014
#08812:0000001400000000
#08714:0000000000000014
#0861a:00000014
#08618:14
#08918:0014
#08914:00000014
#01012:14
#01014:0000000000000014
#01212:14
#01214:00000014
#0181a:1414
#01814:00140014
#01810:41
#01918:14
#01912:00140000
#0191a:0014
#02012:1414
#02018:00140014
#02114:14
#0211a:00140000
#02112:0014
#0571a:14
#05712:00140000
#05718:0014
#05714:0000000000001434
#09218:00140000
#09214:0014
#0921a:00000014
#09212:14
#0921f:21
#09312:14
#09314:0014
#0931a:00000014
#09318:00140000
#09310:41
#09414:14
#09418:00000014
#05812:00140000
#05814:00000000000034000000341400003400
#06318:0014
#06314:00000014
#0631a:14
#06312:00140000
#06310:41
#0621a:14
#06212:00140000
#06218:0014
#06214:00000014
#06114:00140000
#0611a:14
#05918:0014
#05912:00000014
#06018:14
#06014:00000014
#10612:0014
#10718:14
#10714:0014
#1081a:14
#10812:0014
#10818:00000014
#11118:14
#10012:14
#10018:00140000
#10014:0014
#1001a:00000014
#10112:14
#10114:0014
#10118:00140014
#10214:0000001434000000
#10212:24000014
#10318:0014
#10314:0000000000140000
#0971a:00000014
#09714:0014
#09814:0014
#0981a:00000014
#09812:14
#09818:00140000
#09912:14
#0991a:00000014
#09918:00140000
#09914:0014
#1051a:0000000000140000
#11014:14
#09518:0000000000001434
#09512:14
#0951a:00140000
#09514:0014
#0961a:00140000
#09618:00000000000034000000341400003400
#06418:0000001400000000
#0641a:24
#06417:0034
#06514:0000140000140000
#06518:0014
#0801f:11
#08018:00343400
#03218:26
#03212:0026
#09116:0028
#00916:0028
#0821a:00343400
#08112:00343400
#08314:00343400
#0231a:00343400
#07914:0034000000000000
#11314:0000000000000000000000000000000000000034000000000000000034000000
#11313:00000000003400000000000000000000
#00758:54
#0075a:00000024
#02554:0014
#0265a:14
#0295a:0014
#03052:54
#03258:16
#03252:0016
#03358:16
#0345a:64
#03458:0064
#0355a:64
#03654:64
#03652:0064
#03754:64
#03858:54
#0385a:0054
#03958:54
#04052:54
#04054:0054
#04152:54
#0465a:64
#04752:54
#04858:00000054
#05054:00000064
#05258:16
#05658:54
#06652:00000054
#0665a:00000064
#06852:16
#07052:5400000000000054
#07054:0000005400000000
#07954:0000000000140000
#08852:0000002400000000
#08854:0000000000000014
#08754:0000000000000054
#0865a:00000024
#08658:64
#09156:0018
#00956:0018
#01052:54
#01054:0000000000000064
#01252:54
#01254:00000054
#07852:00000054
#09352:14
#09454:64
#05754:00000064
#05852:00540000
#05854:00000000000000000000002400000000
#0635a:14
#06154:00540000
#06058:64
#10858:00000064
#10152:14
#10254:0000002400000000
#10252:64000064
#1055a:0000000000640000
#10658:14
#09558:00000054
#0965a:00640000
#09658:00000000000000000000002400000000
#06458:0000002400000000
#0645a:54000014
#0555a:14
#001380:14
#001390:0034
#0023a0:24
#003340:14
#003330:0034
#004320:24
#005380:14
#0053a0:0024
#006340:14
#006320:0024
#007380:14
#0073a0:0000003400003400
#009360:0028
#010320:14
#010340:0000000000000034
#012320:34
#012340:00000034
#013320:0024
#0233a0:14343400
#023380:00000024
#025320:14
#025330:00340000
#025340:0024
#030320:14
#031340:0024
#0343a0:14
#034380:0034
#0353a0:34
#035380:0024
#036340:14
#036320:0034
#037340:34
#037320:0024
#038380:14
#0383a0:0034
#039380:34
#0393a0:0024
#040320:14
#040340:0034
#041320:34
#041340:0024
#0463a0:14
#046380:0024
#047320:14
#047340:0024
#048380:14000034
#0483a0:0000003400000000
#0493a0:0024
#050340:14000034
#050320:0000003400000000
#051320:0024
#056380:14
#0563a0:0024
#057340:0000000000001434
#058320:00340000
#058340:00000000000034000000345400003400
#059320:0024000000000000
#060380:14
#0603a0:0024
#061340:00140000
#061320:00000024
#0643a0:14000024
#064380:0000005400000000
#064370:0034
#066320:14000034
#067340:0024
#0663a1:14000034
#067381:0024
#070321:1400000000000034
#070341:0000003400000000
#071351:00000024
#0723a1:14
#072391:00340000
#072381:0034
#072371:00000034
#073371:34
#073381:00340000
#073391:0034
#0733a1:00000024
#074321:14
#074331:00340000
#074341:0034
#074351:00000034
#075351:34
#075341:00340000
#075331:0034
#075321:00000024
#076381:00001424
#077341:00001424
#078321:00000014
#078331:0000000000000034
#079341:0034003400240000
#0803a1:14
#080381:00343424
#081341:14
#081321:00343424
#082381:14
#0823a1:00343424
#083321:14
#083341:00343424
#086381:14
#0863a1:00000054
#087381:0024
#087341:0000000000000014
#088321:0000005400000000
#088341:0000000000000024
#090381:14
#091361:0028
#094341:14
#094321:0024
#095381:0000000000001434
#0963a1:00340000
#096381:00000000000034000000345400003400
#0973a1:0024000000000000
#102321:14000034
#102341:0000005434000000
#103341:00240000
#103381:0000000000000014
#104381:3400000000000034
#1043a1:0000003434000000
#105381:34
#1053a1:0000003434340000
#106381:24
#108381:00000014
#1093a1:0024
#112341:14
#112321:00000000000000000000000000340000
#113331:00000000003400000000000000000000
#113341:0000000000000000000000000000000000000034000000000000000034000000
#114341:00000034000000000000000000000000
#116321:0024
