This file was generated by Ched 2.7.0.0.
#TITLE ""
#ARTIST ""
#DESIGNER ""
#DIFFICULTY 0
#PLAYLEVEL
#SONGID ""
#WAVE ""
#WAVEOFFSET 0
#JACKET ""
#REQUEST "ticks_per_beat 480"
#00002: 4
#BPM01: 125
#00008: 01
#TIL00: ""
#VOLUME: ""
#HISPEED 00
#MEASUREHS 00
#0041a:14
#00414:0014
#00612:14
#00718:14
#00814:14
#0091a:14
#01012:14
#01010:41
#01118:14
#0141a:14
#01514:14
#02613:14
#02619:14
#02812:0016
#02818:26
#02810:41
#02918:16
#02912:0016
#03212:0016
#03218:26
#03318:16
#03312:0016
#0451a:14
#0451f:11
#04614:14
#0471a:14
#04814:14
#04918:14
#05012:14
#05118:14
#05212:14
#05312:0016
#05318:26
#0531f:00210000
#05418:16
#05410:41
#05718:0016
#05712:26
#05812:16
#05818:0016
#05912:16
#05918:0016
#06118:16
#06112:0016
#06218:16
#06212:0016
#06412:16
#06418:0016
#06512:16
#06518:0016
#06510:41
#06612:16
#06618:0016
#06818:16
#06812:0016
#0691a:14
#07018:0000001400000000
#05518:0000002600000000
#05512:0000000000000026
#05618:0000002600000000
#04212:0000003500000000
#01810:41
#03610:41
#0695a:54
#07058:0000002400000000
#000390:1400000034000024
#002330:1400000034000024
#005380:1434343424000000
#012320:14
#013320:24
#016380:1400000000000034
#017380:0034343424000000
#018320:14
#019340:24
#020380:14
#0213a0:24
#022340:14
#023320:24
#024380:14
#0253a0:24
#030380:1626
#031320:1626
#034380:1626
#035320:1626
#036390:15
#037370:35
#038390:35
#039370:25
#040320:15
#041340:35
#042320:3500003500000000
#042340:00000035
#043340:0000000000000025
#053380:16260000
#054320:0000000016003626
#056380:0000001600002600
#057320:16260000
#060320:16363626
#063380:1626
#067320:1626
#0693a0:14
#070380:0000005400000000
#0713a0:0000000000003424
#072340:0014000000000000
#072330:00340000
#072320:0000003400002400
