This file was generated by Ched 2.7.0.0.
#TITLE ""
#ARTIST ""
#DESIGNER ""
#DIFFICULTY 0
#PLAYLEVEL
#SONGID ""
#WAVE ""
#WAVEOFFSET 0
#JACKET ""
#REQUEST "ticks_per_beat 480"
#00002: 4
#BPM01: 125
#00008: 01
#TIL00: ""
#VOLUME: ""
#HISPEED 00
#MEASUREHS 00
#02818:0000131300000000
#02815:00000000001300000000000000000000
#0281b:2300000000130013
#02816:0000000000000000000000000000000000000013000000000000000013000000
#02812:00002300000000130000000000000000
#02817:00000013
#02810:41
#02915:0000131300000000
#02918:00000000001300000000000000000000
#02912:2300000000130000
#0291b:00002300000000130000000000001300
#02916:00000013
#02917:0000000000000000000000000000000000000013000000000000000000000000
#03016:0013000000000000
#03012:0000131300130000
#03017:0000000000130000
#0301b:0013000000001313
#03112:0013000000000000
#03115:0000001300000000
#0311b:00130013
#03117:0013000013000000
#03515:00001300000013001313000000000000
#0351b:00001300000013000000001300000000
#03518:00000000130000002323000000000000
#03512:0000130000000013
#03516:00000000000000000000001300000000
#03616:1313
#03612:0000130000000013
#0361b:1300000013000013
#03617:00130000
#03610:41
#03718:0013000000000000
#03716:0000001400140014
#03712:00232323
#0371b:00232323
#03912:0023000000130000
#03915:0000002300001313
#03918:00000000000000002300000000130000
#0391b:00230000
#0421b:13000013
#04212:0000001300000000
#04216:23000023
#04217:0000002300000000
#04312:13000000000013000000001300001600
#04315:00000013000000001300000000000000
#04318:0000000000000026
#0451c:12
#04514:0012000000000000
#0451a:00120000
#04516:00000000001200000000000000000000
#04518:0000001200000000
#04517:0000000000120012
#0451f:11
#04612:12
#0461a:0012000000000000
#04614:00120000
#04618:00000000001200000000000000000000
#04616:0000001200000000
#04617:0000000000120012
#04716:0012000000000000
#04714:00120000
#04712:0000001200120000
#0471c:0012000000000012
#04718:0000000000120000
#0471a:00000012
#04812:0012
#0481c:0012000000001200
#0481a:0000000000000012
#04815:00120000
#04819:0000001200000000
#0491c:22120000
#0491a:0000001200000012
#04912:00002212
#04914:0000001200000012
#05018:00120000
#05012:0012
#05015:0000000000120000
#05019:00000012
#0501c:2200000000000012
#05118:0012000000000000
#0511a:00120000
#0511c:0000001200000000
#05112:0000000000120000
#05114:00000012
#05116:0000000000000012
#05215:00141400000000000000330000330000
#05214:00000000141400000034000000003400
#05213:00000000000000140000000000000000
#05212:0016
#05216:00000000000000000000003212000000
#05218:00000000000024002634333212333400
#0521a:24
#05219:00000024000000000000000000000000
#05318:12
#05316:0000000012000000000000001400000000000013000000000000000013000000
#05319:0000000000130000
#05312:00000000240000130000000000000000
#05317:00000013
#0531b:0000000000000013
#0531a:00240000
#0531f:00210000
#05415:0000131300000000
#05418:00000000001300000000000000000000
#05412:2300000000130023
#0541b:00002300000000130000000000002300
#05416:00000013
#05417:0000000000000000000000000000000000000013000000000000000000000000
#05410:41
#05518:0012142600000000
#05516:0000000000120000
#05514:00000014
#05512:0000000000000026
#06016:0012000000140014
#06012:0000001614001400
#0601a:00001414
#06014:00140000
#06112:13131300
#06116:0013001300130000
#06115:0000000000000013
#06117:13131300
#0611b:0013001300001300
#06118:0000000000000023
#06417:000000000000003200000000120000120000120000120000
#06412:23000000000000000012001200120012
#06416:0013000000000000
#0641b:00000023000000000000000000000000
#06415:000000000000000032320000000000000000000000000000
#06415:003200
#06414:000000000000000000003232000000000000000000000000
#06715:0000000000130000
#0671b:0000000000130000
#06717:00000013
#06712:26000013
#06718:16
#06817:0000231300000000
#06816:2313000023000000
#06818:00000013
#06812:0000230000000013
#0681b:2323
#06915:00130000
#0691b:1300000000130013
#06918:00000013
#06912:0000001300000000
#07012:0013001300000000
#07015:00130000
#07018:0000000000130013
#0701b:00000013
#07115:0013001300000000
#07112:00130000
#07118:0000000000130013
#0711b:00000013
#07216:0013000000000000
#07214:00130000
#07212:0000001300000000
#0721b:0013000000000000
#07219:00130000
#07217:0000001300000000
#01015:0000130000130000
#01018:00000000130000000000001300130000
#0101b:2313
#01012:23000000000000000000000000130000
#01010:41
#01218:00000000130000000000001300001300
#01215:00000000130000000000130000000013
#0121b:0013
#01212:00000013
#0131b:1300001300001300
#01315:00000013000000000000000013000000
#01318:0013
#01312:0013
#01412:1313000000000013
#01418:00130013000000000000000000000000
#01415:00130000
#01417:00000000001300000000130000000000
#01416:00000000000000130000000000000000
#0141b:00000013
#01519:00000013
#01514:00000013
#0151b:1313000000000000
#01515:00130013000000000000000000000000
#01518:00130000
#01516:00000000001300000000000000000000
#01517:00000000000000130000000000002300
#01512:0000000000130023
#01618:00000013
#0161b:0023000000130013
#01614:1313
#01619:00130000
#01615:00000023
#01612:0000002300230023
#01616:0023000000000000
#01617:0000002300000000
#01716:0000000000130000
#0171b:0023002300001300
#01714:0000000000000013
#01719:0000000000000013
#01712:00232300
#01817:1313
#0181b:00130000
#01812:1313
#01816:00130000
#01810:41
#0221b:13001313
#02218:0000130000000013
#02212:2313000023130000
#02215:0000231300002313
#0261b:13000013
#02612:0000000013000023
#02615:13
#02618:0000000000000023
#01912:0013000000000000
#01914:00130000
#01916:0000001313000000
#01917:0013000000000000
#0191b:0000001313000000
#01919:00130000
#0201b:0013000000000000
#02019:00130000
#02017:0000001313000000
#02016:0013000000000000
#02012:0000001313000000
#02014:00130000
#0211b:0000001300000000
#02112:0013000000130000
#02117:0013
#02115:00000013
#02118:0013000000000013
#02116:00000000001300000000000000000000
#00016:00001400140000000000001400000000
#00012:2400000024000024
#0001a:2400000024000024
#00216:00000000000000000000001400000000
#00212:2400000024000024
#0021a:2400000024000024
#0041b:1300000013000013
#00415:13
#00412:00001300130000000000001300000000
#00418:0013130000000000
#00416:0013
#00512:2323232313000000
#00516:0000000000130000
#00517:0013
#0051b:0000000000130000
#00513:0000000000000000000000000000000000330000000000330000000000000000
#00514:0000000000000000000000000000000000003333003333000000000000000000
#00518:0000000000000000000000000000000000330000000000330000000000000000
#00519:0000000000000000000000000000000000003333003333000000000000000000
#0061b:13000000000000000000001300000000
#00618:0013130000000000
#00615:13
#00612:0000130013000013
#00617:0013
#00712:0000001300000000
#00715:00000000000000130000130000001300
#00718:00000000000000001300001300000000
#0071b:0013130000000000
#00916:0013000000000000
#0091b:0013000000000000
#00919:00130000
#00917:0000001300000000
#00812:00000013000000000000000000001300
#0081b:13
#00816:0013
#00817:00000000000000000000001300000000
#02318:0013000000000000
#0231b:0000131313001313
#02312:2313000023130000
#02315:0000231300002313
#02412:0013001300000013
#02415:00131313
#0241b:2313000023130000
#02418:0000231300002313
#02512:0013001300002300
#02515:00131300
#02518:0000231300001300
#0251b:2313000023000000
#0381b:0000130000000013
#03817:1313
#03812:1313
#03816:00130000
#03815:0000000000000013
#0401b:1300000013000013
#04016:1313
#04012:0000130000000013
#04017:00130000
#04115:0013000000000000
#04116:0000001400140014
#0411b:00232323
#04112:00232323
#05618:0012142600000000
#05715:0000131300000000
#05718:00000000001300000000000000000000
#05714:0000000000130000
#05717:0000000000000000000000000000000000000013000000000000000013000000
#0571b:00002300000000130000000000000000
#05716:00000013
#05712:2300000000000013
#06212:0013001313002300
#06216:00130000
#06217:0013001300000000
#0621b:00131313
#06218:0000000000000013
#06215:0000000000000023
#0631b:00001300130000230000000000230000
#06317:00000000000000000013000000000013
#06316:0000001300001300
#06315:00130000
#06312:0000000000230000
#0651b:13231300
#06518:0000000000000013
#06516:13131300
#06512:0013001300002300
#06517:0000002300130000
#06515:0000000000000023
#06510:41
#0661b:0013001313001300
#06617:00130000
#06616:0013001300000000
#06612:00131323
#06618:0000000000000013
#06615:0000000000000023
#05818:0000131300000000
#05815:00000000001300000000000000000000
#0581b:2300000000130023
#05812:00002300000000130000000000002300
#05817:00000013
#05816:0000000000000000000000000000000000000013000000000000000000000000
#01118:0000130000130000
#01115:00000000130000000000001300130000
#01112:0013
#0111b:00000000000000000000000000130000
#03215:0000131300000000
#03218:00000000001300000000000000000000
#03212:2300000000130013
#03217:0000000000000000000000000000000000000013000000000000000013000000
#0321b:00002300000000130000000000000000
#03216:00000013
#03318:0000131300000000
#03315:00000000001300000000000000000000
#0331b:2300000000130000
#03312:00002300000000130000000000001300
#03317:00000013
#03316:0000000000000000000000000000000000000013000000000000000000000000
#03417:0013000000000000
#0341b:0000131300130000
#03416:0000000000130000
#03412:0013000000001313
#0271b:0013001300000000
#02712:00131300
#02716:0024242424000000
#05916:0012000000000000
#05914:00140000
#05918:0000000000121426
#05912:0000002600000000
#02852:00000000000000530000000000000000
#02857:00000053
#0285b:0000000000000023
#02856:0000000000000000000000000000000000000023000000000000000000000000
#0295b:00000000000000630000000000000000
#02956:00000063
#02957:0000000000000000000000000000000000000023000000000000000000000000
#02952:0000000000000013
#03152:0063000000000000
#0315b:00630023
#03155:0000006300000000
#03157:0063
#0355b:00000000000000000000005300000000
#03656:5353
#03652:0000530000000053
#0365b:5353
#03657:00530000
#0425b:53000053
#04252:0000005300000000
#04256:13000013
#04257:0000001300000000
#04352:0000000000000056
#04358:0000000000000056
#04852:0052
#05252:0056
#05256:00000022
#05258:00005622
#05352:00000000140000530000000000000000
#0535a:00140000
#05357:00000053
#05356:0000000000000000000000000000000000000023000000000000000000000000
#0535b:0000000000000023
#0545b:00001300000000630000000000001300
#05457:0000000000000000000000000000000000000023000000000000000000000000
#05452:1300000000000013
#05558:0000004600000000
#05552:0000000000000036
#0605a:0014
#06052:00000014
#06152:53535300
#06156:0023002300230000
#06155:0000000000000053
#0615b:0023002300000000
#06157:53535300
#06158:0000000000000053
#06752:56000053
#06757:00000053
#06758:56
#0695b:5300000000000053
#06952:0000005300000000
#07058:0000000000000053
#07052:0000005300000000
#07155:0000005300000000
#07252:0000005300000000
#07257:0000005300000000
#01055:00530000
#01052:00000000000000000000000000530000
#01058:00000000000000000000000000530000
#01355:00000063000000000000000000000000
#0135b:63000043
#01352:0033
#01457:00000000006300000000630000000000
#01456:00000000000000530000000000000000
#0145b:00000023
#0175b:0053005300000000
#01752:00535300
#01756:0000000000230000
#01652:0000000000000053
#0225b:5353
#02258:0000530000000053
#0265b:53
#02652:0063
#01856:00530013
#0185b:0000530000000013
#01852:5353
#01857:5353
#01957:00000013
#01952:0000000000000013
#01956:0053
#0195b:0053
#02152:0053000000000000
#02157:0053
#02156:00000000002300000000000000000000
#0045b:0000000053000053
#00456:0063
#00452:00000000000000000000005300000000
#00552:00005333
#00556:0000000000230000
#00557:00005333
#0055b:0000000000230000
#00956:0023000000000000
#00852:00000063000000000000000000006300
#0085b:63
#00856:0063
#00857:00000000000000000000006300000000
#01255:00530000
#01556:00000000005300000000000000000000
#01557:00000000000000630000000000000000
#02057:0063
#02052:0063
#0205b:0000000000000013
#02056:00000013
#0235b:0053
#02452:0000000000000053
#02455:0053
#0255b:0013
#02552:00000013
#03057:0000001300000000
#03056:0000000000000013
#0305b:0053000000000000
#03052:0000000000530000
#0385b:0000630000000063
#03857:6363
#03852:6363
#03856:00630000
#03958:0053
#0405b:5300000053000063
#04056:5353
#04052:00530000
#04057:00530000
#05658:0000004600000000
#05752:1300000000000023
#0575b:00001300000000630000000000000000
#05756:00000063
#05757:0000000000000000000000000000000000000023000000000000000000000000
#05852:00001300000000530000000000001300
#0585b:1300000000000013
#05856:0000000000000000000000000000000000000023000000000000000000000000
#06252:0053
#0625b:0053
#06255:0000000000000063
#0655b:6353
#06558:0000000000000063
#06556:63636300
#06552:0023002300000000
#06555:0000000000000063
#06557:0000000000230000
#0665b:0063
#06652:0063
#0685b:4343
#06852:00330000
#06856:0053
#00652:0000000053000053
#0065b:00000000000000000000005300000000
#00758:00000000000000000000005300000000
#01158:00630000
#0115b:00000000000000000000000000630000
#01155:00000000000000000000000000630000
#0325b:00000000000000630000000000000000
#03256:00000063
#03257:0000000000000000000000000000000000000023000000000000000000000000
#03252:0000000000000023
#03352:00000000000000530000000000000000
#03357:00000053
#03356:0000000000000000000000000000000000000023000000000000000000000000
#0335b:0000000000000013
#03452:0063000000000000
#0345b:0000000000630000
#03456:0000001300000000
#03457:0000000000000013
#0475c:0052000000000000
#04758:0000001200000000
#04752:0000000000620000
#04756:0000000000000012
#05952:0000003600000000
#05958:0000000000000046
#0043b0:0013
#004370:00000000000000000000002300000000
#004361:0000000013000023
#004321:00000000000000000000003300000000
#0043b0:0000000000000013
#005370:0000002300000000
#005320:00001323
#005330:0000000000000000000000000000000000330000000000330000000000000000
#005340:0000000000000000000000000000000000003333003333000000000000000000
#005360:0000000000330000
#005371:00001323
#005381:0000000000000000000000000000000000330000000000330000000000000000
#005391:0000000000000000000000000000000000003333003333000000000000000000
#0053b1:0000000000330000
#006321:0013
#006361:00000000000000000000002300000000
#0063b0:00000000000000000000001300000000
#006370:0000000000000023
#006321:0000000000000013
#007361:00230000
#007381:00000000000000000000001300000000
#0073b1:0000000000000023
#0083b1:13
#008371:00000023000000000000000000000000
#008320:00000013000000000000000000000000
#008360:0000002300000000
#0083b1:0000001323000000
#008360:0013
#008320:00000000000000000000002300000000
#008371:00000000000000000000001300000000
#0083b1:0000000000000023
#008320:0000000000000013
#009360:0053000000000000
#009320:0000002300000000
#0093b0:0013
#0093a0:00000000000000000033000000000000
#009390:0000000000330000
#009380:00000000000000000000003300000000
#009370:00000023
#009361:0013
#009351:00000000000000000033000000000000
#009341:0000000000330000
#009331:00000000000000000000003300000000
#009321:00000023
#010351:00130000
#010321:0023
#010321:00000000000000000000000000130000
#011351:23
#010380:00000000000000000000000000130000
#0113b0:23
#011380:00130000
#0113b0:0023
#0113b0:00000000000000000000000000130000
#012380:23
#011351:00000000000000000000000000130000
#012321:23
#012351:00130000
#012321:0023
#0133b1:13
#013381:00000023000000000000000000000000
#013350:00000013000000000000000000000000
#013320:0000002300000000
#014370:00000000001300000000000000000000
#0143b0:00000000000000230000000000000000
#014361:00000000000000130000000000000000
#014321:0000000000230000
#014370:0000000000130023
#0143b0:00000053
#015360:00000000001300000000000000000000
#015320:00000000000000230000000000000000
#015371:00000000000000130000000000000000
#0153b1:0000000000230000
#016321:0000000000000013
#017361:0023000000000000
#0173b0:0013000000000000
#017370:00230000
#017321:00130000
#017361:0000002300000000
#0173b0:0000001300000000
#017370:0023
#017321:00001323
#017361:0000000000530000
#018371:1333
#0183b1:0000330000005323
#018320:1333
#018360:00330023
#019361:0013
#019321:0000000000005323
#0193b0:0013
#019370:00000023
#020371:0013
#0203b1:0000000000005323
#020320:0013
#020360:00000023
#021321:0013000023000000
#021361:00000000005300000000000000000000
#021370:0013
#0213b0:00000023
#0223b0:1333
#022380:0000330000230000
#022380:0000000000000013
#0233b0:23
#0233b0:0013
#023380:0000000000230000
#024350:0013
#024320:0000000000230000
#024320:0000000000000013
#025350:23
#0263b0:13
#026370:0023
#026321:0013
#026361:00000023
#027361:0014
#027321:000000000000002c
#028321:00000000000000130000000023000000
#028361:0000000000000000000000000000000000000053000000000000000000000000
#028370:00000013
#0283b0:0000000000000053
#029370:23
#0293b0:00000000000000130000000023000000
#029370:0000000000000000000000000000000000000053000000000000000000000000
#029361:00000013
#029321:0000000000000023
#0303b1:0013000000000000
#030371:0000002300000000
#030321:0000000000130000
#030361:0000000000000023
#031321:0013000000000000
#031351:00230000
#0313b0:00130000
#031380:0000002300000000
#031351:0000001300000000
#031321:0023
#031370:0013
#0313b0:00000053
#032370:23
#0323b0:00000000000000130000000023000000
#032370:0000000000000000000000000000000000000053000000000000000000000000
#032361:00000013
#032321:0000000000000053
#033361:23
#033321:00000000000000130000000023000000
#033361:0000000000000000000000000000000000000053000000000000000000000000
#033370:00000013
#0333b0:0000000000000023
#034320:0013000000000000
#034360:0000002300000000
#0343b0:0000000000130000
#034370:0000000000000023
#0353b0:00000000000000000000001300000000
#035370:0000000000000023
#036360:1333
#036320:0000330000230000
#0363b1:1333
#036371:0000330000230000
#036321:0000000000000013
#037351:0023000000000000
#038371:1333
#0383b1:0000330000230000
#038320:1333
#038360:0000330000230000
#0383b0:0000000000000013
#039370:0023000000000000
#039380:0013
#0393b0:00000023
#040360:1333
#040320:0000330000230000
#0403b1:1333
#040371:0000330000230000
#0403b1:0000000000000013
#041381:0023000000000000
#0423b1:13
#042371:0000002300000000
#042320:0000001300000000
#042360:00000023
#0423b1:00000013
#043381:00000000000000000000002300000000
#043321:0000000000000016
#044361:0000000000000022
#043380:0000000000000016
#044380:0000000000000022
#045340:00000000000000120000000022000000
#0453a1:00000012
#0463a1:22
#0463a1:00000000000000120000000022000000
#046340:00000012
#047340:22
#0473c0:0012000000000000
#047380:0000002200000000
#047320:0000000000120000
#047360:0000000000000022
#048320:0012
#048360:00000022
#049360:12220000
#049380:00001222
#050360:12220000
#051340:1222
#0513a1:0000000012000022
#052321:00000000000000001600000000000026
#052341:00000000000000000034000000003400
#052351:00000000000000000000330000330000
#052361:00000000000000000000003232000000
#052380:00000000000000001634333232333426
#053320:00000000000000130000000023000000
#053360:0000000000000000000000000000000000000053000000000000000000000000
#053371:00000013
#0533b1:0000000000000053
#054371:23
#0543b1:00000000000000130000000023000000
#054371:0000000000000000000000000000000000000053000000000000000000000000
#055321:0016000000000000
#055361:0000002200000000
#055381:0000000000160022
#056321:0016000000000000
#056361:0000002200000000
#0563b1:0000000000130000
#056371:0000000000000023
#056340:00000013
#056320:0000000000000023
#0573b0:00000000000000130000000023000000
#057370:0000000000000000000000000000000000000053000000000000000000000000
#057361:00000013
#057321:0000000000000053
#058361:23
#058321:00000000000000130000000023000000
#058361:0000000000000000000000000000000000000053000000000000000000000000
#059381:0016002200000000
#059321:0000000000160000
#059361:0000000000000022
#060381:0016002200000000
#061321:13333323
#061361:0053005300530000
#061370:13333300
#0613b0:0053005300230000
#061381:0000000000000013
#0623b1:23
#061350:0000000000000013
#062320:23
#062320:0013
#062350:0000000000230000
#0623b1:0013
#062381:0000000000230000
#062351:0000000000000013
#063321:0023000000000000
#064371:000000000000123200000000000000000000000000000000
#064351:000000000000000032320000000000000000000000000000
#064341:000000000000000000003232000000000000000000000000
#064321:0022
#065361:13333300
#065321:0053005300230000
#0653b0:13
#065370:0023000000000000
#0653b0:00001323
#065370:0000000000530000
#065350:0000000000000013
#066320:23
#065381:0000000000000013
#0663b1:23
#0663b1:0013
#066381:0000000000230000
#066320:0013
#066350:0000000000230000
#067320:16
#067360:0022
#067381:1622
#067321:00000013
#067361:0000000000000023
#067370:00000013
#0673b0:0000000000000023
#068360:0013
#068320:00000023
#0693b0:13
#069380:0000002300000000
#069321:0000001300000000
#069351:0000000000000023
#0693b0:0000000000000013
#070380:0000002300000000
#070321:0000001300000000
#070351:0000000000000023
#070380:0000000000000013
#0713b0:0000002300000000
#071351:0000001300000000
#071321:0000000000000023
#072321:0000001300000000
#072361:00000023
#072370:0000001300000000
#0723b0:00000023
