This file was generated by Ched 2.7.0.0.
#TITLE ""
#ARTIST ""
#DESIGNER ""
#DIFFICULTY 0
#PLAYLEVEL
#SONGID ""
#WAVE ""
#WAVEOFFSET 0
#JACKET ""
#REQUEST "ticks_per_beat 480"
#00002: 4
#BPM01: 125
#00008: 01
#TIL00: ""
#VOLUME: ""
#HISPEED 00
#MEASUREHS 00
#0281b:00130000
#02815:0023001300000000
#02818:23000000000000130000000000001300
#02812:00000013
#02810:41
#0301b:0013000000000000
#03018:0000130000000013
#03015:0000001300001300
#03012:0000000000130000
#03515:00000000130000002300001300000000
#03518:00001300000000000023000000000000
#0351b:00000000000013000000001300000000
#03612:0000130000000013
#0361b:1300000013130000
#03615:1300000013130000
#03618:00130000
#03610:41
#03715:0000001300000013
#03712:0000000000130000
#0371b:00230023
#03718:0023
#04212:13000013
#0421b:0000001300000000
#04218:23
#05318:1300001300000013
#05315:00001300000000130000000000000000
#0531b:00230013
#05312:00230000
#0531f:00210000
#06014:0000000000140000
#06012:0013000000000014
#06018:00130014
#0601a:0014
#06015:0000001300000000
#06918:00000013
#0691b:1300000000000013
#06912:0000001300000000
#07015:00130000
#0701b:00000013
#07018:0000000000000013
#07012:0000001300000000
#07112:0000130000000013
#07115:0000001300000000
#07118:0000000000000013
#0711b:00000013
#07218:0013000000000000
#07215:00130000
#07212:0000001300000000
#01015:00000000130000000000001300000000
#01018:00000000000000000000130000130000
#01012:23000000000000000000000000130000
#0101b:23
#01010:41
#01215:00000000000000000000001300001300
#01218:00000000000000000000130000000013
#0121b:00000013
#01212:00130000
#01318:0013
#01315:00000013000000000000000013000000
#01312:13
#01412:1313130000000013
#01418:00130013000000000000000000001300
#0141b:00000000000000130000000000000000
#01518:00000013
#0151b:1313130000000000
#01515:00130013000000000000000000000000
#01512:00000000000000130000000000002300
#01618:0000002300001300
#0161b:0023000000130013
#01615:0023000000002300
#01612:0000002300230023
#01718:0000230023000013
#0171b:0023002300000000
#01715:0023002300000000
#01712:00232300
#01815:1313
#01812:00130000
#01818:0000000000000013
#01810:41
#01912:0013000000000000
#01915:0000130000000013
#01918:0000001300000000
#0191b:0013
#00014:0014140000000000
#00016:00000000000000000000001400000000
#00018:24
#0001a:0024
#00012:0000000000000024
#00216:00000000000000002400001400000000
#00212:2400000000000024
#0021a:2400000000000024
#00418:1300000013000013
#00415:0013000000000000
#0041b:00130000
#00412:0000130000000013
#00618:13
#00615:0013000013000000
#0061b:0000130000000013
#00612:00130000
#00715:00000000000013001300001300000000
#00718:00000000000000130000130000000000
#00818:1300001300000013
#00812:1300001300000013
#00815:0013
#0081b:0013
#02515:00130000
#02518:0000001300000000
#0251b:0023
#02512:00000023
#06115:1300000000130013
#0611b:1300000013000023
#06112:00131300
#06118:00130013
#06212:0013000013002300
#06214:00130000
#06216:0000001300000000
#06217:0013000000000000
#06219:00130000
#0621b:0000001300000013
#06218:00001313
#06215:0000000000000023
#03215:0000130000000013
#03218:0000001300001300
#03212:23000000000000130000000000000000
#0321b:0023000000000000
#03412:0013000000000000
#03415:0000130000000013
#03418:0000001300001300
#0341b:0000000000130000
#00518:00000000000000001333003300000000
#0051b:0000000000130000
#00512:00000000000000001333003300000000
#00515:0000000000130000
#0091b:0013000000000000
#00915:0013000000000000
#00912:00331300
#00918:00331300
#01118:00000000130000000000001300000000
#01115:00000000000000000000130000130000
#0111b:00000000000000000000000000130000
#0201b:0013000000000000
#02018:0000130000000013
#02015:0000001300000000
#02012:0013
#02115:0013000000000013
#02118:0000001313000000
#02218:1300000000000013
#0221b:00130000
#02215:00000013
#02312:0013000000000000
#02315:00131300
#02318:0000001300000000
#0241b:0013000000000000
#02418:00130013
#02415:0000001300000013
#02412:0013
#02618:1300000000000023
#02612:0000000000000023
#02912:00130000
#02918:0023001300000000
#02915:23000000000000130000000000001300
#0291b:00000013
#03112:0013000000000000
#03115:00130000
#03118:0000001300000000
#0311b:0013
#03318:0000130000000013
#03315:0000001300001300
#0331b:23000000000000130000000000000000
#03312:0023000000000000
#0381b:0000130000000013
#03812:1300000013130000
#03818:1300000013130000
#03815:00130000
#04012:0000130000000013
#0401b:1300000013130000
#04015:1300000013130000
#04018:00130000
#04115:0000001300000013
#04112:0000000000130000
#0411b:00230023
#04118:0023
#0451b:13
#04515:0013001300000013
#04518:00000000130000130000000013000000
#0451f:11
#04612:13
#04618:0013001300000013
#04615:00000000130000130000000013000000
#0471b:0013000000000000
#04718:0000130000000013
#04715:0000001300001300
#04712:0000000000130000
#0481b:0013000000000000
#04815:00130000
#04818:0000001300000013
#04812:0013
#0491b:00130000
#04916:00130000
#04919:0000001300000013
#04914:0000001300000013
#04912:00002313
#04917:00002313
#05012:0013
#05015:0000000000130000
#05018:00000013
#0501b:2300000000000013
#05016:23
#05115:00131300
#05112:0000001300000013
#05118:0000000000130000
#0511b:0000000000001313
#05412:0000130000000023
#05415:2300001300001300
#05418:00000000000000130000000000000000
#0541b:0023000000000023
#05410:41
#05518:0013002600001300
#05515:0000130000130000
#05512:0000000000000026
#05618:0013002600001300
#05615:0000130000130000
#05612:00000013
#05715:2300130000000013
#05718:0000001300001300
#05712:00000000000000130000000000000000
#0571b:0023000000000000
#05818:23130000
#05815:0000001300001300
#0581b:00000000000000130000000000002300
#05812:0023000000000023
#05915:0013000000001300
#05918:0000130000130026
#05912:0000002600000000
#0641b:13
#06412:13000033333333330000000000000000
#06415:0013000000000000
#06518:1300002300000013
#0651b:0013
#06512:0000000013000023
#06515:00230023
#06510:41
#0661b:0013000013002300
#06619:00130000
#06617:0000001300000000
#06616:0013000000000000
#06614:00130000
#06612:0000001300000013
#06615:00001313
#06618:0000000000000023
#06718:0000000000130000
#06715:00000013
#06818:0013000000000000
#0681b:0000001300000000
#06815:00230000
#06812:2323
#0271b:0013001300000000
#02718:00131300
#02715:0023002300000000
#02712:00232300
#04318:0000000000000026
#03912:00230000
#03915:0023
#03918:0000002300000000
#02858:00000000000000530000000000000000
#03555:00000000000000000000005300000000
#0355b:00000000000000000000005300000000
#03652:0000000000000053
#04252:63000063
#0425b:0000006300000000
#05352:00130000
#0535b:00130000
#05355:00000000000000530000000000000000
#05558:0000004600000000
#05552:0000000000000036
#0605a:0014
#06058:00000014
#0695b:5300000000000053
#06952:0000005300000000
#07058:0000000000000053
#07052:0000005300000000
#07155:0000005300000000
#07252:0000005300000000
#01055:00530000
#01052:00000000000000000000000000530000
#01058:00000000000000000000000000530000
#01358:0043
#01355:00000053000000000000000033000000
#01352:53
#0145b:00000000000000530000000000000000
#01758:0053
#01752:0053
#0195b:0053
#01955:0000000000000013
#00458:0000000053000063
#00452:0000000000000063
#00858:5300000000000063
#00852:5300000000000063
#00855:0063
#0085b:0063
#01855:5353
#01852:00530000
#01858:0000000000000013
#0255b:0013
#02552:00000013
#05455:13
#0545b:0013000000000013
#05458:00000000000000630000000000000000
#05452:0000000000000013
#05658:0000004600000000
#05755:13
#0575b:0013000000000000
#05752:00000000000000530000000000000000
#05852:0013000000000013
#0585b:00000000000000630000000000001300
#05858:13
#06155:0000000000000053
#0615b:0000000000000063
#06252:0053
#06255:0000000000000063
#06258:0053
#0625b:0000000000000053
#00655:0053
#0065b:0000000000000053
#00755:00000000000000000000005300000000
#00558:00005333
#0055b:0000000000230000
#00552:00005333
#00555:0000000000230000
#0095b:0023000000000000
#00955:0023000000000000
#01158:00630000
#0115b:00000000000000000000000000630000
#01155:00000000000000000000000000630000
#01252:00630000
#01552:00000000000000630000000000000000
#02052:0063
#02058:0000000000000013
#02155:0053000000000000
#02258:5300000000000053
#0225b:00530000
#02355:0053
#02455:0000000000000053
#02658:53
#02752:0053
#02758:0053
#02955:00000000000000630000000000001300
#03055:0000001300000000
#03058:0000000000000013
#0315b:0063
#03252:00000000000000630000000000000000
#0335b:00000000000000530000000000000000
#03358:0000000000000013
#03458:0000001300000000
#03455:0000000000000013
#0385b:0000000000000063
#03955:0053
#04052:0000000000000053
#04558:00000000000000530000000000000000
#04655:00000000000000630000000000000000
#04755:0000001300000000
#04758:0000000000000013
#04852:0053
#0505b:0000000000000053
#0515b:0000000000000053
#05152:0000000000000053
#05952:0000003600000000
#05958:0000000000000046
#06455:0053000000000000
#06558:0000000000000063
#06552:0000000000000053
#0665b:0063
#06655:0063
#06652:0000000000000063
#06658:0000000000000053
#06755:00000053
#06852:1313
#06855:00130000
#004380:0013
#0043b0:00000000000000000000002300000000
#004320:0000000000000013
#005350:0000002300000000
#004381:0000000000000013
#0053b1:0000002300000000
#005381:00000000000000001333003323000000
#0053b1:0000000000330000
#005320:00000000000000001333003323000000
#005350:0000000000330000
#006350:0013
#006320:00000000000000000000002300000000
#0063b0:0000000000000013
#007380:00230000
#007350:00000000000000000000001300000000
#007320:0000000000000023
#008380:13
#0083b0:00000023000000000000000000000000
#008321:13
#008351:00000023000000000000000000000000
#008351:0013
#008321:00000000000000000000002300000000
#0083b0:0013
#008380:00000000000000000000002300000000
#008380:0000000000000013
#0093b0:0033000000000000
#009380:0000332300000000
#008321:0000000000000013
#009351:0033000000000000
#009321:0000332300000000
#010351:00130000
#010321:0023
#010321:00000000000000000000000000130000
#011351:23
#010380:00000000000000000000000000130000
#0113b0:23
#011380:00130000
#0113b0:0023
#0113b0:00000000000000000000000000130000
#012380:23
#011351:00000000000000000000000000130000
#012321:23
#012321:00130000
#012351:0023
#013321:1300002300000000
#013351:00000033000000000000000000000000
#014381:00000000001300000000230000000000
#0143b1:00000000000000330000000000000000
#015351:00000000001300000000230000000000
#015321:00000000000000330000000000000000
#017321:0013
#017351:00000023
#017380:0013
#0173b0:00000023
#018350:1333
#018320:00330023
#0193b0:0013
#019380:00000023
#020320:0013
#020350:00000023
#021350:0013000000000000
#021320:0000003323000000
#022380:1323
#0223b0:00330000
#022380:0000000000000013
#0233b0:23
#023350:0013
#023320:0000000000003323
#024350:0000000000000013
#025320:0023000000000000
#026380:13
#0263b0:00000023
#027380:0013
#0273b0:0000000000000023
#027321:0013
#027351:0000000000000023
#028381:00000000000000130000000000000000
#0283b1:0000000000230000
#029351:00000000000000130000000000000000
#029321:0000000000230000
#0313b1:0013
#032381:23
#032321:00000000000000130000000000000000
#032351:0000000000230000
#0333b1:00000000000000130000000000000000
#033381:0000000000230000
#035351:00000000000000000000001300000000
#035321:0000000000000023
#0353b0:00000000000000000000001300000000
#035380:0000000000000023
#036320:0000000000000013
#037350:0023000000000000
#0383b0:0000000000000013
#039380:0023000000000000
#039350:0013
#039320:00000023
#040320:0000000000000013
#041350:0023000000000000
#042320:13
#042350:0000002300000000
#0423b1:0000001300000000
#042381:00000023
#042320:00000013
#043350:00000000000000000000002300000000
#043320:0000000000000016
#044350:0000000000000023
#043381:0000000000000016
#044381:0000000000000023
#045381:00000000000000130000000000000000
#0453b1:0000000000230000
#046351:00000000000000130000000000000000
#046321:0000000000230000
#048321:0013
#048351:00000023
#0503b1:0000000000000013
#051381:0023000000000000
#051321:0000000000000013
#052351:00000023
#0513b0:0000000000000013
#052380:00000023
#053350:00000000000000130000000000000000
#053320:0000000000230000
#054380:00000000000000130000000000000000
#0543b0:0000000000230000
#057320:00000000000000130000000000000000
#057350:0000000000230000
#0583b0:00000000000000130000000000000000
#058380:0000000000230000
#0613b0:0000000000000013
#062380:23
#061351:0000000000000013
#062321:23
#062321:0013
#062351:0000000000230000
#062380:0013
#0623b0:0000000000230000
#062350:0000000000000013
#063320:00000023
#0623b1:0000000000000013
#063381:00000023
#064351:0013000000000000
#064321:00000033333333333300330033003300
#064331:00000000000000000033003300330033
#065321:23
#065321:0000000000000013
#066351:23
#065380:0000000000000013
#0663b0:23
#0663b0:0013
#066380:0000000000230000
#066351:0013
#066321:0000000000230000
#066381:0000000000000013
#0673b1:0023
#066320:0000000000000013
#067350:0023
#067350:00000013
#068320:23
#0693b0:13
#069380:00230000
#069320:0000001300000000
#069350:0000000000230000
#0693b0:0000000000000013
#070380:0023000000000000
#070320:0000001300000000
#070350:0000000000230000
#070380:0000000000000013
#0713b0:0023000000000000
#071350:0000001300000000
#071320:0000000000230000
#072320:0000001300000000
#072350:00000023
