This file was generated by Ched 2.7.0.0.
#TITLE ""
#ARTIST ""
#DESIGNER ""
#DIFFICULTY 0
#PLAYLEVEL
#SONGID ""
#WAVE ""
#WAVEOFFSET 0
#JACKET ""
#REQUEST "ticks_per_beat 480"
#00002: 4
#BPM01: 125
#00008: 01
#TIL00: ""
#VOLUME: ""
#HISPEED 00
#MEASUREHS 00
#0281b:23000000130000130000000013000000
#02818:00002300001300000000000000000000
#02815:2300001300000012
#02819:0000000000120000
#02812:00002300000000130000000000000000
#02816:0000000000130000
#02817:0000000000000013
#02810:41
#02912:23000000130000130000000013000000
#02915:00002300001300000000120000000000
#02918:0000001300000000
#0291b:00002300000000130000000000000000
#02917:0000000000130000
#02919:0000000000000012
#0301b:0013000000001300
#03017:0000130000130013
#03016:0013001300001300
#03012:0000130000130000
#03118:0016001600001200
#03112:0016160016000000
#0311a:0000000000120000
#03116:0000000000000012
#03416:0013000000001300
#03412:0000130000130013
#03417:0000130000130000
#0341b:0013001300001300
#03518:0016001200000000
#03512:00001600160000000000001300000000
#0351b:00000000000000000000001300000000
#03515:0000000000000013
#0351a:00000000000000001212000000000000
#03514:00000000000000002222000000000000
#03612:0000120000120013
#03616:00001212
#0361b:1313
#03617:0000130000130013
#03610:41
#03712:0000160026001613
#03718:0000261316002600
#0371b:0013000000000000
#03715:0000000000130000
#03716:13
#0381b:0000000000000013
#03816:0000130000130013
#0381c:0000120000120000
#03818:12001212
#03812:1313
#03915:00000000000023001300000000130000
#0391b:0000230000131300
#03918:0000000023000013
#03912:00002300000000000000000000000013
#03917:13
#04118:0000160026131600
#04112:0013260016002600
#04115:0000001300000000
#0411b:0000000000000013
#04117:13
#04218:1600002200001600
#04212:0000001600000000
#04216:22000022
#04312:12000000000000000000001200001600
#04314:00000012000000001200000000000000
#04316:0000001200000000
#04318:0000000000000026
#0451c:12
#04516:12000000001200000000000000000000
#04518:0012001200000000
#04512:0012000000000000
#04514:00120000
#04517:0000000000120012
#0451a:00000000000000120000000000000000
#0451f:11
#04612:12
#04616:0012001200000000
#0461c:0012000000000000
#0461a:00120000
#04618:00000000001200000000000000000000
#04617:0000000000120012
#04614:00000000000000120000000000000000
#0471c:1200000000000012
#04716:0012000000000000
#04714:00120000
#04712:0000001212000000
#04718:0000000012120000
#0471a:00000012
#04812:0012001200001200
#0481c:12121200
#04814:0000000000120012
#04816:12
#04818:0012000000000000
#0491a:0000120000000012
#04918:0000001216000000
#04914:0000001200001200
#04916:0000000000000012
#04912:1622
#0491c:22
#05012:1612
#05018:0000120000120012
#05014:0000000000120000
#05016:00001212
#0501a:00000012
#0501c:2200000000000012
#05118:00001200000000001600000000000012
#05112:1600000000120000
#0511a:00120000
#0511c:0000001200000000
#05114:00000012
#05116:0000000000000012
#0521a:00141400000000000000000000000000
#05218:00000000141400001634333212333400
#05216:00000000000000140000003212000000
#05212:28000026000024002600000000000000
#05214:00000000000000000034000000003400
#05215:00000000000000000000330000330000
#05319:12
#05315:0012000000000000
#05316:0000001400120012
#05318:0000260000120012
#0531a:00000000000000140000000014000000
#05312:00000000260000140000000000000000
#0531f:00210000
#05412:23000000140000140000000014002400
#05416:00001400001414000000120000001400
#0541a:00000000000000140000000000000000
#05418:0000000000120000
#0541b:0023000000000000
#05410:41
#05516:0014141400141414
#0551a:00000012001224000000000000000000
#05514:00000000000000000000001200120000
#05512:0000000000000024
#05616:0014141400141400
#05612:0000000000140000
#0561a:00000012001224000000000014000000
#05716:14001400001414000000120000001200
#05718:0000000000120012
#05712:23000000140000140000000014000000
#0571a:00000000000000140000000000000000
#0571b:0023000000000000
#0581a:00000000140000140000000014002400
#05816:00001400001414000000120000001400
#05818:0000000000120000
#05812:00002300000000140000000000000000
#0581b:23
#05916:00001412141214000000140014001400
#05918:00000000000000000000001200120000
#05912:0000002400000000
#0591a:0000000000000024
#06016:00001412141214000000140000001400
#06012:00001414
#0601a:00001414
#06112:1313
#06116:0013001200130023
#06117:00130000
#0611b:0000001300000013
#0611c:1200000000120000
#0611a:0012000000000000
#06118:00000012
#06314:00001200000012000000000000220000
#06316:0000120000220000
#0631a:00001200000000000012000000000000
#0631c:00000000120000000000220000000012
#06312:13000000000000220000000012000000
#06317:13
#06318:00000000000000220000000000220000
#06414:0012000000000000
#0641a:220000000000000000000000000000003200000000000000000000000000000000000000000000000000000000120000
#06416:22
#06412:00000022000000000000000000000000
#06418:000000000000000000220000000000000000000032000000000000000000000000000000000000000000000000000000
#0641b:000000000000003200000000000000000000000000000000
#06419:0000003200000000
#06417:000000000000000000000032000000000000000000000000
#06714:0000000000130000
#06719:0000000000130000
#06717:00130013
#06712:00130013
#0671b:13
#06716:23
#06816:0014001400000000
#06818:26262613
#06812:2600260026000013
#06916:1300001300001300
#06912:0000130000130000
#06917:0000130000130013
#0691b:13000013
#07016:0013001300001300
#07012:00130000
#0701b:0013000000001300
#07017:0000130000130013
#07216:0012000000000000
#07214:00140000
#07212:0000001600000000
#0721c:0012000000000000
#0721a:00140000
#07218:0000001600000000
#01015:0000130000130000
#01018:00000000130000000000001300000000
#0101b:00000000000000001300000000130000
#01012:24000000000000000000001300000000
#01016:00000000000000000000000000130000
#0101a:24
#01010:41
#01118:2600130000130000
#01115:00000000130000000000001300000000
#01112:00000000000000001300000000130000
#0111b:00000000000000000000001300000000
#01117:00000000000000000000000000130000
#01215:0000130000130013
#01218:00000000130000000000001300000013
#0121b:0000000013000013
#01212:26000000000000000000001300000000
#01312:1300001300001300
#01318:00000013000000000000000000000000
#01316:0000000013130000
#0131b:0013
#01319:000000000000000000000000000000000000000000120012
#01315:000000000000000000000012
#01317:00000013
#01412:13000000001300000000000000001300
#01415:00130000120000000000000000000000
#01418:0013000000000000
#0141b:00000013000000000000000013000000
#01417:00000000001300000000130000000000
#01416:00000000000000130000000000000000
#0151b:13000000001300000000000000001300
#01518:00130000000000000000000000000000
#01515:0013000000001200
#01512:00000013000000000000130000000000
#01519:00120012
#01516:00000000001300000000000000000000
#01517:00000000000000130000000000002200
#01617:1313
#01612:0013002300230023
#01616:00130000
#0161b:0023001300230013
#01618:00000013
#01615:00000023
#01716:0000000000130013
#0171a:00000000000000000000001212000000
#0171b:0023002300000013
#01712:00232300
#01817:1313
#01812:13130000
#01816:0013001300001318
#0181b:0013001300000000
#01810:41
#0221b:13131300
#02218:0013000000001300
#02215:0012001200000000
#02216:0000000000120012
#02212:22220000
#02213:00002222
#0241b:1313001300001300
#02418:00131300
#02415:0012001200000000
#02416:0000000000120012
#02412:22220000
#02413:00002222
#02512:1313001300001300
#02515:00131300
#02518:0012001226002600
#0251c:22220000
#02618:16
#02612:0000000016000023
#0261b:00000013
#02617:0000000000000023
#0271a:0014001400000000
#02712:00141400
#02716:0024242424000000
#01912:0013001300000018
#01916:00131300
#01917:0013001300000000
#0191b:00131300
#02017:00131300
#02012:0000130013000013
#0201b:0013001300000013
#02016:0013001300000000
#0211b:0000001300000000
#02112:0013000012000000
#02117:0013
#02114:0000000000120000
#02116:00000012
#02115:0000000000000013
#02118:0000000000000013
#00016:00001400140000000000001400000000
#00012:2600000026000026
#00018:2600000026000026
#00216:00000000000000000000001400000000
#00212:2600000026000026
#00218:2600000026000026
#00418:1313000000000000
#00415:00130000000000000000000000000000
#00412:00001300130000000000001300000000
#0041b:0000130013000013
#00417:0000000000000000000000000000000000000013000000000000000000000000
#00416:0000000000000000000000000000000013000000000000000013000000000000
#00517:0000000013000000000000000000000000330000130000330000000000000000
#00512:22221300
#00516:0013
#0051b:0000000000130000
#00514:0000000022000000000000002200000000003333003333000000000000000000
#00513:0000000000000000000000000000000000330000000000330000000000000000
#00518:0000000000000000000000000000000000003333003333000000000000000000
#0061b:13000000000000001300001300000000
#00618:0013130000000000
#00612:1300000013000013
#00615:0000131300000000
#00616:0000000000000000000000000000000000000013000000000000000000000000
#00617:0000000000000000000000000000000000000000000000000013000000000000
#00716:00130000000012000000120000001200
#0071b:1313000000000000
#00718:00000000130000120000001200000000
#0071a:0000000012000012
#00712:0012
#00714:00000000000000000000001200000000
#00812:13000000000013000000001300000000
#00816:0000001300000000000000000000000000000000000000000013000000000000
#0081b:13000013000000001300000000001300
#00817:0000000000000000001300000000000000000013000000000000000000000000
#00917:0013000000000000
#00912:1214
#00915:0012000000000000
#00913:00120000
#00916:0000001200140000
#00914:00000000000000000014000000000000
#00918:00000000000000000000001400000000
#0091a:00000014
#0401b:0000000000000013
#04016:0000130000130013
#0401c:0000120000120000
#04018:12001212
#04012:1313
#02319:0012001200000000
#02318:0000000000120012
#02315:0013
#02312:13000013
#0231c:22220000
#0231b:00002222
#06212:0013000013000000
#06219:0000130000000013
#06214:0000130000000013
#06216:0000001300000000
#0621b:0000001300002300
#06217:0013
#0651b:1313
#06517:0013000000130013
#06516:00130012
#06512:1200001300120013
#06514:0012000000000000
#06518:0000001200000000
#06510:41
#0661b:0013000013000000
#06614:0000130000000023
#06619:0000130000000013
#06617:0000001300000000
#06612:0000001300002300
#06616:0013
#03212:23000000130000130000000013000000
#03215:00002300001300000000120000000000
#03218:2300001300000000
#03219:0000000000000012
#0321b:00002300000000130000000000000000
#03217:0000000000130000
#03216:0000000000000013
#0331b:23000000130000130000000013000000
#03318:00002300001300000000000000000000
#03315:0000001300000012
#03319:0000000000120000
#03312:00002300000000130000000000000000
#03316:0000000000130000
#07116:0013001300001300
#07112:00130000
#07117:0000130000130013
#0711b:00000013
#02852:00000000000000530000000000000000
#0285b:00000053
#02857:0000000000000023
#02856:0000000000530000
#0295b:00000000000000630000000000000000
#02952:00000063
#02956:0000000000000013
#02957:0000000000530000
#0305b:0053004300000000
#03057:00230000
#03052:0000000000630033
#03056:00000023
#03158:0056005600000000
#03152:00565600
#03456:0053004300000000
#03452:00230000
#03457:0000000000630033
#0345b:00000023
#03558:0056000000000000
#03552:00560000
#0355b:00000000000000000000005300000000
#03555:0000000000000053
#0365b:5353
#03657:0000530000530053
#03652:0000000000000053
#03752:00161616
#03758:00161616
#03756:23
#0385b:0000000000000063
#03856:0000630000630063
#03852:6363
#03955:0000001353000000
#03957:23
#03952:0013000000000000
#0395b:00130000
#03958:0013
#04158:00161616
#04152:00161616
#04157:23
#04258:5600001200005600
#04252:0000005600000000
#04256:12000012
#04352:0000000000000056
#04358:0000000000000056
#0475c:52
#04752:0062
#04758:0000001200000000
#04756:0000000000000012
#04852:0062006200000000
#0485c:00626200
#04958:0056
#04952:56
#05052:56
#05158:0056
#05152:56
#05256:00000022
#05258:00006622
#05252:0056
#05352:00000000160000540000000000000000
#05358:0000160000000022
#0535a:00000054
#05356:0000000000220000
#0545a:00000000000000640000000000000000
#05458:0000000000220000
#05456:0000000000000054
#05452:3300000000000034
#0545b:0043000000000000
#0555a:0000004400000000
#05556:0000006400000054
#05552:0000000000000034
#0565a:0000004400005400
#05656:0000006400545400
#05652:0000000000540000
#0575a:00000000000000640000000000000000
#05752:33000064
#05758:0000000000220000
#05756:0000000000000022
#0575b:0043000000000000
#05852:00003300000000540000000000000000
#05856:0000000000220064
#0585a:0000000000000044
#0585b:43
#05956:0000005400000064
#05952:0000003400000000
#0595a:0000000000000044
#0605a:0014
#06052:00000014
#06152:5353
#06156:0023000000230000
#06157:00530000
#0615b:0000002300000053
#06752:00230053
#06757:00230053
#0675b:53
#06756:53
#06852:00365600
#06858:4656
#0695b:5300001300000000
#06957:0000530000000053
#06956:0000005300005300
#06952:0000000000530013
#07057:0000530000000063
#0705b:0053001300000000
#07056:0000005300005300
#07052:0000000000000013
#07252:0000005600000000
#07258:0000005600000000
#01055:00530000
#01056:00000000000000000000000000530000
#01158:00630000
#01157:00000000000000000000000000630000
#01255:00530000
#01358:00000053000000000000000000000000
#01352:53000033
#0135b:0043
#01457:00000000006300000000630000000000
#01456:00000000000000530000000000000000
#0145b:00000023
#01556:00000000005300000000000000000000
#01557:00000000000000630000000000000000
#0155b:0000000000000053
#01657:2323
#01652:0063003300000053
#01656:00230000
#0165b:0043005300430000
#0175b:0053005300000000
#01752:00535300
#01756:0000000000230000
#0225b:53535300
#02258:0023000000005300
#0245b:0063006300006300
#02458:00636300
#02552:0053005300005300
#02555:00535300
#02558:00001616
#02658:56
#02652:0066
#0275a:0044004400000000
#02752:00343400
#02756:0024
#01956:0053
#01952:0000000000001318
#0195b:0053
#02057:0063
#02052:0000000063000013
#02056:00000013
#0205b:0000000000001353
#02152:0053000000000000
#02157:0053
#00052:1600000016000016
#00058:1600000016000016
#00252:1600000016000016
#00258:1600000016000016
#0045b:0000000053000053
#00457:0000000000000000000000000000000000000023000000000000000000000000
#00452:00000000000000000000006300000000
#00456:0000000000000000000000000000000000000000000000000023000000000000
#00557:0023000000230000
#00552:00005333
#00556:00005333
#0055b:0000000000230000
#00652:0000000063000063
#00656:0000000000000000000000000000000000000023000000000000000000000000
#0065b:00000000000000000000005300000000
#00657:0000000000000000000000000000000000000000000000000023000000000000
#00756:00230000000000000000000000000000
#00852:63000000000053000000006300000000
#00856:0000002300000000000000000000000000000000000000000023000000000000
#0085b:00000053000000005300000000005300
#00857:0000000000000000002300000000000000000023000000000000000000000000
#00957:0023000000000000
#01852:53530000
#01857:5353
#01856:0023002300000018
#0185b:0023000000001300
#0405b:0000000000000063
#04056:0000630000630063
#04052:6363
#02355:0053
#02352:00000053
#06252:0053
#0655b:6363
#06557:0023000000230000
#06556:00630000
#06552:0000002300000063
#0665b:0063
#0325b:00000000000000630000000000000000
#03252:00000063
#03257:0000000000630000
#03256:0000000000000023
#03352:00000000000000530000000000000000
#0335b:00000053
#03356:0000000000630000
#03357:0000000000000013
#07157:00630000
#0715b:0000001300000000
#07156:0000005300005300
#07152:0000000000000013
#0043b0:00000000000000001300002300000000
#004370:0000000000000000000000000000000000000053000000000000000000000000
#004321:00000000000000000000001300002300
#004361:0000000000000000000000000000000000000000000000000053000000000000
#0043b0:0000000000000013
#005370:0053000000000000
#0053b0:0000002300000000
#005320:00001323
#005330:0000000000000000000000000000000000330000000000330000000000000000
#005340:0000000000000000000000000000000000003333003333000000000000000000
#005370:0000000000330000
#005361:00001323
#005371:0000000000000000000000000000000000330000000000330000000000000000
#005381:0000000000000000000000000000000000003333003333000000000000000000
#0053b1:0000000000330000
#006321:00000000000000001300002300000000
#006361:0000000000000000000000000000000000000053000000000000000000000000
#0063b0:00000000000000000000001300002300
#006370:0000000000000000000000000000000000000000000000000053000000000000
#006321:0000000000000013
#007361:00530000000000000000000000000000
#007321:00230000
#008321:13000023000000000000000000000000
#008361:0000005300000000000000000000000000000000000000000000000000000000
#0083b0:00000013000023000000000000000000
#008370:0000000000000000005300000000000000000000000000000000000000000000
#008321:0000001300000000
#008361:0023
#0083b0:00000000000000001300002300000000
#008370:0000000000000000000000000000000000000053000000000000000000000000
#008321:00000000000000000000001300002300
#008361:0000000000000000000000000000000000000000000000000053000000000000
#0083b0:0000000000000013
#009370:0053000000000000
#0093b0:0000002300000000
#010350:00130000
#010320:0023
#010360:00000000000000000000000000130000
#011320:23
#011380:00130000
#0113b0:0023
#011370:00000000000000000000000000130000
#0123b0:23
#012350:00130000
#012320:0023
#013320:13
#013350:00000023000000000000000000000000
#013381:00000013000000000000000000000000
#0133b1:0000002300000000
#014371:00000000001300000000000000000000
#0143b1:00000000000000230000000000000000
#014360:00000000000000130000000000000000
#014320:0000000000230000
#014371:0000000000130023
#0143b1:00000053
#015361:00000000001300000000000000000000
#015321:00000000000000230000000000000000
#015370:00000000000000130000000000000000
#0153b0:0000000000230000
#0153b0:0000000000000013
#016370:53
#0163b0:0023000000000000
#016321:0013002300000000
#016361:00530000
#0163b0:0000001300230000
#016370:0053
#016320:0000000000000013
#017360:0023000000000000
#0173b1:0013000000000000
#017371:00230000
#017320:00130000
#017360:0000002300000000
#0173b1:0000001300000000
#017371:0023
#017320:00001323
#017360:0000000000530000
#018370:13230000
#0183b0:0053000000000000
#018321:13332300
#018361:0053005300000000
#018370:0013
#0183b0:00000023
#019360:0013
#019320:00000023
#0193b1:0013
#019371:00000023
#020371:0013
#0203b1:00000023
#020320:0013
#020360:00000023
#0203b0:0000000000000013
#021370:0023000000000000
#021321:0013000000000000
#021361:0000002300000000
#021371:0013
#0213b1:00000023
#0223b1:13330000
#022381:0053002300000000
#0223b1:0000000013000023
#022381:00000053
#023321:0013002300000000
#023351:00330000
#023351:0000000013000023
#023321:00000033
#0243b1:0013003300003300
#024381:0000330033000023
#025321:0013003300005300
#025351:00333300
#026351:23
#026380:1622
#026321:0016
#026361:00000022
#027361:0014
#027321:000000000000002c
#028321:00000000000000130000000023000000
#028361:0000000000330000
#0283b0:00000013
#028370:0000000000000033
#0293b0:23
#0293b0:00000000000000130000000023000000
#029370:0000000000330000
#029321:00000013
#029361:0000000000000023
#0303b1:0013002300000000
#030371:00530000
#030321:0000000000130023
#030361:00000053
#031381:0016220000000000
#031320:00160000
#031360:0000002200000000
#031381:0000001600000000
#0313c1:0022
#031320:0000000016000022
#0323b0:00000000000000130000000023000000
#032370:0000000000330000
#032321:00000013
#032361:0000000000000033
#033321:23
#033321:00000000000000130000000023000000
#033361:0000000000330000
#0333b0:00000013
#033370:0000000000000023
#034360:0013002300000000
#034320:00530000
#034370:0000000000130023
#0343b0:00000053
#035380:0016220000000000
#035321:00160000
#035361:0000002200000000
#0353b1:00000000000000000000001300000000
#035381:0000000000000023
#035350:0000000000000013
#036320:23
#0363b1:13003323
#036371:0000330000330000
#036321:0000000000000013
#037361:53
#037321:0023000000000000
#036370:0000000000000013
#0373b0:23
#038321:13003323
#038361:0000330000330000
#0383b1:0000000000000013
#039371:53
#0393b1:0023000000000000
#038360:0000000000000013
#039320:23
#039351:0013
#039321:00000023
#040321:13003323
#040361:0000330000330000
#0403b1:0000000000000013
#041371:53
#0413b1:0023000000000000
#040360:0000000000000013
#041320:23
#042381:1600002200000000
#042320:0000001600000000
#042360:00000022
#042381:00000016
#043381:00000000000000000000002200000000
#043321:0000000000000016
#044371:0000000000000021
#043380:0000000000000016
#044380:0000000000000021
#045340:00001222
#0453a1:00000012
#0463a1:22
#0463a1:00001222
#046340:00000012
#047340:22
#0473c1:12
#047381:0000002200000000
#047321:0012
#047361:0000000000000022
#048321:0012000000000000
#048361:00220000
#0483c0:00120000
#048380:0000002200000000
#048321:0000001200000000
#048361:0022
#0483c0:0012
#048380:0000000000000022
#049320:16
#049360:00220000
#049380:00001622
#050320:16
#050360:00220000
#051320:16
#051340:0022
#051381:0016
#0513a1:0000000000000022
#052321:00000000000000001600000000000026
#052341:00000000000000000034000000003400
#052351:00000000000000000000330000330000
#052361:00000000000000000000003232000000
#052380:00000000000000001634333232333426
#053320:00000000000000140000000024000000
#053360:0000000000520000
#0533a1:00000014
#053381:0000000000000052
#0543a1:24
#0543a1:00000000000000140000000024000000
#054381:0000000000520000
#054361:0000000000000014
#0553a1:0024000000000000
#055361:0000001400000000
#055321:0000000000240000
#055361:0000000000000014
#0563a1:0024000000000000
#056361:0000001400003400
#056321:0000000000340024
#056360:0000000000140024
#0563a0:00000034
#0573a0:00000000000000140000000024000000
#057380:0000000000520000
#057321:00000014
#057361:0000000000000052
#058321:24
#058321:00000000000000140000000024000000
#058361:0000000000520000
#058361:0000000000000014
#059321:0024000000000000
#059361:0000001400000000
#0593a1:0000000000240000
#059361:0000000000000014
#060321:0024000000000000
#061321:13230000
#061361:0053000000000000
#061370:00132300
#0613b0:0000005300000000
#061321:00001323
#061361:0000000000530000
#0613b1:0000000000000013
#062371:0023000000000000
#062321:0013
#062361:00000023
#0643c1:00120000
#0643b1:000000000000003200000000000000000000000000000000
#0643a1:003200
#064391:0000003200000000
#064381:000000000032000000000000
#064371:000000000000000000000032220000000000000000000000
#064320:00000000000000001222000000000000
#064371:00000000000000000012220000000000
#064320:00000000000000000000122200000000
#064381:00000000000000000000001222000000
#064320:00000000000000000000000012220000
#064391:00000000000000000000000000122200
#064320:00000000000000000000000000001222
#0653b0:13230000
#065370:0053000000000000
#065361:00132300
#065321:0000005300000000
#0653b0:00001323
#065370:0000000000530000
#065320:0000000000000013
#066360:0023000000000000
#0663b0:0013
#066370:00000023
#067360:1323
#067320:00530000
#0673b1:1323
#067371:00530000
#067321:00000013
#067361:0000000000000023
#067370:00000013
#0673b0:0000000000000023
#068320:0000000016220000
#068381:0016
#0683c1:0000000000220000
#0693b1:1300002300000000
#069371:00330000
#069360:0000001300003300
#069320:0000000000330023
#069371:0000000000000013
#0703b1:0033002300000000
#070371:00330000
#070360:0000001300000000
#070320:0000000000230000
#070360:00000013
#070320:0000000000000023
#070371:0000000000000013
#0713b1:0023000000000000
#071371:00130000
#0713b1:0000002300000000
#071360:0000001300000000
#071320:0000000000230000
#071360:00000013
#071320:0000000000000023
#072320:0000001600002200
#072381:0000001600002200
