This file was generated by Ched 2.7.0.0.
#TITLE ""
#ARTIST ""
#DESIGNER ""
#DIFFICULTY 0
#PLAYLEVEL
#SONGID ""
#WAVE ""
#WAVEOFFSET 0
#JACKET ""
#REQUEST "ticks_per_beat 480"
#00002: 4
#BPM01: 125
#00008: 01
#TIL00: ""
#VOLUME: ""
#HISPEED 00
#MEASUREHS 00
#00013:0014
#00019:2400000000000014
#00219:0014
#00213:2400000000000014
#0041a:14
#00414:00140000
#00418:0014
#00412:00000014
#0051a:14
#00518:0034343400000000
#00612:14
#00618:00140000
#00614:0014
#0061a:00000014
#00914:1414
#00918:00140000
#0101a:14
#01018:00000014
#01010:41
#01114:14
#01112:00000014
#01212:14
#01214:00000014
#01318:14
#0131a:00000014
#0141a:14
#01414:00140000
#01418:0014
#01412:00000014
#01518:1414
#01512:00140000
#01514:00000014
#0161a:14
#01612:00140000
#01618:0000000014000014
#01614:00000014
#01714:0014001400000000
#01718:00141400
#01812:14
#01814:0000001400000000
#01810:41
#01918:14
#0191a:0000001400000000
#02014:14
#02012:0000001400000000
#0211a:14
#02118:0000001400000000
#02212:14
#02218:0014
#02314:14
#0231a:0014
#02412:14
#02418:0014
#02514:1424
#02518:00140024
#02814:0000140000140000
#02818:00001414
#0281a:24
#02810:41
#02912:14
#02918:0000140000140024
#02914:00001414
#03012:0014000000000000
#03018:0000140000000014
#03014:0000001400001400
#0301a:0000000000140000
#03112:0014000000000000
#03118:00140000
#03114:0000001400000000
#0311a:0014
#03218:0000140000140000
#03214:00001414
#03212:24
#0331a:14
#03314:0000140000140024
#03318:00001414
#0341a:0014000000000000
#03414:0000140000000014
#03418:0000001400001400
#03412:0000000000140000
#0351a:0014000000000000
#03514:00140000
#03518:0000001400000000
#03512:0014
#04219:00000015
#04512:14
#04518:0014
#0451f:11
#04614:14
#0461a:0014
#04712:14
#04718:0014
#04814:14
#0481a:0014
#04912:1414
#04918:00140000
#0501a:1414
#05014:00140000
#05112:1414
#05118:00140014
#05212:14000034000034000000000000000000
#05318:00001414
#05314:0000240000140000
#0531f:00210000
#05412:14
#0541a:00140000
#05414:00001414
#05418:0000000000140024
#05410:41
#05512:0014002400000000
#05518:00140000
#0551a:0000000000140024
#05514:00000014
#05612:0014001400000000
#05618:00140000
#05614:0000000000340000
#05718:00001414
#05714:0000000000140000
#05712:00140000
#0571a:24
#05812:14
#0581a:00140000
#05814:00001414
#05818:0000000000140024
#05912:0014002400000000
#05918:00140000
#0591a:0000000000140024
#05914:00000014
#06112:1414
#06118:00140014
#06214:1414
#0621a:00140014
#06312:14
#0641a:14
#06514:1414
#0651a:00140014
#06510:41
#06612:1414
#06618:00140014
#06714:14
#06818:14
#06912:14
#06914:00140000
#06916:0014
#06918:00000014
#0701a:14
#07018:00140000
#07016:0014
#07014:00000014
#07112:14
#07114:00140000
#07214:0014000000000000
#07218:00140000
#02612:26
#03610:41
#00558:00000014
#0055a:54
#0105a:54
#01154:54
#01252:64
#01358:64
#01852:54
#01854:0000002400000000
#01958:54
#0195a:0000002400000000
#02054:64
#02052:0000002400000000
#0215a:64
#02158:0000002400000000
#02252:54
#02258:0054
#02354:54
#0235a:0054
#02452:54
#02458:0054
#02652:16
#0285a:14
#02952:14
#03252:14
#0315a:0054
#0335a:14
#04259:00000055
#05354:00140000
#05252:54
#05452:14
#05652:0000005400000000
#0575a:14
#05852:14
#0595a:0000000000000054
#0645a:54
#06352:54
#06754:54
#06858:64
#0053a0:14
#005380:0034343434002400
#007320:14
#007340:00240000
#0073a0:0014
#007380:00000024
#008340:14
#008320:00240000
#008380:0014
#0083a0:00000024
#0103a0:14
#010380:0024
#011340:14
#011320:0024
#012320:14
#012340:0024
#013380:14
#0133a0:0024
#018320:14000024
#018340:0000005400000000
#019380:14000024
#0193a0:0000005400000000
#020340:14000024
#020320:0000005400000000
#0213a0:14000024
#021380:0000005400000000
#022320:14
#022340:00240000
#022380:0014
#0223a0:00000024
#023340:14
#023320:00240000
#0233a0:0014
#023380:00000024
#024320:14
#024340:00240000
#024380:0014
#0243a0:00000024
#0263a0:0000000000000014
#0273a0:0034343424000000
#026321:0000000000000014
#027321:0034343424000000
#0313a1:0014
#031381:00000024
#036391:1535
#036371:00350025
#037341:1535
#037321:00350025
#038321:1535
#038341:00350025
#039371:1535
#039391:00350025
#040391:15
#040371:00250000
#040341:0015
#040321:00000025
#041321:15
#041341:00250000
#041371:0015
#041391:00000025
#042391:15000035
#042371:0000003500000000
#043361:0000000000000025
#052321:14000034000034000000000000000000
#052341:0034
#053341:00240000
#056321:0000001400000000
#056341:0000000000342400
#0593a1:0000000000000014
#060381:00000024
#063321:14
#063341:00000024
#0643a1:14
#064381:00000024
#067341:14
#067321:00000024
#068381:14
#0683a1:00000024
#071361:0000000014003424
#072321:0000001400002400
