This file was generated by Ched 2.7.0.0.
#TITLE ""
#ARTIST ""
#DESIGNER ""
#DIFFICULTY 0
#PLAYLEVEL
#SONGID ""
#WAVE ""
#WAVEOFFSET 0
#JACKET ""
#REQUEST "ticks_per_beat 480"
#00002: 4
#BPM01: 172
#00008: 01
#TIL00: ""
#VOLUME: ""
#HISPEED 00
#MEASUREHS 00
#0051a:14
#00614:14
#00718:14
#00812:14
#0131a:14
#01310:41
#0141a:14
#01514:14
#01614:14
#01718:14
#01818:14
#01912:14
#02012:14
#0211a:14
#02212:14
#02318:14
#02414:14
#0251a:14
#02612:14
#02718:14
#02814:14
#04612:0016
#04718:16
#04712:0016
#04818:1616
#05112:16
#05118:0016
#05212:1616
#05018:0016
#05412:0016
#05518:1616
#05612:1616
#05718:16
#05712:0016
#05818:16
#05812:0016
#0641a:14
#0641f:11
#0651a:14
#06612:14
#06712:14
#0721a:14
#07312:14
#07418:14
#07514:14
#07612:0016
#07618:26
#0761f:21
#07718:16
#07712:0016
#07710:00410000
#07818:16
#07812:0016
#08018:0016
#08012:26
#08112:16
#08118:0016
#08212:16
#08218:0016
#08612:16
#08618:0016
#08712:16
#08718:0016
#09212:16
#09314:16
#09418:0016
#09512:16
#09518:0016
#09612:14
#09712:14
#0981a:14
#0991a:14
#10014:14
#10114:14
#04518:26
#04510:41
#05318:26
#08810:0041
#06110:41
#02910:0041
#09354:26
#09252:56
#0013a0:14
#0023a0:0024
#003320:14
#004320:0024
#0093a0:1434
#0103a0:3400003400002400
#011320:1434
#012320:3400003400002400
#0293a0:14
#030380:0024
#031340:14
#032320:0024
#033380:14
#0343a0:0024
#035320:14
#036340:0024
#0373a0:14
#037380:0034
#038380:34
#0383a0:0024
#039340:14
#039320:0034
#040320:34
#040340:0024
#041380:14
#0413a0:0034
#0423a0:34
#042380:0024
#043320:14
#043340:0034
#044340:34
#044320:0024
#045380:1636
#046380:26
#049320:1636
#050320:26
#053380:1636
#054380:26
#059380:1626
#060320:1626
#061380:1626
#062320:1636
#063320:26
#068380:14
#069380:24
#070340:14
#071340:24
#079380:1626
#083320:1626
#084380:16
#084370:0036
#085370:36
#085380:0026
#088320:1626
#089380:1626
#090320:1626
#091380:1626
#092320:16
#093340:36
#094320:26
#102380:14
#106380:24
