This file was generated by Ched 2.7.0.0.
#TITLE ""
#ARTIST ""
#DESIGNER ""
#DIFFICULTY 0
#PLAYLEVEL
#SONGID ""
#WAVE ""
#WAVEOFFSET 0
#JACKET ""
#REQUEST "ticks_per_beat 480"
#00002: 4
#BPM01: 172
#00008: 01
#TIL00: ""
#VOLUME: ""
#HISPEED 00
#MEASUREHS 00
#00412:0013131300001300
#0041b:0013131300000000
#00415:00000000000000000000130000000013
#00418:00000000000000001300001300001300
#0051b:23131313
#00514:0000000000000013
#0101a:0000001400000000
#01014:0000140000140014
#01018:2222000000001400
#01012:2222000000000000
#01212:14
#01218:0014141414141400
#01214:00000014001400140014001400001400
#01312:1313
#01315:0013001300001300
#01318:0000130000130013
#0131b:0013
#0131a:24
#01310:41
#02015:00130000
#02018:00000000000013000014001400001400
#02014:0000000014141400
#02012:0013000000000000
#0251b:1313
#02512:1313
#02515:0013001300001300
#02518:0000130000130013
#02615:0013
#0261b:0000130000000013
#02618:0000001300000000
#02612:00130000
#02614:0000000000000013
#02619:00000023
#02616:00000023
#0271b:00000013
#02719:0000001300000000
#02712:0000001300000000
#02717:00230000
#02714:00230000
#02812:0000001300000013
#02818:0000000000130000
#0281b:0013000000000000
#01915:0013000000130023
#01918:00130013
#01912:1313
#0191b:0000001300000023
#03515:00000013
#03518:0000000000000013
#03512:00000013000000000000000000000000
#03517:00000013000000000000000000000000
#03612:1300000000130000
#0361b:00130013
#03618:0000001300000000
#03615:0013
#0391b:0000000000001313
#03912:0013
#04016:0000000000000013
#04019:00130000000000000000000000000000
#04012:0000131300000000
#04014:00000000000000000013000000000000
#0401b:00000013
#04112:1300000000130000
#0411b:13
#04116:0000131300000000
#04117:0000000000001313
#04216:0000131300000000
#04212:0000000000130000
#0421b:0013000000001300
#04219:0000000000000013
#04317:13
#04312:1300000000002323
#04316:00130000
#0431b:00130023
#04318:0000000000130000
#04315:0013
#04516:00000000000000140000000000000000
#04512:2400130013001313
#0451b:23
#04510:41
#04616:00130000000000001300000000000000
#04617:00130000
#0461b:0013
#04612:00000013
#0471b:1313
#04717:00130000
#04712:00131300
#04715:0000000000130013
#04718:00000013
#04714:0013000000000000
#04719:0000001300000000
#04814:0000001300000000
#04819:0000001300000000
#04812:1313
#0481b:13001313
#04816:00000013
#04813:00000000000000000000000000000033
#05515:00130000
#0551b:13
#05517:0013
#05512:00000013
#05612:00131300
#05615:0000001300001300
#05618:0000000000130013
#0561b:1313
#06015:0000131300001300
#06018:1300000000130013
#06012:0013
#0601b:0013000000000000
#06216:001400000000000000001400
#0621a:241400000000
#06217:001400
#06213:000000240014000000000000
#06215:000000000000001400000000
#06219:000000241400
#06212:000000000000000000240014
#06416:0000120000220000
#06418:0022000000001200
#0641f:11
#0641a:22
#06414:0022
#06514:00130000
#06519:00000013
#0651a:23
#06517:0023000000000000
#06516:0000000000230000
#06513:0023
#06612:00142400
#0661a:24000014
#06616:0024000000240000
#06712:00161300
#06718:26000013
#06715:0026000000000000
#0671a:0000000000000033
#0671b:00000000000000000000000000000033
#0761b:2300000023000013
#0761b:0000000000000013
#07617:0013000000130000
#07612:0000001300000000
#07616:00230023
#0761f:21
#07818:0013
#07816:13
#07815:0000000000130000
#08016:0014240000142400
#0801a:0000001400000000
#08012:2400000024000024
#08018:26
#06819:00000013000000000000002300000000
#06817:0000001323000000
#06812:0000002313000000
#06814:00000023000000000000001300000000
#06816:2300000000000013
#0681b:0000000000000023
#0691b:13000013
#06919:00000013000000000000000000000000
#06917:0000001313000000
#06916:23000013
#06914:00000023000000000000000000000000
#06912:0000002323000000
#09319:00131313
#09316:14
#09312:0014
#09315:0034000000000034
#09314:00340034
#09313:0000003400340000
#09612:13131313
#0961b:0000230000000033
#09617:0000003300002300
#09619:00000000003300000000000000330000
#09719:00131313
#09712:13131313
#0971b:0013000000130000
#09717:0000001300000013
#10218:1434000000000000
#00018:0000000000000013
#00015:00000000000000000000000000000013
#02912:1313
#0291b:00000013
#02916:00130013
#02917:0023
#02910:0041
#03012:13
#03017:13
#0301b:0013
#03018:0000000000130000
#03015:00000013
#03112:00130000
#03119:0000000000000013
#03118:0013
#03115:0013
#00112:00131313
#00118:0000000000000013
#00218:0013000000000013
#00212:13131300
#0021b:0013
#00215:00000013
#0031b:00131313
#00315:0000000000000013
#0061b:13131313
#00712:13131313
#00718:1300000000000013
#00812:1313
#00818:00001300000000130000000000000000
#00815:00000013000013000000001300130000
#0081b:0000130000131313
#02412:1314
#02415:0013000000000013
#02418:00130000
#0241b:0000001300000000
#02416:0024
#02318:0013000000000000
#02315:00130000
#02312:13
#0231b:13
#03317:0000131300000000
#03312:0000001300000000
#03316:0000000000001313
#0331b:13
#03315:13
#03417:0000131300000000
#0341b:0000000000000013
#03416:0000000000001313
#03712:13
#03716:0000131300000000
#0371b:0000001300000000
#03717:0000000000001313
#04415:00130000000000000000000000000000
#04418:1300000014141414
#04412:0000001300000000
#04414:00000000000000000014001400140000
#0441b:0000001300000000
#04916:00000000000000140000000000000000
#0491b:0000130013001313
#04912:13
#0491a:24
#05017:00130000000000001300000000000000
#05016:00130000
#05012:0013
#0501b:00000013
#05117:00130000
#05116:0000001400140014
#0511a:0000002400000024
#05112:0000000000240000
#05316:00000000000000140000000000000000
#05312:2400130013001313
#0531b:23
#05416:00130000000000000000000000000000
#05417:00130000
#05414:0013
#05712:13
#0571b:13000013
#05717:0000001300000000
#06316:18
#07014:00000013000000000000002300000000
#07016:0000001323000000
#0701b:0000002313000000
#07019:00000023000000000000001300000000
#07017:2300000000000013
#07012:1300000000000023
#07112:13
#07114:00000013000000000000000000000000
#07116:0000001313000000
#07115:00000013
#07117:23
#07119:00000023000000000000000000000000
#0711b:0000002323000000
#07215:00130000
#07218:00000013
#07212:13
#0721b:0013
#07318:00000013
#07315:00130000
#07312:1300000000000013
#0731b:0000000013000013
#07415:3333333333333313
#07418:3333333333333313
#07716:0013
#07717:00000013
#07712:00000013
#0771b:0013
#07710:00410000
#00914:00140000
#00918:2222000000001400
#00912:2222000000000000
#00916:0000000022220000
#0091c:0000000022220000
#01114:00140000
#01118:2222000000001400
#01112:2222000000000000
#0111c:0000000022220000
#01116:0000000022220000
#07914:12
#07918:0012000000000000
#07916:00120000
#0791a:00003232
#09212:00131313
#09216:0014
#09214:24
#0921a:24
#09219:0034000000000034
#09218:00340034
#09217:0000003400340000
#09412:0013000013000000
#0941b:1300000000130000
#09418:00000000130000000000000000130000
#09415:00000000001300000000000013000000
#10118:00001400000000140000140014001400
#10114:00000014000014000000001400140014
#10112:2424
#1011a:00240000
#09512:0000000000001313
#09518:00000000000000000000000000130013
#09516:0000001300000000
#0981b:13131313
#09812:1300230000000033
#09816:0000003300002300
#09814:00000000003300000000000000330000
#10012:13131313
#1001b:1300230000000033
#10017:0000003300002300
#10019:00000000003300000000000000330000
#01412:1313
#01415:0013001300130013
#01418:00130013
#0141b:1313
#0151b:1300001300000000
#01515:00001300000000130000000000001300
#01512:1300000000130000
#01518:00131313
#0161b:1313
#01618:0013000000000000
#01615:0000130013000013
#01612:1300001300000000
#01712:1313000023000000
#01718:0000130000000013
#0171b:2300000013130000
#01715:0000001300001300
#01815:0013001300000013
#0181b:2313
#01812:1313
#01818:00230013
#02115:00131313
#02112:2400001300000013
#02118:0013000000130000
#0211b:1313
#02218:0000000013000013
#02215:00000013
#05217:0013001313000000
#0521b:00000013
#05216:00000013
#05212:00131300
#06118:0000140022220000
#06114:00000014
#06116:2222000000000000
#0611c:2222000000000000
#06112:0000000022220000
#06110:41
#08316:0013001313000000
#08312:00000013
#08317:00000013
#0831b:00131300
#0831a:00000000000000000033000000000033
#08319:0000000000330033
#08318:00000000000000000000003300330000
#0871b:00130013
#08712:1300001300130000
#08717:0000001300130000
#08716:0000000000000013
#08814:0000001300000000
#08819:0000001300000000
#08816:00002313
#0881b:13002313
#08810:0041
#08912:1313
#08917:1313
#08916:00000013
#0891b:00130013
#08416:0000000014002424
#0841a:2400002424000000
#08412:24
#08516:00130000
#08519:0013
#09012:13
#09017:13
#09018:00000013
#09015:0000000000000013
#08615:0013
#08618:00130000
#0861b:00000013
#09118:00001300000000130000140014001400
#09115:00000013000013000000000000000000
#09114:00000000000000000000001400140000
#09112:2424
#0911a:00240000
#09914:00131313
#0991b:13131313
#09912:0013000000130000
#09916:0000001300000013
#07518:0000000014141414
#07514:00000000000000000014001400140014
#07512:3333240000000000
#0751a:00240000
#0751b:3333000000000000
#03215:00000013
#03217:13
#03212:13
#0321b:0000001300000000
#03216:0000001300000000
#03218:0000000000000013
#08216:1400141400140014
#08212:0000002400000024
#0821a:0000000000240000
#03816:0000131300000000
#03812:0000000000000013
#03817:0000000000001313
#05917:1313
#05912:2323
#05817:13
#05818:0013
#0581b:00000013
#05815:00230023
#05812:0023
#08116:00002424
#08112:0024
#0811a:00000024
#0105a:0000001400000000
#01252:14
#01955:0023000000230000
#01952:5353
#0195b:0000002300000000
#01958:00530000
#04352:1300000000000053
#0435b:00130053
#04556:00000000000000240000000000000000
#04552:1400000000000053
#0455b:53
#04656:00230000000000006300000000000000
#04657:00530000
#0465b:0053
#04652:00000063
#04852:5363
#0485b:63
#04856:00000063
#06752:0053
#06758:00000063
#0765b:6300000063000063
#0765b:0000000000000063
#07657:0023000000230000
#07652:0000002300000000
#07656:00630063
#08056:0024540000245400
#0805a:0000002400000000
#08052:5400000054000054
#08058:16
#09352:0024
#09356:54
#10258:54
#03052:23
#03057:23
#03055:00000053
#02952:5353
#0295b:13000053
#02956:00230053
#02957:0053
#00355:0000000000000013
#0055b:13
#00852:1313
#0085b:00130000
#02452:0054
#02456:0054
#02555:00000053
#02558:0000000000000053
#02759:1300002300000000
#02756:13
#02752:0000002300000000
#02754:00531300
#02757:00531300
#02654:0000000000000023
#0265b:0000000000000023
#02659:00000053
#02656:00000053
#03155:0053
#03158:0053
#03152:13
#0365b:00000053
#03652:53
#03357:0000005300000000
#03356:0000000000000053
#03355:13
#03457:0000005300000000
#0345b:0000000000000063
#03456:0000000000000063
#03552:00000023000000000000000000000000
#03557:00000023000000000000000000000000
#03556:0013
#0355b:0013
#04059:00630000000000000000000000000000
#04052:0000002300000000
#04054:00000000000000000053000000000000
#03952:0063
#0395b:0000130000000023
#03956:00130000
#0415b:13
#04458:23
#04455:00230000000000000000000000000000
#04956:00000000000000240000000000000000
#0495a:14
#04952:63
#0495b:0000000000000053
#05057:00230000000000005300000000000000
#05056:00630000
#05052:0063
#0505b:00000053
#0515a:0000001400000014
#05152:0000000000140000
#05156:0000000000000054
#05356:00000000000000240000000000000000
#05352:1400000000000053
#0535b:53
#05456:00230000000000000000000000000000
#05457:00530000
#05555:00530000
#0555b:53
#05557:0063
#05552:00000053
#05752:13
#0575b:13000053
#06055:0000005300000000
#06052:0023
#0605b:0023000000000000
#06058:63
#06356:68
#07455:0000000000000053
#07458:0000000000000063
#07352:0000000000000053
#0735b:0000000000000063
#07757:00130013
#07756:0013
#08156:00141414
#08252:0000001400000014
#0825a:0000000000140000
#08256:0000000000000064
#09652:13
#0985b:13
#10052:13
#0135a:14
#0165b:0013
#02258:0063
#02152:14
#05256:00000053
#05252:0053
#08357:00000063
#0835b:0063
#08952:23
#08957:2363
#0895b:00630063
#08856:00000063
#0885b:63000063
#08456:0000000064000064
#08452:54
#0845a:14
#08556:00630000
#09052:63
#09057:63
#09056:0013
#0905b:0013
#08655:0053
#08658:00530000
#0865b:00000023
#08752:23
#08756:0000000000000063
#09256:0024
#09254:14
#0925a:54
#07552:00140000
#0755a:00140000
#03756:0000006300000000
#03757:0000000000000063
#03758:13
#03856:0000006300000000
#03852:0000000000000053
#03857:0000000000000053
#0565b:63
#09556:0000002300000000
#05957:53
#05952:53
#0715b:0013
#07156:0013
#06957:0013
#06952:0013
#01455:0000000000230000
#01452:0053
#10152:1414
#1015a:00140000
#0185b:0013
#05857:23
#03257:53
#03252:53
#0325b:0000005300000000
#03256:0000005300000000
#0013b0:13000023
#003320:13000023
#005320:00130023
#005330:00000000003300000000000000000000
#005340:0000003300330000
#005360:0033
#005350:00000000000000000033000000000000
#006360:13330000
#006340:0033002300000000
#006320:00001333
#006340:0000000000330023
#0073b0:00130023
#0073a0:00000000003300000000000000000000
#007390:0000003300330000
#007370:0033
#007380:00000000000000000033000000000000
#014320:00001323
#014350:0000000000530000
#019320:13230000
#019350:0053000000000000
#019381:00132300
#0193b1:0000005300000000
#019320:00001323
#019350:0000000000530000
#022380:1323000000000000
#022351:0013230000000000
#0223b0:0000132300000000
#022321:0000001323000000
#022380:0013
#0223b0:00000023
#023380:0000001300000000
#0233b0:0023
#023321:0013
#023351:0000000000230000
#023380:0000000000130000
#0233b0:00000023
#023321:00000013
#023351:0000000000000023
#023380:0000000000000013
#0243b0:23
#024360:0014
#0243a0:00000024
#024321:0014
#024361:00000024
#025351:00000013
#026321:0023000000000000
#025380:0000000000000013
#0263b0:0023000000000000
#026390:00000013
#0263b0:0000000000000053
#027390:23
#026361:00000013
#026341:0000000000000053
#027361:23
#027341:00132300
#027321:0000005300000000
#027370:00132300
#027390:0000005300000000
#027350:0000000000000013
#028350:00230000
#028381:00132300
#028350:00001323
#0283b1:00000013
#0293b1:23
#029320:1333
#029360:00330033
#030320:53
#030360:00230000
#029371:0013
#0293b1:00000033
#030371:53
#0303b1:00230000
#030351:00000013
#031321:23
#0313b1:00130023
#031381:0033
#031350:0013
#031320:00000023
#032320:13
#032360:00230000
#032371:13
#0323b1:00230000
#0323b1:0000001300000000
#032371:0000000000230000
#032360:0000001300000000
#032320:0000000000230000
#033370:0000001300000000
#0333b0:0000000000000023
#033361:0000000000000013
#034321:0000002300000000
#034370:0000001300000000
#0343b0:0000000000000033
#035370:00000053000000000000000000000000
#0353b0:0023
#034361:0000000000000013
#035321:00000053000000000000000000000000
#035361:0023
#036321:13
#036361:00230000
#0363b1:00000013
#037381:23
#037361:0000001300000000
#037321:0000000000000023
#037370:0000000000000013
#0383b0:0000002300000000
#038361:0000001300000000
#038321:0000000000000033
#039361:00230000
#038370:0000000000000013
#0393b0:00230000
#039320:0013
#039360:0000000000000023
#0393b1:0000000000000013
#040391:00530000000000000000000000000000
#040371:00230000
#040321:0000001300000000
#040341:00000000000000000053000000000000
#040361:00000023
#0413b1:0000001300000000
#041371:0000000000230000
#041321:0000000000000013
#042361:0023000000000000
#0423b1:0000001300000000
#042371:0000000000230000
#0433b1:00000013
#044381:53
#0443b1:00230000
#043320:0000000000000013
#044350:00530000000000000000000000000000
#044320:00230000
#0453b0:1300000000000023
#045360:00000000000000540000000000000000
#045321:0000000000000013
#046361:00530000000000000000000000000000
#046321:00230000
#046370:00130023
#0463b0:0033
#046361:0013
#046321:00000033
#047361:23
#048321:13
#048351:00230000
#0483b0:13
#048380:00230000
#048320:0013
#048360:00000033
#048330:00000000000000000000000000000033
#049320:3300000000000023
#049360:00000000000000540000000000000000
#0493b1:0000000000000013
#050371:00530000000000000000000000000000
#0503b1:00230000
#050360:00130023
#050320:0033
#050371:0013
#0503b1:00000033
#051371:23
#051320:13230000
#051360:0000000000000014
#052320:0023000000000000
#052320:0013
#052360:00000033
#053320:24
#0533b1:1300000000000023
#053361:00000000000000540000000000000000
#053320:0000000000000013
#054360:00530000000000000000000000000000
#054320:00230000
#054371:00130000
#0543b1:00000023
#054360:00000013
#055360:23
#0553b1:13
#055381:00230000
#055350:00130000
#055320:0023
#055371:0013
#0553b1:00000023
#055320:00000013
#056360:23
#0563b1:13
#056371:00230000
#057321:0013
#057361:00000023
#0573b0:00000013
#058370:53
#0583b0:00230000
#059320:13
#059360:0000002300000000
#059371:13
#0593b1:0000002300000000
#059351:00000013
#060351:23
#060380:13230000
#0603b0:0053000000000000
#060350:0000001300230000
#060320:0053
#063360:1834000000002400
#0643a0:00122200
#064340:00000012
#065340:22
#0653a0:00132300
#065330:00000013
#066330:23
#0663a0:00142400
#066320:00000014
#067320:24
#067380:00162600
#067321:0013
#067351:00000023
#067380:00000013
#0673a0:0000000000000033
#0673b0:00000000000000000000000000000033
#0683b0:23
#071380:0000000000000013
#0723b0:0000002300000000
#072351:0000001300000000
#072321:0000000000000023
#072380:0000000000000013
#0733b0:0000002300000000
#073351:0000001300000000
#073321:0000000000000033
#074351:3333333333333333
#075321:3333240000000000
#0733b0:0000000000000013
#074380:3333333333333333
#0753b0:3333000000000000
#0753a0:00240000
#0763b0:13230000
#076370:0053000000000000
#076361:00132300
#076321:0000005300000000
#0763b0:00001323
#076370:0000000000530000
#076361:00000013
#077321:00230000
#0763b0:0000000000000013
#077370:00230000
#0783b0:13230000
#078321:00132300
#078381:00000013
#079381:23
#0793a1:0000001232003200
#080381:26
#080320:14240000
#080360:0034000000000000
#080361:00142400
#0803a1:0000003400000000
#080320:00001424
#080360:0000000000340000
#080361:00000014
#0813a1:00240000
#080320:0000000000000014
#081360:00240000
#0823a0:14240000
#082360:0000000000000014
#0833b0:0023000000000000
#0833b0:0013
#0833a0:00000000000000000033000000000033
#083390:0000000000330033
#083380:00000000000000000000003300330000
#083370:00000033
#0843a0:24
#084321:1400000000003424
#084361:0000003434000000
#084360:0000000000000014
#0853a0:00240000
#085361:00130000
#085321:00000023
#085380:00000013
#086380:23
#086351:13230000
#086380:00130000
#0863b0:0023
#086351:0013
#086321:00000023
#0863b0:00000013
#087370:23
#087321:13
#087361:00230000
#087361:0000000000000013
#088321:00230000
#0883b0:13
#088370:00230000
#0883b0:00000013
#089370:5333
#0893b0:00330033
#090370:33
#0903b0:0023
#088361:00000013
#089321:53
#089361:00230000
#090321:13
#090361:0023
#0923a1:14
#092391:0034000000000034
#092381:00340034
#092371:0000003400340000
#092361:0034
#0933a1:24
#093360:14
#093350:0034000000000034
#093340:00340034
#093330:0000003400340000
#093320:0034
#094360:24
#094380:0000001323000000
#094350:0000000000000013
#095350:23
#095381:1323000000000000
#095320:0013230000000000
#0953b1:0000130000230000
#095360:0000001300000000
#095320:0000000000230000
#0963b0:00130000
#096390:00000000003300000000000000000000
#096370:0000003323000000
#096370:00000013
#096390:00000000000000000000000000330000
#0963b0:0000000000000033
#0973b0:23
#098320:00130000
#098340:00000000003300000000000000000000
#098360:0000003323000000
#098360:00000013
#098340:00000000000000000000000000330000
#098320:0000000000000033
#099320:23
#1003b0:00130000
#100390:00000000003300000000000000000000
#100370:0000003323000000
#100370:00000013
#100390:00000000000000000000000000330000
#1003b0:0000000000000033
#1013b0:23
#102380:1434000000000000
#1063c0:22
