This file was generated by Ched 2.7.0.0.
#TITLE ""
#ARTIST ""
#DESIGNER ""
#DIFFICULTY 0
#PLAYLEVEL
#SONGID ""
#WAVE ""
#WAVEOFFSET 0
#JACKET ""
#REQUEST "ticks_per_beat 480"
#00002: 4
#BPM01: 172.0
#00008: 01
#TIL00: ""
#VOLUME: ""
#HISPEED 00
#MEASUREHS 00
#00415:0013001300000000
#00418:00130000
#03518:00000013
#03515:0000000000000013
#03516:00000013000000000000000000000000
#04817:0000001400000000
#04815:13
#04816:00000014
#04812:0014
#04813:00000000000000000000000000000034
#06414:00002212
#0641a:22120000
#0641f:11
#06416:0022000000000000
#06418:0000000000220000
#0651a:23130000
#06513:00002313
#06516:0023000000000000
#06517:0000000000230000
#06719:25150000
#06715:0013
#06714:0025000000000000
#07712:0013
#07718:00000013
#07710:00410000
#08718:0000001400001300
#08715:0000000000130013
#08815:0000001300000000
#08818:13
#08812:00000013
#0881b:0023
#08810:0041
#03218:00000013
#03215:0000001300000013
#0321b:13
#0331b:00130000
#01315:0013001300000000
#0131b:23130000
#01312:0000000000130013
#01318:00001313
#01310:41
#01415:0000000000000013
#0141a:0000003300000000
#01419:0033000000000000
#01518:13130013
#0151b:0013
#01515:0000000000130000
#01512:0013001300000013
#03012:13000033
#03017:13000033
#0301b:0013
#03016:0013
#03014:0000000000330000
#03019:0000000000330000
#0291b:0013
#02916:0023
#02914:00000033
#02919:00000033
#02910:0041
#03412:0000000000000013
#03912:0013
#03915:0000000000003313
#0431a:1414
#04312:00141423
#0431b:00000023
#04315:0000000000000033
#04318:0000000000000033
#05618:0000001300000013
#05615:13001313
#0561b:1300000000130000
#05612:00130000
#06018:13000013
#06015:0000001300000013
#0631a:14
#06316:0034000000000000
#0661a:24140000
#06612:00002414
#06615:0024000000000000
#06617:0000000000240000
#00518:0000000000000013
#0051a:24
#00712:13
#00715:0000000000000013
#00612:1313
#0061b:0013000000130000
#00615:00130013
#00618:0000001300000013
#0081b:1313
#00812:0013000000130000
#00818:00130013
#00815:0000001300000013
#0101a:0000140000140000
#01014:0024000000001400
#01012:0000001400000000
#01018:2400000000000014
#01612:0000000000000013
#01619:0033003300000000
#01715:0013000000130000
#01718:00130013
#01712:0000001300000013
#0171b:2323
#01815:0013001300001300
#0181b:2313
#01818:0000230000000013
#02818:00130013
#02815:0000001300130000
#0281b:0013
#02812:0000000000000013
#03118:00000013
#03115:0000000013000013
#03112:00130000
#03618:1313
#03615:0000001300130000
#0361b:00000013
#03712:00130000
#0381b:0000000000000013
#04012:0000133300003333
#04015:0000000000130000
#0411b:00130000
#04118:00000013
#0421b:00130000
#04218:00000013
#04215:0000000000000013
#04415:1313
#04418:1300001300000000
#04712:1313
#04718:1300000000130000
#04715:00130013
#0471b:0000130000000013
#04516:00000000000000143400000000000000
#0451b:0000000000000013
#0451a:24
#04518:00340034
#04510:41
#0461b:0013
#04612:0013
#04618:00130000
#04615:00130000
#04912:1400000000000013
#04916:00000000000000143400000000000000
#04914:00340034
#05515:13
#0551b:13
#05518:0013
#05512:0013
#05712:13
#05717:0000001300000000
#05912:1313
#05915:00000013
#0591b:2323
#06918:00000033000000000000000013000000
#0691b:23
#06912:0024
#07115:00000033000000000000000013000000
#0711a:0024
#07112:23
#07415:0000000000000013
#07418:0000000000000013
#0731b:0000000000000013
#07517:00000000000000000034343414343434
#0751a:00241400
#07512:00240000
#07616:00140000
#07612:2414
#0761a:0000000000000014
#0761f:21
#08016:00140000
#0801a:2414
#08012:0000000000000024
#08318:0000001300000000
#08315:0013
#0831b:0000000000000013
#08416:0014
#08412:2400000000000014
#08918:00000013
#08915:0013
#08916:13
#09016:13
#0901b:13
#09015:00000013
#09018:0000000000000013
#09118:00000000331333000000000000000014
#09115:00000000331333000000000000000000
#0911b:13
#09112:2300000000000014
#09518:0013000000000000
#09515:00130013
#0951b:0000001300000000
#01212:0000140000140000
#01218:0024000000001400
#0121a:0000001400000000
#01214:2400000000000014
#01915:00130000
#01912:1313
#01919:0000000000000024
#01913:0000000000000024
#02118:0013001300000000
#02112:23130000
#0211b:0000000000130013
#02115:00001313
#02218:0000000000000013
#02213:0000003300000000
#02214:0033000000000000
#02315:13130013
#02312:0013
#02318:0000000000130000
#0231b:0013001300000013
#02418:00000013
#02412:0000000000000013
#02414:0033003300000000
#02015:0013
#02018:0000001300000000
#02012:00130000
#0201b:0013000000000013
#0251b:1313
#02515:0013000000130013
#02518:00130013
#02512:0000001300000000
#0261b:00130023
#02615:0000001300000000
#02618:0013
#02614:00000023
#07812:0013
#07818:0000000000130000
#07815:13
#0781b:00130000
#0851a:00000014
#08616:1414
#08612:00140000
#0861a:00000014
#09712:0013001300000000
#09715:0000000000130000
#0971b:00001313
#09718:00130000
#10214:1434000000000000
#0961b:13
#09618:00000024
#09612:00240000
#09812:13
#0981a:00240000
#09814:00000024
#1001b:13
#10012:00240000
#10018:00000024
#0991b:0013001300000000
#09918:0000000000130000
#09912:00001313
#09915:00130000
#09316:14343434
#1011b:00001313
#10112:0013001300000000
#10115:0000000000130000
#10118:00130000
#05012:0013
#0501b:0013
#05015:00130000
#05018:00130000
#05218:0000001300000000
#05215:0013
#05316:00000000000000143400000000000000
#0531b:0000000000000013
#0531a:24
#05318:00340034
#05418:00130000
#05415:00130000
#0611a:2424000000000000
#06112:0000000024240000
#06110:41
#0091a:2424000000000000
#00912:0000000024240000
#0621a:24
#0681b:23
#06815:0023
#06818:00000033000000000000000000000000
#06812:00000000000000000000003300000000
#01112:2424000000000000
#0111a:0000000024240000
#02712:00230000
#02719:00230000
#0811a:0024
#08116:00000024
#08212:0000002600000026
#08218:0000000000260000
#09212:24
#09216:00343434
#05112:0000002600000026
#05118:0000000000260000
#07012:23
#07018:0023
#07015:00000033000000000000000000000000
#0701b:00000000000000000000003300000000
#09415:00000000000000000000000000333300
#0941b:00000000003333000000000000000000
#0031a:0000000000343400
#00319:00340000
#04855:53
#04856:00000064
#04852:0064
#06755:0053
#0295b:0053
#02956:0053
#03052:23
#03057:23
#0305b:0053
#03056:0053
#03452:0000000000000053
#03556:00000023000000000000000000000000
#03952:0063
#03955:0000000000000023
#0435a:14
#04352:00140063
#0435b:00000053
#0635a:64
#0685b:63
#06855:0063
#0035a:0000000000000014
#0055a:14
#0165b:0013
#02752:00530000
#02759:13530000
#02754:0013
#02757:0013
#02756:13
#0265b:00000053
#02654:00000053
#0325b:53
#03255:0000005300000000
#03658:63
#0365b:00000053
#0385b:0000000000000063
#04052:00630000
#04055:0000000000230000
#04455:2353
#04458:23
#04556:00000000000000240000000000000000
#0455b:0000000000000053
#0455a:54
#0465b:0053
#04652:0063
#04658:00530000
#04655:00630000
#04952:6400000000000063
#04956:00000000000000240000000000000000
#05555:53
#0555b:53
#05558:0063
#05552:0063
#05752:13
#05952:53
#0595b:63
#06055:0000005300000000
#06058:63
#0695b:63
#06952:0014
#0715a:0014
#07152:53
#07552:00140000
#0755a:00145400
#07557:00000054
#07455:0000000000000053
#07458:0000000000000053
#0735b:0000000000000053
#07652:5464
#07656:00640000
#0765a:0000000000000054
#08056:00540000
#0805a:6454
#08052:0000000000000054
#08252:0000001600000016
#08258:0000000000160000
#08355:0053
#08456:0064
#08452:5400000000000064
#08858:63
#08852:00000053
#08956:23
#09056:53
#09052:0013
#0905b:53
#09057:0013
#09155:00000000002300000000000000000000
#09158:00000000002300000000000000000000
#09152:53
#0915b:53
#0955b:0000002300000000
#01052:0000001400000000
#0125a:0000001400000000
#01955:00630000
#01952:6363
#02452:0013
#02055:0013
#02555:0000000000000063
#10254:64
#0965b:13
#09852:13
#1005b:13
#09356:24
#0185b:0013
#09252:64
#05052:0063
#0505b:0053
#05055:00630000
#05058:00530000
#05255:0053
#05356:00000000000000240000000000000000
#0535b:0000000000000053
#0535a:54
#05458:00530000
#05455:00630000
#05152:0000001600000016
#05158:0000000000160000
#07052:53
#07058:0053
#001320:14000034
#001340:0000003400000000
#002340:0034000000000000
#002320:00003424
#0033a0:1400000000343424
#003390:00340000
#003380:0034
#0043a0:00000000000000001400000000003434
#004370:00000000000000000000343434000000
#0053a0:24
#005320:00140024
#005330:00000000003400000000000000000000
#005340:0000003400340000
#005360:0034
#005350:00000000000000000034000000000000
#0073a0:00140024
#007390:00000000003400000000000000000000
#007380:0000003400340000
#007360:0034
#007370:00000000000000000034000000000000
#0143b0:1333
#014390:0033000000000000
#014380:00330023
#0143a0:0000003300000000
#0163b0:1323
#016390:0033003300000000
#016380:00330000
#019320:1333
#019350:00330023
#022320:1333
#022340:0033000000000000
#022350:00330023
#022330:0000003300000000
#024320:1323
#024340:0033003300000000
#024350:00330000
#025350:0000000000000013
#026320:0023000000000000
#0263b0:00000013
#027390:23
#026341:00000013
#027361:23
#027321:00130000
#027341:0023
#027390:00130000
#027370:0023
#027320:0000000000000013
#028320:0023000000000000
#029380:13
#0293b0:0033
#029390:00000033
#030370:53000033
#0303b0:0033
#030390:0000000000330000
#031370:23
#029361:0013
#029341:00000033
#030321:53000033
#030361:0033
#030341:0000000000330000
#031321:23
#0323b1:13
#032381:00230000
#032351:0000001300000000
#032321:0000000000230000
#033361:0000001300000000
#033321:0000000000003333
#034361:0000333300000000
#034321:0000000000003333
#035361:00000053000000000000000000000000
#035321:0023
#036381:13
#0363b1:00230000
#0363b1:00000013
#037381:23
#037371:0000001300000000
#0373b1:0000000000003333
#038371:0000333300000000
#0383b1:0000000000003333
#039371:00230000
#039321:0013
#039351:0000000000003333
#040321:0000333300003333
#040351:0000000000530000
#041321:23
#041351:0000001300230000
#041321:0000000000000013
#042321:0023000000000000
#042351:0000001300230000
#043321:00000013
#043351:0000000000000033
#044351:53
#044321:00230000
#0433b0:00000013
#043380:0000000000000033
#044380:53
#0443b0:00230000
#044350:0013
#044320:00000023
#0453a0:14
#045380:00340034
#045360:00000000000000543400000000000000
#0453b0:0000000000000033
#046380:00330023
#0463b0:0033
#046351:00130023
#046321:0033
#048351:13
#048321:00230000
#048321:0014
#048361:00000034
#048331:00000000000000000000000000000034
#049321:3400000000000033
#049341:00340034
#049361:00000000000000543400000000000000
#050351:00330023
#050321:0033
#050380:00130023
#0503b0:0033
#051380:13230000
#052350:0013
#052320:00000023
#0533a0:14
#053380:00340034
#053360:00000000000000543400000000000000
#0533b0:0000000000000033
#054380:00330000
#0543b0:00000023
#054351:00130000
#054321:00000023
#055351:13
#055321:00230000
#0553b0:13
#055380:00230000
#055380:0013
#0553b0:00000023
#055321:0013
#055351:00000023
#057321:0013
#057361:00000033
#058321:23
#0583b1:00130023
#058371:0033
#059321:13
#059351:0000002300000000
#0593b0:13
#059380:0000002300000000
#060380:13
#0603b0:00230000
#060350:0000001300000000
#060320:0000000000230000
#0623a0:1434
#062390:003400000034003400000034
#062380:003434003434
#062370:00340034
#0633a0:34
#063360:0034005400002400
#067350:0013
#067320:00000023
#0683b0:13
#068380:00000033000023000000000000000000
#068350:0013
#068320:00000000000000000000003300002300
#0693b0:13
#069380:00000033000023000000000000000000
#070320:13
#070350:00000033000023000000000000000000
#070380:0013
#0703b0:00000000000000000000003300002300
#071320:13
#071350:00000033000023000000000000000000
#071380:0000000000000013
#0723b0:00230000
#072320:0000001300000000
#072350:00000023
#072380:0000000000000013
#0733b0:00230000
#073320:0000001300000000
#073350:00000023
#0733b0:0000000000000013
#074380:0000000000000033
#0753a0:00240000
#074351:0000000000000013
#075321:00240000
#0753a1:0014
#075371:00000000000000000034343434343434
#0763a1:24
#076320:1434
#076360:00340024
#0763a0:0000000000000014
#077360:00240000
#078320:00000013
#079350:3333333300002300
#0803a0:1434
#080360:00340024
#080320:0000000000000014
#081360:00240000
#0823a0:14240000
#083350:0013
#083320:00000023
#084320:1400000000003434
#084360:0000003434000000
#085360:00342400
#087340:14240000
#088380:13
#0883b0:00230000
#088320:00000013
#089360:53
#089320:00230000
#090360:13
#090320:0023
#0903b1:13
#090371:0023
#0913b1:1300000000230000
#091381:00000000335333000000000000000000
#091320:1300000000230000
#091350:00000000335333000000000000000000
#092320:14
#092360:00343434
#093360:34343434
#094320:24
#0943b0:00000000133333000000000000000000
#094380:0023
#094350:00000000000000000000000013333300
#095320:23
#0953b0:0000001300000000
#095380:0000000000230000
#096320:00000000143434002400000000000000
#096380:00000000000000000000000014343400
#097380:24
#0983a0:00000000143434002400000000000000
#098340:00000000000000000000000014343400
#099340:24
#100320:00000000143434002400000000000000
#100380:00000000000000000000000014343400
#101380:24
#102340:1434000000000000
#106320:23
