This file was generated by Ched 2.7.0.0.
#TITLE ""
#ARTIST ""
#DESIGNER ""
#DIFFICULTY 0
#PLAYLEVEL
#SONGID ""
#WAVE ""
#WAVEOFFSET 0
#JACKET ""
#REQUEST "ticks_per_beat 480"
#00002: 4
#BPM01: 172
#00008: 01
#TIL00: ""
#VOLUME: ""
#HISPEED 00
#MEASUREHS 00
#00618:1414
#00612:00140014
#0071a:14
#0081a:1414
#00814:00140014
#01314:00140000
#01318:0014
#01312:00000014
#0131a:24
#01310:41
#01418:14
#01414:00140000
#0141a:0014
#01512:14
#01518:00140000
#01514:0014
#0151a:00000014
#01614:14
#01618:00140000
#01612:0014
#0171a:14
#01712:00140000
#01718:0014
#01714:00000014
#0181a:14
#01812:00140000
#01818:0014
#02014:00140000
#02018:1414
#0211a:00140000
#02114:0014
#02118:00000014
#02112:24
#0231a:14
#02312:00140000
#02318:0014
#02314:00000014
#02512:14
#0251a:00140000
#02514:0014
#02518:00000014
#02612:14
#0261a:00140000
#02614:0014
#02618:00000024
#0241a:14
#02418:00340000
#02212:14
#02214:00340000
#0281a:14
#02812:00140000
#02819:0014
#02814:00000014
#02918:14
#02914:0024
#02913:00000034
#02910:0041
#03118:14
#0311a:00003414
#04418:0014
#04514:0016
#04512:26
#04513:00360036
#04510:41
#0461a:00140000
#04614:0014
#04618:00000014
#04712:14
#0471a:00140000
#04714:0014
#04718:00000014
#04812:14
#0481a:0014
#04814:00000014
#04916:0016
#04918:26
#04917:00360036
#05012:00140000
#05018:0014
#05014:00000014
#0511a:14
#05112:00140000
#05118:0014
#05114:00000014
#0521a:14
#05212:0014
#05218:00000014
#05314:0016
#05312:26
#05313:00360036
#0541a:00140000
#05412:00000014
#05518:14
#05512:00140000
#0551a:0014
#05514:00000014
#0561a:14
#05612:00140014
#05618:0014
#05718:14
#05712:0014
#05714:00000034
#05818:0014
#05814:00000014
#0591a:14
#05918:0000003434000000
#06012:14
#0601a:00140000
#06014:0014
#06018:00000014
#0641a:14
#06414:14
#06418:0014
#06412:0014
#0641f:11
#0651a:14
#06514:14
#06518:0014
#06512:0014
#06614:14
#0661a:14
#06618:0014
#06612:0014
#06714:14000014
#0671a:14
#06718:0014
#0681a:14
#06818:0014
#0691a:14
#07012:14
#07014:0014
#07112:14
#07218:1414
#07214:00140014
#07319:1414
#07313:00140014
#0741a:1414
#07412:00140014
#07518:16
#07515:00363636
#07612:00140014
#0761a:0014
#0761f:21
#0771a:14
#07716:00140000
#07712:0014
#07718:00000014
#07710:00410000
#07814:14
#0781a:00140000
#07812:0014
#07818:00000014
#07912:16
#07915:00003636
#0801a:00140014
#08012:0014
#08015:26
#08112:14
#08116:00140000
#0811a:0014
#08114:00000014
#08218:14
#08212:00140000
#0821a:0014
#08214:00000014
#08318:14000014
#08314:0014
#09512:14
#0951a:00140000
#09514:0014
#09712:1414
#09718:00140014
#0991a:1414
#09914:00140014
#10112:1414
#10118:00140014
#10212:1434000000000000
#1001a:14
#09812:14
#0961a:14
#03314:14
#03312:00003414
#03518:14
#0351a:00003414
#04114:14
#04312:0014
#04314:14
#04218:14
#08414:0000361636000000
#08412:26
#08516:0000361636000000
#08518:26
#08612:14
#08618:00140000
#08614:0014
#0861a:00000014
#08712:14
#08718:00140000
#08714:0014
#0871a:00000014
#08812:14
#0881a:0014
#08814:00000014
#08810:0041
#09315:16
#08918:14
#08912:00140000
#0891a:0014
#08914:00000014
#09114:14
#09118:00140000
#09112:0014
#0911a:00000014
#0941a:00140000
#09414:0014
#09418:00000014
#0051a:24
#0091a:24
#00912:0024
#0101a:24
#01018:0034000000000000
#01112:24
#0111a:0024
#01212:24
#01214:0034000000000000
#02714:00240000
#06112:24
#0611a:0024
#06110:41
#06212:24
#0621a:0024
#06312:24
#06314:0034000000000000
#09212:26
#0321a:34
#03412:34
#0361a:34
#00414:34
#00218:34
#00313:0034
#00119:0034
#0055a:14
#0135a:14
#02058:0014
#02152:14
#0245a:54
#02252:64
#02758:14
#02754:0014
#02958:14
#02954:0054
#03158:64
#0315a:00000024
#04554:0026
#04552:66
#04956:0026
#04958:56
#0525a:14
#05354:0026
#05352:66
#05758:14
#05752:0054
#0595a:64
#06352:54
#06958:0014
#0695a:64
#0685a:64
#06858:0064
#07052:54
#07054:0054
#07152:54
#07154:0014
#07655:16
#07558:66
#07952:56
#08358:14
#10252:54
#1005a:64
#09852:54
#0965a:64
#03354:54
#03352:00000024
#03558:64
#0355a:00000024
#04154:64
#04352:0024
#04354:64
#04258:54
#04852:14
#08055:16
#08454:0000002600000000
#08452:66
#08556:0000002600000000
#08558:66
#08852:14
#09355:26
#09252:66
#0013a0:14
#001390:0034
#002380:3424
#003320:14
#003330:0034
#004340:3424
#005340:00140000
#005330:0034
#005320:00000024
#007320:00140000
#007330:0034
#007340:00000024
#0103a0:14
#010380:0034003400002400
#012320:14
#012340:0034003400002400
#019320:14000024
#019340:00343400
#022320:14
#022340:00342400
#0243a0:14
#024380:00342400
#026380:00000014
#027380:24
#027340:00142400
#029340:0014
#029330:00000034
#030320:0024
#031380:14
#0313a0:00003454
#0323a0:34
#032380:0024
#033340:14
#033320:00003454
#034320:34
#034340:0024
#035380:14
#0353a0:00003454
#0363a0:34
#036380:0024
#037320:14
#037340:0034
#038320:34
#038340:0024
#039380:14
#0393a0:0034
#040380:34
#0403a0:0024
#041340:14
#041320:0024
#042380:14
#0423a0:0024
#043340:14
#043320:0034
#044340:24
#045320:16
#045330:00360036
#045340:0056
#046320:26
#049380:16
#049370:00360036
#049360:0056
#050380:26
#053320:16
#053330:00360036
#053340:0056
#054320:26
#057320:0014
#057340:00000034
#058340:00240000
#0593a0:14
#059380:0000003434002400
#063320:14
#063340:0034000000002400
#0683a0:14
#068380:0034
#0693a0:34
#069380:0024
#070320:14
#070340:0034
#071320:34
#071340:0024
#075380:16
#075350:00363636
#076350:26
#079320:16
#079350:00003636
#080350:26
#084320:16000026
#084340:0000365636000000
#085380:16000026
#085360:0000365636000000
#090380:1424
#092320:16
#093350:56
#094320:26
#0963a0:14
#096380:0024
#098320:14
#098340:0024
#1003a0:14
#100380:0024
#102320:1434000000000000
#106340:24
