This file was generated by Ched 2.7.0.0.
#TITLE " "
#ARTIST ""
#DESIGNER ""
#DIFFICULTY 0
#PLAYLEVEL
#SONGID ""
#WAVE ""
#WAVEOFFSET 0
#JACKET ""
#REQUEST "ticks_per_beat 480"
#00002: 4
#BPM01: 138
#00008: 01
#TIL00: ""
#VOLUME: ""
#HISPEED 00
#MEASUREHS 00
#01014:14
#01118:14
#01212:14
#0181a:14
#02118:14
#02218:14
#02210:0000000000000041
#02414:14
#0131a:14
#01414:14
#01518:14
#01612:14
#0171a:14
#01912:14
#02012:14
#02314:14
#03212:0016
#03218:26
#03210:0000000000000041
#03318:16
#03312:0016
#03418:16
#03412:0016
#03518:16
#03512:0016
#03114:14
#0311f:0000000000000021
#03712:16
#03718:0016
#04018:0016
#04012:26
#04218:0016
#04212:16
#04118:0016
#04112:16
#04110:0000000000000041
#04418:1616
#04512:1616
#04712:16
#04718:0016
#04918:0016
#04812:16
#04813:0016
#03918:16
#05212:1616
#06012:1616
#06118:1616
#06212:1616
#05318:1616
#05412:1616
#05918:2616
#05012:16
#05010:0000004100000000
#0251f:11
#06318:26
#06312:0026
#06418:26
#06412:0026
#00910:41
#05810:0000000000000041
#04852:66
#04853:0026
#0003a0:14
#0013a0:24
#002340:14
#003340:24
#004380:14
#005380:24
#005320:0000000000000014
#006320:0000000000000024
#0083a0:14
#0093a0:24
#0253a0:1434
#0263a0:24
#027320:1434
#028320:24
#029380:14
#030380:24
#036380:1626
#038320:1626
#043320:1626
#046380:1626
#048320:16
#048330:0056
#049320:26
#050380:0016
#051380:0026
#055380:1626
#056320:1626
#057380:1626
#058320:1626
#065380:1626
#066320:1626
#067380:16
#068360:0000000000000036
#069360:00360000
#070380:0000000000360000003600000000360000000036000000000000000000000000
#0723a0:0000000000000024
