This file was generated by Ched 2.7.0.0.
#TITLE " "
#ARTIST ""
#DESIGNER ""
#DIFFICULTY 0
#PLAYLEVEL
#SONGID ""
#WAVE ""
#WAVEOFFSET 0
#JACKET ""
#REQUEST "ticks_per_beat 480"
#00002: 4
#BPM01: 138
#00008: 01
#TIL00: ""
#VOLUME: ""
#HISPEED 00
#MEASUREHS 00
#0251f:11
#02516:1414
#02512:24000000000000000000003400003400
#0251a:00000034000034000000000000000000
#06918:00130000
#05112:0000001400000014
#05114:0000000000140000
#05118:0000000000240000
#0511a:0000002400000024
#06412:0000000000000013
#06414:00000013
#06416:2300001300130000
#0641a:24242424
#06515:0000130000000013
#06518:00130000
#06519:00000013
#0651b:2300000000000013
#06517:0000000000130000
#05412:0000001400000000
#05416:0000000000140000
#05418:00000014
#05414:0014
#0541a:0000000000000014
#04615:13
#04617:00130000
#04616:00001314
#0461b:13
#04614:0000001300000000
#04612:0000130000140000
#0461a:0000000000000014
#01212:0023230000130000
#0121b:0023000023000000
#01217:00000023
#0631b:0000000000000013
#06319:00000013
#06317:2300001300130000
#06312:24242424
#06217:0000000000130013
#06212:0000002600002400
#06218:00260000
#01812:0000131300131300
#01817:0000001300001300
#01815:0013000000000000
#01818:13
#0341b:0000131300000000
#03412:00130000000000000000000000000000
#03416:0000001300000000
#03417:0000000000000013
#03415:0000000000130000
#03316:0000000000000013
#03312:0000131300000000
#03317:00130000000013000000000000000000
#03318:0000000000130000
#04218:0000000000130000
#04217:0000001300000000
#04212:0000131300000000
#0421b:00130000000000000000000000002300
#04216:0000000000000023
#04018:0000000000130000
#04017:0000131300000000
#04012:0000131300000013
#0411b:0000131300000000
#04117:0000000000001313
#04116:00130000000013000000000000000000
#04115:0000000000130000
#04110:0000000000000041
#06718:1300000000000013
#06716:00000000000000140000000000000000
#06719:0013000000001300
#0671a:0000130000130000
#0671b:0000001313000000
#06712:24
#06612:1300000013000024
#0661b:00000013
#06618:0013000024000000
#06615:0013000000000000
#06614:00000024
#06616:0000000000240000
#0661a:0000002400000000
#06812:0013000013000024
#0681b:0013000013000000
#06815:00000000001300130000000013000000
#06818:0000131300130000
#0681a:0000000000000024
#0531a:0000140000140000
#05312:0014000000000000
#05316:0000001400000024
#05512:1414
#05516:0000140000000013
#0551b:00000013
#05517:0000000000130000
#0551a:24
#0521a:0014000000000000
#05212:0000140000140000
#05216:0000001400000024
#0321b:0000131300000013
#03216:0000131300000000
#03215:0000000000130000
#03210:0000000000000041
#03812:0000000000130000
#03816:0000131300000000
#0381b:0000000000130000
#03817:13
#03815:0000000000000013
#03818:0000000000000013
#04517:0000001300000013
#0451b:1300000000130000
#04519:00000013
#04512:14141414
#04412:1300000000130000
#04416:0000001300000013
#0441a:24141414
#04414:00000013
#03712:00130000
#03715:0013000000000000
#0371b:1300001300000000
#03716:0000000000130000
#03717:0000000000000013
#03719:0013
#0301a:2400002400002414
#03012:2400002400002414
#03016:0000140000140000
#03018:0014
#03014:0014000000000000
#02418:00000000000000001300000000130000
#02415:0000000000131300
#0241b:00000000000000000000001300000000
#02417:0013000000000000
#02412:0000131300000013
#02312:0013000000130000
#02316:0000001300000000
#02317:0013000000000000
#0231b:0000000000001313
#02314:00130000
#02216:0014001400000013
#02212:0013000000001300
#0221b:0000001300000013
#02218:0013
#02215:0000000000130000
#02210:0000000000000041
#02016:0000000000000013
#0201b:1300000000000013
#02012:0013001300001300
#02015:1313
#02018:0013000000130000
#0211b:0000001300000013
#02116:0000001300140014
#02117:00130000
#02112:0013000000000000
#03119:0000000000130000
#0311b:0013
#03112:0013130000001323
#03114:0000000000130000
#03117:0013000000000023
#0311f:0000000000000021
#00617:0000001300001300
#00619:00130000
#00616:0013000000000000
#0061b:0000000000000023
#04315:0000000000000013
#04318:00260013
#0431b:0000000000130000
#04312:0000002600000000
#02914:14
#02918:0014
#02915:0000001400140000
#02912:00140014
#0291a:00140014
#02917:0014000000000014
#02818:0000000013000013
#02812:24130013
#0281b:00130013
#02815:0000001300130000
#0281a:14
#02716:0000001400000014
#0271a:00000000000000000000001400000000
#02712:24000014000000000000000000000000
#0141b:0013000013000000
#01416:0000000000130000
#01412:0013000000000000
#01418:00000013
#01012:0013000000000000
#01016:0000000000130000
#0101b:0013000013000000
#01018:00000013
#00516:0000000000000013
#00512:0000002300002300
#00515:0000000000230000
#00518:0023
#00312:00000013
#00316:0000001300000000
#00313:0000000000330033
#00314:0033
#0021b:0000001300000000
#00217:00000000000000000000001300000000
#00216:13
#00219:0000000033000033
#00218:0000000000333300
#00114:0013000000000000
#00116:00000013
#0011b:0000000000232300
#00113:33
#00115:00330000
#00012:0000000000000013
#00014:0000000000130000
#00016:2300001300000000
#00015:0033
#00013:00000033
#0611b:0013000000000000
#06115:0000001300000000
#06118:00130000
#06117:0023
#06116:0000000000000023
#06015:0013000000130000
#06018:0000001300000023
#06012:00131313
#0601b:00232323
#01712:1300001400000000
#0171a:2400000000000014
#01718:00000014
#01716:0000000000140000
#01714:0014
#01615:0000000000000013
#01618:13000013
#0161b:0000000000130000
#01612:0000001300000000
#0151b:0000000000000013
#01512:0000001300000000
#01515:0013
#01312:0000000000000013
#01317:00130000
#0131b:0000000013130013
#0111b:0000000000000013
#01116:0000130000000013
#01112:0000000013130000
#00912:0000000000000013
#00917:00130000
#0091b:0000000013130013
#0091a:24
#00910:41
#05716:1300000000000013
#0571b:0000001300000013
#05714:00000013
#05712:00130000
#05619:0000000000000013
#0561b:0013
#05616:0000001300000000
#05617:0013000000000000
#00817:0014001400140014
#0081a:14141414
#05817:0000001300000000
#05818:00000000000000000000001300002300
#05812:0000001300001300
#05815:0000000000130000
#0581b:0013
#05810:0000000000000041
#05015:0023000000000013
#0501b:0000002300000000
#05018:00230000
#05010:0000004100000000
#04916:0000001300000013
#04917:0013000000130000
#04912:0000000000240000
#0491a:0000002400000024
#04812:1400000000000024
#04816:00000000000000140000000000000000
#04817:13
#0481b:00000000000000130000000000000000
#04716:0014000000000000
#04718:0000000000000013
#04719:00000013
#0471b:0013
#0471a:0000000000130000
#03618:0000000000000013
#03617:00000013000000000000000000000000
#03612:00000013000000000000130000000000
#03615:00000013
#03914:00001313
#03912:0000000000130000
#03916:0000001300000023
#0391b:0000000000000023
#0351b:0000000000000013
#03512:0000001300000000
#03519:0013
#03517:0000001300000000
#03516:0013000000000023
#02616:00000014000014000000001400001400
#02612:24
#05918:0013000000130000
#0591b:00131313
#05915:0000001300000023
#05912:00232323
#01912:2400000000000014
#01914:00000014
#01916:0000000000140000
#01918:0014
#0191a:0000001400000000
#00716:00000013
#0071a:00000024
#0041b:0023000000000000
#0701a:00000000000000330000000000000000
#07019:0000000000000000003300000000000000000000000000000000000000000000
#05352:0000000000000014
#05356:0000000000000014
#0525a:0000000000000014
#05256:0000000000000014
#06752:5400000000000014
#06756:00000000000000240000000000000000
#06758:0000000000000013
#04152:0000000000000013
#0415b:0000005300000000
#04157:0000000000000053
#04155:0000000000530000
#04156:00230000000000000000000000000000
#0405b:0000000000000013
#04058:0000000000630000
#04052:0000006300000063
#03952:0013000000000000
#0395b:0013000000000013
#03956:0000000000000013
#0255a:0014
#02552:14
#02556:6454
#05852:0013000000000000
#05857:0013000000000000
#05858:0000000000000013
#03452:00230000000000000000000000001300
#0345b:0000005300000000
#03457:0000000000000053
#03455:0000000000530000
#0335b:0000000000000013
#03356:0000000000000053
#03352:0000006300000000
#03358:0000000000630000
#03357:00230000000000000000000000000000
#03252:0000000000000013
#0325b:0000005300000053
#03255:0000000000530000
#0275a:0014
#02752:14
#0265a:0014
#02652:14
#03656:0013
#0365b:0013
#03658:0000000000000053
#03657:00000023000000000000000000000000
#03652:00000023000000000000000000000000
#0135b:13
#00852:14
#00857:0054005400540054
#0085a:54545454
#06456:63
#0645a:14141414
#06452:0000000000000053
#06357:53
#06352:14141414
#03556:0063000000000063
#0355b:0000000000000063
#03552:0000002300000000
#0555a:54
#05552:14
#05556:0000240000000023
#0655b:5300000000000013
#06555:0000230000000053
#06558:00230000
#0445a:14
#04452:63
#04256:0000000000000053
#0425b:00230000000000000000000000001300
#04258:0000000000630000
#04252:0000006300000000
#04852:6400000000000034
#04856:00000000000000240000000000000000
#04857:63
#0485b:00000000000000230000000000000000
#04952:0000000000340000
#0495a:0000004400000044
#06258:00160000
#06252:0000001600000000
#06157:0023
#06156:0000000000000023
#06058:0000000000000013
#05955:0000000000000013
#01257:00000053
#01252:00530000
#04352:0000001600000000
#04358:00160000
#03157:0000000000000013
#03152:0000530000000013
#03159:0000000000530000
#0315b:0023
#0515a:0000000000000014
#05152:0000000000000014
#02852:14000013
#0285b:00130000
#01952:14
#0175a:14
#0095a:14
#06958:00530000
#04655:13
#04657:00230000
#0465b:63
#0465a:0000000000000014
#03852:0000000000230000
#03856:0000005300000000
#0385b:0000000000230000
#03857:63
#03855:0000000000000053
#03858:0000000000000063
#0455b:53
#03752:00230000
#03755:0063000000000000
#0375b:23
#03756:0000000000530000
#0305a:0000000000000014
#03052:0000000000000014
#02352:0000000000230000
#02356:0000005300000000
#02357:0023000000000000
#0235b:0000000000000053
#0205b:6300000000000053
#02052:0023000000000000
#02055:63
#02058:0023000000000000
#01857:0000002300002300
#06655:0053000000000000
#06652:23
#0295a:00140000
#02952:00000014
#00352:00000023
#00356:0000005300000000
#0025b:0000005300000000
#00257:00000000000000000000002300000000
#00154:0053000000000000
#00052:0000000000000023
#00054:0000000000530000
#00056:0000002300000000
#02156:0000006300000000
#0155b:0000000000000063
#01552:0000005300000000
#01555:0023
#01658:23
#01456:0000000000530000
#01056:0000000000530000
#05756:1300000000000063
#0575b:0000001300000063
#0565b:0063
#05656:0000006300000000
#05657:0023000000000000
#05055:0000000000000023
#0225b:0000000000000053
#02457:0023000000000000
#00756:00000053
#000360:1300003300000000
#000350:0033
#000340:0000000000330000
#000330:00000033
#000320:0000000000000033
#001330:33
#001340:0033000000000000
#001350:00330000
#001360:0000003300230000
#0023b0:1300003300000000
#002390:0000000033000033
#002380:0000000000333300
#002370:00000000000000000000005300000000
#0033b0:23
#003361:1300003300000000
#003341:0033
#003331:0000000000330033
#003321:00000033
#004361:0033333300000000
#005321:23
#0043b0:0013333300000000
#005370:23
#0053b0:0000000000000013
#0063b0:0023000000000000
#006320:0000001300002300
#006360:0000000000000013
#007360:0000330033333300
#007320:0000000000000054
#008320:24
#0083a1:14343434
#008371:0034003400340034
#0093a1:24
#009320:13230000
#009360:0000000013230000
#010320:00130000
#010360:0023
#010360:0000000000130000
#011320:23
#0113b1:13230000
#011371:0000000013230000
#012321:00130000
#012361:0023
#012371:00000013
#0133b1:23
#013320:13230000
#013360:0000000013230000
#014320:00130000
#014360:0023
#014360:0000000000130000
#015320:23
#0153b1:1323000000000000
#015350:0013230000000000
#015381:0000132300000000
#015320:0000001300230000
#015350:0053
#015381:0000000000132300
#015350:0000000000001323
#0153b1:0000000000000013
#016381:53
#0163b1:0023000000000000
#016350:0013230000000000
#016381:0000132300000000
#018371:0000001300000000
#0183b1:0000000000230000
#018371:00000013
#0193b1:23
#0203b1:13230000
#020381:0053000000000000
#020350:13230000
#020320:0053000000000000
#0203b0:0000000000000013
#021370:0023000000000000
#021360:0000001300000000
#021320:0000000000230000
#0223b0:0000000000000013
#023370:0053000000000000
#0233b0:0000002300000000
#023361:0000001300000023
#023321:0000000000530000
#0233b0:0000000000000013
#024370:0053000000000000
#0243b0:0000002300000000
#025360:14
#0253a0:00000034000034002400000000000000
#025361:0014
#025321:00000000000000000000003400003400
#026321:24
#0263a0:1424
#026321:0014
#027321:24
#0273a0:1400003424000000
#027360:00000034000000000000000000000000
#027321:0000000014000034
#027361:00000000000000000000003400000000
#028321:24
#0313b1:00133300
#031391:0000000000530000
#031371:0000000000005323
#031320:00130000
#031360:0023
#0323b1:0000001300000000
#032381:0000000000230000
#032350:0000000000130000
#032320:0000000000000023
#0323b1:0000000000000013
#033371:00530000000000000000000000000000
#0333b1:00230000
#033321:0000001300000000
#033351:0000000000230000
#033380:0000000000130000
#0333b0:0000000000000023
#033361:0000000000000013
#034321:00530000000000000000000000000000
#034361:00230000
#0343b1:0000001300000000
#034381:0000000000230000
#034350:0000000000130000
#034320:0000000000000023
#034371:0000000000000013
#0353b1:0023000000000000
#035360:0013000000230000
#035320:0000003300000000
#0353b1:0000000000130033
#036371:00000053000000000000000000000000
#0363b1:0023
#035360:0000000000000013
#036320:00000053000000000000000000000000
#036360:0023
#036380:0000000000000013
#0373b0:53
#037380:0023000000000000
#037351:0013000000000000
#037321:00530000
#037361:0000002300000000
#037361:0000000000130000
#038321:23
#038370:13
#0383b0:0000002300000000
#038361:0000001300000000
#038321:0000000000330000
#038351:0000000000000033
#039321:0023000000000000
#0383b0:0000000000130000
#038380:0000000000000033
#0393b0:0023000000000000
#0393b0:0000001300000023
#039370:0000000000330000
#040320:0000001300000000
#040350:0000000053230000
#040381:0000000000130000
#0403b1:0000000000005323
#040320:0000000000000013
#041360:00530000000000000000000000000000
#041320:00230000
#0413b0:0000001300000000
#041380:0000000053230000
#041351:0000000000130000
#041321:0000000000005323
#041370:0000000000000013
#0423b0:00530000000000000000000000000000
#042370:00230000
#042320:0000001300000000
#042350:0000000053230000
#042381:0000000000130000
#0423b1:0000000000005323
#042360:0000000000000013
#043320:00230000
#044320:13
#044360:00230000
#0453b0:13
#045370:00230000
#0463b0:1323
#046370:00530000
#0473b0:0013002300000000
#047361:0000001400000000
#048321:5400000000000024
#048361:00000000000000540000000000000000
#048370:1300000000000023
#0483b0:00000000000000530000000000000000
#050350:0000001300000053
#051320:00290000
#0523a0:0000001400000024
#052360:0000000000340000
#053320:0000001400000024
#053360:0000000000340000
#0543a0:0014000000000000
#054360:0000002400000000
#0553a0:1424
#055360:00540000
#055360:0000000000000013
#056320:0023000000000000
#056371:0013000000000000
#0563b1:0000002300000000
#056360:0000001300000000
#056320:00000023
#0563b1:0013
#056371:00000023
#0573b1:13
#057371:00230000
#057361:0000001300000000
#057321:0000000000230000
#057370:0000000000130000
#0573b0:0000000000000033
#058370:0023000000000000
#057361:0000000000000013
#058321:0023000000000000
#058351:0000000000000013
#059351:0023000000000000
#059381:0000000000000013
#060381:0023000000000000
#060351:0000000000000013
#061351:0023000000000000
#061371:0013
#0613b1:00000023
#061320:00001323
#061360:0000000000000013
#062320:0023000000000000
#0613b1:0000000000000013
#0623b1:0023000000000000
#063371:13
#0633b1:00230000
#064361:13
#064321:00230000
#064321:0000000000000013
#065351:00530000
#065321:0023
#0653b0:1323
#065380:00530000
#065350:0000000000000013
#066320:5300002300000000
#066350:0033000000000000
#067320:1400000000000024
#067360:00000000000000540000000000000000
#069380:00000013330000000000000000000000
#069390:0000000000000033000000000000000000000000000000000000000000000000
#0703b0:0000000000330000000000000000000000000000000000000000000000000000
#070390:0000000000000000003300000000000000000000000000000000000000000000
#0703a0:00000000000000330000000000000000
#070370:0000000000000000000000000000000000000033000000000000000000000000
#0723c0:0000000000000022
