This file was generated by Ched 2.7.0.0.
#TITLE " "
#ARTIST ""
#DESIGNER ""
#DIFFICULTY 0
#PLAYLEVEL
#SONGID ""
#WAVE ""
#WAVEOFFSET 0
#JACKET ""
#REQUEST "ticks_per_beat 480"
#00002: 4
#BPM01: 138
#00008: 01
#TIL00: ""
#VOLUME: ""
#HISPEED 00
#MEASUREHS 00
#00015:2300001300000000
#00013:0000000000130000
#00012:0000000000003313
#00014:0033
#00112:3300000000131300
#00113:0013000000000000
#00118:0000000000232300
#00114:00330000
#00918:0013
#00915:0000000000130000
#0091b:0000000000000013
#00912:00130000
#0091a:24
#00910:41
#0171b:0000001300000013
#01712:2413
#01718:0000000000130000
#01715:00000013
#01815:13
#01818:0013000000000000
#01812:00130000
#02015:00000013
#02018:0000001300000000
#02012:0013
#0201b:0000000000130000
#02418:0000000000000013
#0241b:0000000000130000
#02415:00000013
#03018:0013000000130000
#03015:00131300
#0301b:0000002300000013
#03012:23000023
#03618:00000013000000000000130000000000
#03615:00000013000000000000000013000000
#03715:0013
#03718:0000000000130000
#03915:0000001300130000
#0391b:0013
#03918:0013000000001300
#03912:0013000000000024
#03118:0000000000130000
#03115:00130013
#0311a:0000000000000024
#0311f:0000000000000021
#0431b:0000000000130000
#04315:00000013
#04318:0000000000000013
#04512:00141414
#0451a:1400001400000000
#04518:0000000000140000
#04516:0000000000000014
#04414:0000000000140000
#04412:2400001400000000
#0441a:00141414
#04416:0000000000000014
#0461a:0000000000140000
#04615:00000014
#04612:14
#0471a:0000000000140000
#04712:0000001400000014
#04716:00001414
#0551b:0000000000130013
#05515:00140013
#05512:24
#05815:0000001300130000
#0581b:0013
#05818:00000013
#05812:0000000000000024
#05810:0000000000000041
#0611a:0000001400000000
#06117:0000000000000024
#06115:0024
#03218:0000000000130000
#03215:00130000
#0321b:0000001300000000
#03210:0000000000000041
#0341b:0000001300000013
#03418:0000000000130000
#03415:00130000
#03515:0000001300130000
#03518:0013
#0351b:0000000000000013
#03512:0000000000000023
#0481a:1400000000000024
#04816:00000000000000140000000000000000
#04914:0014000000000000
#04918:0000002400000026
#04913:0000000000250000
#0541a:0000000000000014
#05414:0014
#05413:00000014
#05418:0000000000140000
#05015:0023000000000013
#05018:00230000
#05010:0000004100000000
#05618:0013000000000013
#05615:0013
#0101b:0013000000000000
#01018:0000000000130000
#01015:00000013
#01115:0013
#01118:0000000000130000
#01112:0000000000000013
#01618:0000000000130013
#01615:00000013
#01612:1333000000000000
#01613:00330000
#05916:0000000000140000
#05914:00240000
#0591a:0000002400000000
#02515:00000033000000001300000000000000
#02512:13000000000000000000003300000000
#0251f:11
#02115:00130000
#02118:0000001300000000
#05214:00140000
#0521a:0000000000000024
#05318:00140000
#05312:0000000000000024
#05112:0000001400140014
#0511a:0000002400240024
#00312:0000000000130000
#00315:0000001300000000
#00313:00003333
#0021b:00000000000000000000331333000000
#00218:0000001300000000
#0021a:0000000033000033
#00518:0000002300000013
#00512:0023
#0051b:0000000000230000
#00515:00000023
#00615:00000013
#0061b:0013000000000023
#00612:0000000000000023
#00619:00330000
#01315:0013
#01318:0000000000130000
#01312:0000000000000013
#0131b:00130000
#01412:0013000000000000
#01415:0000000000130000
#01418:00000013
#01515:0000130000130000
#01512:1300000000000033
#0151b:0013000000000000
#01513:00000033
#01918:0000001300130000
#01912:2313
#01915:00000013
#0191b:0000000000000013
#02215:0000001300000000
#0221b:0013
#02212:0000000000130000
#02218:00000013
#02210:0000000000000041
#02318:00000013
#0231b:00130000
#02315:0000000000000013
#02812:2300000000133300
#02815:0000001300000000
#02813:0000000000000013
#0281b:0000000000133300
#02818:00130000
#0281a:0000000000000013
#02915:00130000
#02918:00130000
#03315:0000000000130000
#03318:00130000
#03312:0000001300000000
#03815:1300000000000013
#03818:0000001300000000
#0381b:0000000000000013
#04218:0000131300000000
#04212:0000131300000000
#04215:0000000000000023
#0421b:0000000000000023
#04018:00130000
#04012:00130000
#06016:0000000000140000
#06018:00240000
#06012:0000002400000000
#06318:0000000000140000
#0631a:2400001400000000
#06316:0000000000000014
#06312:00242424
#06515:0000000000000013
#06518:00000013
#06512:0000000000130000
#0651a:24
#06716:00000000000000140000000000000000
#06712:24
#06412:2400001400000000
#06414:0000000000140000
#06416:0000000000000014
#0641a:00242424
#06214:0000000000140000
#06212:0000240000000014
#0621a:0000002400000000
#06218:00000024
#0681b:0013000013000023
#06818:0000130000130000
#06815:0000001300001300
#06812:0000000000000023
#0071a:00000014
#00712:00000024
#04115:00130000
#0411b:00130000
#04110:0000000000000041
#05712:13
#05718:0000000000000013
#0571b:0000001300000000
#05715:00000013
#02618:00000033000000001300000000000000
#0261b:13000000000000000000003300000000
#02715:00000033000000001300000000000000
#02712:13000000000000000000003300000000
#0041b:0023000000000000
#0661a:0000002400000024
#06616:00002424
#06612:0000000000240000
#0121a:0024000000000000
#01215:00240000
#07019:0000000000000000003300000000000000000000000000000000000000000000
#0701a:00000000000000330000000000000000
#0095a:14
#01752:14
#02852:1300000000230000
#02855:0000005300000000
#02853:0000000000000053
#0285b:0000000000230000
#02858:00630000
#0285a:0000000000000063
#05852:0000000000000014
#0585b:0013000000000000
#0305b:0000000000000013
#0315a:0000000000000014
#03155:00630000
#03258:0000000000530000
#0325b:0000005300000013
#0345b:0000005300000053
#03458:0000000000530000
#03655:00000023000000000000000000000000
#03658:00000023000000000000000000000000
#0355b:0000000000000063
#03552:0000000000000063
#03758:0000000000530000
#0485a:6400000000000044
#04856:00000000000000240000000000000000
#05055:0000000000000023
#0515a:0000000000000014
#05152:0000000000000014
#0555b:0000000000000063
#05555:00240000
#05552:64
#05655:0063
#05658:0053000000000000
#00055:0000002300000000
#00052:0000000000000023
#00053:0000000000530000
#00153:0053000000000000
#02555:0053
#02552:63
#03952:0013000000000014
#03958:0013000000000000
#05352:0000000000000014
#04953:0000000000350000
#04958:0000004400000046
#0525a:0000000000000014
#04255:0000000000000053
#04258:0000006300000000
#04252:0000006300000000
#0425b:0000000000000053
#04452:14
#00352:0000000000230000
#00355:0000005300000000
#0025b:00000000000000000000002300000000
#00258:0000006300000000
#00558:0000000000000063
#01652:23
#01555:0000000000530000
#01952:13
#02955:00230000
#02958:00230000
#03355:0000000000630000
#03352:0000006300000013
#03855:53
#03858:0000006300000000
#04652:54
#0595a:0000005400000014
#05956:0000000000540000
#06056:0000000000640000
#06052:0000006400000014
#06157:0000000000000024
#06155:0024
#0625a:0000001400000000
#06252:00140000
#06756:00000000000000240000000000000000
#06752:5400000000000034
#0635a:14
#06558:00000053
#06555:0000000000000053
#0655a:64
#0065b:0053000000000000
#01352:14
#02158:0000005300000000
#02355:0000000000000063
#04052:0000000000000013
#04058:0000000000000013
#04155:0000000000000013
#0415b:0000000000000013
#04352:0000001300000000
#04358:0000001300000000
#05752:53
#05758:0000000000000053
#0575b:0000006300000000
#02658:0063
#0265b:53
#02755:0053
#02752:63
#0455a:14
#06452:14
#000350:1300003300000000
#000340:0033
#000330:0000000000330000
#000320:0000000000003333
#001320:33
#001330:0033000000000000
#001340:00330000
#001350:0000002300000000
#002380:1300003300000000
#0023a0:0000000033000033
#0023b0:00000000000000000000335333000000
#003380:23
#003350:0000001300000023
#003330:00003333
#003320:0000000000330000
#0043b0:0013333300000000
#005380:23
#004351:0013333300000000
#005321:23
#005381:0000000000000013
#0063b1:0033000000000000
#006391:00330000
#006381:0000003300230000
#0083a1:14343434
#008381:0034003400340034
#0093a1:24
#010351:00130000
#010321:0023
#0113b1:13
#011381:00230000
#012351:00140034
#012321:0034
#013321:24
#014381:00130000
#0143b1:0023
#015381:0000001300230000
#015350:0000000000130000
#015330:00000033
#015320:0000000000000033
#016320:5333000000000000
#016330:00330000
#016350:0000002300000000
#0183b0:0000001300000000
#018380:0000000000230000
#018350:00000013
#019320:23
#020350:13
#020320:00230000
#0203b0:0000000000000013
#021380:0023000000000000
#021380:0000001300000000
#0213b0:0000000000000023
#022350:0000000000000013
#023320:0023000000000000
#023320:0000001300000000
#023350:0000000000230000
#023350:0000000000000013
#024320:0000002300000000
#025320:13000000000000000000003300003300
#025350:00000033000033003300000000000000
#026320:23
#0263b1:13000000000000000000003300003300
#026381:00000033000033003300000000000000
#0273b1:23
#027320:13000000000000000000003300003300
#027350:00000033000033003300000000000000
#028320:23
#028380:00130000
#0283b0:0000000000333300
#0283a0:0000000000000033
#029380:00530000
#0293b0:00000023
#028351:0000001300000000
#028321:0000000000333300
#028331:0000000000000033
#029351:00530000
#029321:00000023
#031351:00130000
#031321:0023
#0323b1:0000001300000023
#032381:0000000000330000
#033321:0000001300000023
#033351:0000000000330000
#0343b1:0000001300000033
#034381:0000000000330000
#035381:0023000000000000
#035321:0000000000000013
#036351:00000053000000000000000000000000
#036321:0023
#0353b0:0000000000000013
#036380:00000053000000000000000000000000
#0363b0:0023
#036380:0000000000000013
#0373b0:0033000000000000
#037380:0000002300000000
#037380:0000000000130000
#0373b0:0000000000000023
#038350:13
#038320:00230000
#038380:0000001300000000
#0383b0:0000000000230000
#040380:0000001300000023
#0403b0:0000000000330000
#040321:0000001300000023
#040351:0000000000330000
#041351:0000001300000023
#041321:0000000000330000
#0413b0:0000001300000023
#041380:0000000000330000
#042380:0000001300000000
#0423b0:0000000000230000
#042321:0000001300000000
#042351:0000000000230000
#042351:0000000000000013
#043321:0000332300000000
#0423b0:0000000000000013
#043380:0000332300000000
#046320:14
#046350:0024
#0463a0:0000000000000014
#047370:0024000000000000
#0483a0:1400000000000024
#048360:00000000000000540000000000000000
#050350:0000001300000053
#051320:00290000
#0523a0:0000001400000024
#052370:0000000000340000
#053320:0000001400000024
#053350:0000000000340000
#054380:0014002400000000
#055320:1424
#055350:00540000
#0553b0:0000000000000013
#056380:0033000000000000
#0563b0:0000002300000000
#056350:0013
#056320:00000023
#057320:13
#057350:00230000
#0573b0:0000001300000000
#057380:0000000000230000
#057380:0000000000000013
#0583b0:0023000000000000
#0593a0:0000001400000024
#059360:0000000000340000
#060320:0000001400000024
#060360:0000000000340000
#061350:0014
#061320:00000024
#061370:0000000000000014
#0623a0:0024000000000000
#0653a0:14
#065370:0024
#065380:00000013
#0663b0:0023000000000000
#065351:0000000000000013
#066321:0023000000000000
#067321:1400000000000024
#067361:00000000000000540000000000000000
#069381:00000013330000000000000000000000
#069391:0000000000000033000000000000000000000000000000000000000000000000
#0703b1:0000000000330000000000000000000000000000000000000000000000000000
#070391:0000000000000000003300000000000000000000000000000000000000000000
#0703a1:00000000000000330000000000000000
#070381:0000000000000000000000000000000000000033000000000000000000000000
#0723b1:0000000000000023
