This file was generated by Ched 2.7.0.0.
#TITLE " "
#ARTIST ""
#DESIGNER ""
#DIFFICULTY 0
#PLAYLEVEL
#SONGID ""
#WAVE ""
#WAVEOFFSET 0
#JACKET ""
#REQUEST "ticks_per_beat 480"
#00002: 4
#BPM01: 138
#00008: 01
#TIL00: ""
#VOLUME: ""
#HISPEED 00
#MEASUREHS 00
#0001c:2200001200000000
#0001a:0000000000120000
#00018:0000000000000012
#00014:0000000000120000
#00012:0000000000000012
#00016:0000002200000000
#00019:00000032
#0001b:0032
#00114:0012000000001200
#0011a:0012000000002200
#00118:0000000000220000
#0011b:00320000
#00119:32
#00216:1200001200000000
#00218:00000000000000000000001200000000
#0021c:0000001200000000
#00214:0000000012000012
#00212:0000000000121200
#00219:0000000000323200
#0021a:0000000032000032
#00616:0012000000000000
#0061a:0000120000000024
#00618:0000001200001200
#00612:00000012
#00716:00000012
#00718:0000000000000000000000000000000000000000000000000000001300000000
#0071b:00000023
#00917:0000000013130000
#00916:1300000000000013
#0091b:2300130000000013
#00912:0013000000001300
#00910:41
#0101b:0013130013000000
#01012:0013000000001300
#01016:0000000000130000
#01612:0000001300001300
#0161b:00130000
#01617:0000001300000000
#01616:0000000000130013
#01712:1300001300001300
#01714:0013
#01716:0000000000130000
#01718:00160016
#0171a:0000000000000013
#01717:2313000000000000
#01912:0000160000131613
#0191b:13001313
#01915:0013
#01918:0000001300000000
#01916:2313000000130013
#0241b:0013000000000013
#02412:0000000013000013
#02418:0000160000131300
#02415:00000000000016000000001300130000
#02416:13
#02414:00000013000000000000000000000000
#03016:0014140000000000
#03015:0000000016160000
#03012:2400002500002616
#03018:0000000000002616
#0301a:24
#03019:0000002500000000
#03117:0013000000000000
#03119:0000000000130000
#0311a:00000013
#03112:0013000013000023
#03116:00000000000000000000001300000000
#0311b:0000130000000023
#03118:0013
#0311f:0000000000000021
#03616:0000000000000000000000000000000000000000000000141400000000000034340000000000000000000000000000000000000000000000000000000000000000000000000000000000000000000000130000000000000000000000000000000000000000000000000000000000000000000000000000000000000000000000
#03614:0013000000000000000000130000000000000000000000001300000000000000
#03612:0000000000000013
#03619:0013000000000000000000130000000000000000000000001300000000000000
#03617:0000000000000013
#0361b:0000000000130000
#03613:33
#0361a:33
#03714:0013
#03716:0013000000000000
#03712:0000130000130013
#03719:0013
#0371b:0013000000001300
#03717:0000130000130000
#03912:0000001300000024
#03916:0013
#03915:0000000000130000
#03914:00000013
#03918:00000000000000000013000000000000
#03919:00000013
#0391a:0000000000000024
#04612:0013141516181a1c
#0461b:13
#04616:1313000000000000
#04712:00001300130000000000001300130013
#0471b:0000001313000000
#04716:00000014000000140014000014001400
#05118:0000001600260016
#05112:0000002600160026
#0551a:2400000000140000
#05516:0000140013000013
#05514:0000001300001300
#0551b:0000000000000013
#05512:1400130000130000
#05617:0013000000001300
#05619:0000000000130013
#0561b:0013
#05616:0000001313000000
#05614:00130000
#05612:0000000000000013
#05812:00000000130013000000001300000000
#0581b:0000131300130023
#05815:0000000000001313
#05817:0013000000000000
#05818:00000000000000000000000000130000
#05816:0014
#05810:0000000000000041
#0591b:0013130013001300
#05918:0000231300000013
#05915:0000000023130000
#05912:0000000000002323
#06212:0013162600131600
#06215:0000000000000013
#06218:00000000260016000000000026000013
#06317:0013001300130013
#0631b:23000013
#06312:27262524
#0651b:23131313131300000000130000001300
#06516:00001400000000141400000014140000
#06512:1300131300130013
#0651a:0013001300130013001300130000000000000000000000000000000000000000
#06812:00001300000000131c00190016002300
#0681b:0013130000000000
#06818:00000000001300000000000000002600
#06815:0000001300000000
#0321b:0000131300000013
#03212:0013000013130000
#03216:0000000000131313
#03210:0000000000000041
#03517:0000131300130000
#03512:0013000013130023
#0351b:0000130000000013
#03516:13000013
#04816:00000000000000130000000000002400
#0481b:13
#04815:0012000000001200
#04813:0000120000120000
#04812:0000001212000000
#0491b:0013000000130000
#04912:0000001300270013
#04916:0000140014001428
#04918:0000002600000000
#05017:0000270000000012
#05012:002c000000000000
#0501c:0000002200000000
#05010:0000004100000000
#05716:0000130000000013
#05714:00000013
#0571b:0000001300000000
#05712:13
#05717:0000000000130000
#0081b:13131313
#00817:0013001300130013
#00816:00131313
#00812:0013001300130013
#01117:0000000000000013
#0111b:0000130013130000
#01112:1300000000001313
#01116:0013000000000000
#01512:1300001300001300
#0151b:0013000000130013
#01519:00130000
#01517:0000001300001300
#01516:0013000000000013
#01514:00130000
#00516:0000000000000012
#00512:0000002200000000
#0051c:0022
#0051a:0000000000220000
#00518:0000002200002200
#02516:14000014000000001400000000000000
#02512:24000000000014001400001400000014
#0251a:00000014000000000000001400001400
#0251f:11
#0281b:0013
#02819:0000000000130000
#02816:0000130000000014
#02817:0000001300001300
#02812:23
#0291a:0000000014000014
#02918:0000000000140000
#02914:0014000000000000
#02916:0000141400001400
#02912:1400000000000014
#04315:00000000000000000013000000001300
#0431b:0013
#04318:00000000000000000000130000000013
#04317:00130000270000000000000027000000
#04312:0000002700001300
#06618:00001300130000130000230023000013
#06615:00000013000023002300001300002300
#0661b:00000000000000001300000000130000
#06612:00130013
#06616:13
#04016:00131300
#0401b:00130013
#04012:0000001300001313
#04017:0000001300130000
#0671b:1300131300000013
#06719:00001313
#06717:0000000000130000
#06718:00000013000000000000000000000000
#06715:2300000000000000000000000014000000000000000000000000000000000000
#06712:0000000000150000
#0531b:0000130000001323
#05318:00000013000012000000120000000000
#05315:0013000000000000
#05316:00000000000000120000001200000000
#0531a:0012
#05314:00000000000000000012000000000000
#05312:0000130000001313
#0121b:0023130000000000
#01212:0023000000131300
#01216:00230000
#01217:00002323
#02616:14000014000000001400000000000000
#0261a:24000000000014001400001400000014
#02612:00000014000000000000001400001400
#01317:0000000013130000
#01316:1300000000000013
#0131b:0000130000000013
#01312:0013000000001300
#0141b:0013130013000000
#01412:0013000000001300
#01416:0000000000130000
#01818:13160016
#01816:0013000000000000
#01814:00130000
#01812:0000001300001300
#0181b:0000000000130000
#01817:0000001300000000
#02716:14000014000000000000140000001400
#0271a:00000014000000001400001400000000
#02712:2400001400000000
#02714:00001414
#02715:00000000000000000000003400000000
#02012:0000160000001613
#02016:0013000000000000
#02015:1300000000130000
#02017:0000000013000013
#02019:0000001300130000
#0201b:13000013
#03312:0000131300000013
#0331b:0013000013130000
#03317:0000000000131313
#0341b:0000131300000013
#03412:0013000013130000
#03416:0000000000131313
#04116:1300001300130000
#04117:00131300
#04112:00130013
#0411b:0013001300001313
#04110:0000000000000041
#04217:1300001300130023
#0421b:00130013
#04216:00131300
#04212:0013001300001323
#04417:0013001300001300
#0441b:1300000000130013
#04412:27161514
#04516:0013001300001300
#04512:1300000000130013
#04519:0015
#04518:00160000
#04517:17
#0451a:00000014
#0521b:0013000013000013
#05212:0013000013000023
#05218:00000000130013000000001200120000
#05216:0000000000121200
#05215:00000000001300130000000000000000
#05416:00001400000000140014000000140014
#05412:00141414
#0541a:0000141400140014
#06012:0013130013001300
#06015:0000231300000023
#06018:0000000023130000
#0601b:0000000000002323
#0611b:0013130013001300
#06118:0000231300000023
#06115:0000000023130000
#06112:0000000000002323
#0641b:00000000000000000000000000000013
#06416:0013001300130013
#06412:23000013
#06417:27
#06418:00260000
#06419:0025
#0641a:00000024
#03816:1300000000130000
#03817:0000001300000000
#03812:0013001300000013
#0381b:1300130000000013
#03818:00000013
#06916:00140000
#0211b:0013001300000000
#02116:00130000000000000000000000000000
#02118:0000160000000012
#02112:0000001300121600
#02117:00000000000000000013000000000000
#02212:0000130000001613
#0221b:00000013
#02218:0000160000130013
#02215:0013
#0221c:0000001200000000
#02216:0012000000000000
#02210:0000000000000041
#02312:0000000000131613
#02318:00160000
#0231b:0013001300000000
#02316:13
#02314:00000013000000000000000000000000
#02317:0013
#02319:00000000000000000000001300000000
#00418:0022000000000000
#00756:00000052
#00758:0000000000000000000000000000000000000000000000000000002300000000
#0095b:13130000
#00952:0023000000001300
#00956:53
#02552:14
#02556:6414
#0255a:00000064000000000000000000000000
#02852:13000013
#0285b:00130000
#0655b:53535353535300000000000000001300
#06552:0000000000000053
#0655a:0053005300530053005300530000000000000000000000000000000000000000
#03152:0000000053000033
#03156:00000000000000000000002300000000
#0315b:0000000000000043
#04856:00000000000000230000000000003400
#0485b:63
#05556:0000240000000023
#05552:34
#0555b:0000000000000043
#0555a:64
#05057:0000000000000022
#05657:0023000000000000
#05656:0023
#0085b:53535353
#00857:0053005300530053
#00856:00000053
#00852:3600000000000053
#0575b:0000001300000013
#05756:0000000000000063
#05752:13
#05757:0000000000530000
#05852:0013000000000000
#05857:0013000000000000
#05855:0000000000000053
#0585b:0000000000000013
#0135b:13130000
#01352:0023000000001300
#01356:53
#01257:00000053
#01256:00530000
#0125b:00130000
#01252:00000013
#01552:0000005300000000
#0155b:0000000000000063
#01557:0000004300000000
#01556:0000000000000033
#0005c:0000002200000000
#00058:0000000000000022
#0005a:0000000000520000
#00054:0000000000520000
#00052:0000000000000022
#00056:0000002200000000
#0015a:0052000000000000
#00154:0052000000000000
#0025c:0000005200000000
#00258:00000000000000000000002200000000
#02752:1400002400000000
#02756:54000064000000000000240000000000
#0275a:00000064000000001400000000000000
#02754:00006454
#0405b:00000023
#04052:0000006300330063
#04057:0000001300630033
#04056:0023
#04952:0000000000370000
#04956:0000000000000048
#04958:0000004600000000
#06758:00000023000000000000000000000000
#06755:5300000000000000000000000054000000000000000000000000000046000000
#0675b:1300000000000043
#06752:0000000000250000
#0465b:63
#04656:3323000000000000
#04652:000000000000004c
#0105b:00130000
#01052:00000013
#0115b:00130000
#01152:63000013
#01156:0023000000000000
#02656:5414
#0265a:14
#02652:00000054000000000000000000000000
#0145b:00130000
#01452:00000013
#01852:0000006300006300
#01752:53
#01757:4323000000000000
#0295a:00140000
#02952:00000014
#0305a:44
#03058:0000000000004646
#03052:3400003500003636
#03059:0000004500000000
#03557:0000230000630000
#03552:0053000000000023
#0355b:0000000000000023
#03556:23
#03756:0053000000000000
#03752:00230000
#0375b:0053000000002300
#03757:0000230000630000
#03652:0000000013000053
#03654:0053000000000000000000530000000000000000000000000000000000000000
#03656:0000000000000000000000000000000000000000000000242400000000000000000000000000000000000000000000000000000000000000000000000000000000000000000000000000000000000000000000000000000000000000000000000000000000000000000000000000000000000000000000000000000000000000
#03659:0063000000000000000000630000000000000000000000000000000000000000
#0365b:0013
#03657:0000000000000053
#01956:3323000000230023
#0195b:63005353
#02056:0023000000000000
#02052:0000000000000063
#0205b:53
#03256:0000000000530033
#0325b:0000005300000043
#03352:0000006300000033
#03357:0000000000630043
#0345b:0000005300000063
#03456:0000000000530033
#03952:0000000000000034
#0395a:0000000000000044
#03956:0012000000000000
#03958:0012000000000000
#04156:2300001300530043
#04152:00000023
#0415b:0000005300430053
#04157:0023
#04257:2300001300630033
#0425b:00000023
#04252:0000006300330053
#04256:0023
#04357:00230000470000000000000047000000
#04352:0000003700000000
#04452:37363534
#0445b:53
#04457:0023000000000000
#04552:63
#04559:0045
#04558:00460000
#04557:47
#0455a:00000044
#04556:0023000000000000
#05152:0000000000000036
#05158:0000000000000046
#05252:0000000000000033
#0525b:0000000000000043
#0535b:0000000000000043
#05352:0000000000000033
#05958:0000000000000063
#0595b:00131313
#05952:0000000000000013
#0615b:00131313
#06158:0000000000000053
#06152:0000000000000013
#06252:0000003600000000
#06258:0000465600004600
#06352:37363534
#0635b:53
#06357:0023000000000000
#06055:0000000000000063
#06052:00131313
#0605b:0000000000000013
#06456:0023000000000000
#06457:47
#06458:00460000
#06459:0045
#0645a:00000044
#06452:63
#06656:23
#03856:5300000000230000
#03857:0000002300000000
#03852:0023000000000053
#0385b:0000000000000053
#06956:00540000
#02156:00230000000000000000000000000000
#0215b:0000005300000000
#02157:00000000000000000023000000000000
#02252:0000000000000063
#02356:23
#02354:00000063000000000000000000000000
#0235b:0000005300000000
#02357:0023
#02359:00000000000000000000005300000000
#02352:0000000000000063
#02456:23
#02454:00000063000000000000000000000000
#0003c0:1200005200000000
#0003b0:0032
#0003a0:0000000000520000
#000390:00000032
#000380:0000000000000052
#001390:32
#0013a0:0052000000000000
#0013b0:00320000
#0013c0:0000002200000000
#000361:0000001200000000
#000341:0000000000320000
#000321:0000000000000032
#001341:0032000000000000
#001361:0000003200220000
#0023c1:1200003200000000
#0023a1:0000000032000032
#002391:0000000000323200
#002381:00000000000000000000005200000000
#0033c1:22
#003360:1200002200000000
#0033c1:0000001222000000
#003360:0000000012220000
#0033a1:0000000000122200
#003380:0000000000001222
#0033c1:0000000000000012
#0043c1:0032003200000000
#0043a1:00320000
#005361:22
#004380:0012003200000000
#004360:00320000
#005320:22
#005380:0000000000000012
#0063c0:0022000000000000
#006360:0000001200000000
#006320:0000000000220000
#006360:0000000000000012
#007360:0000320032323200
#007380:0000000000000000000000000000000000000000000000000000005300000000
#008320:26
#0083b1:13333333
#008371:0033003300330033
#0093b1:23
#008360:00000013
#008320:0000000000000033
#009360:33230000
#009320:0053000000000000
#009320:0000000013230000
#010360:00132300
#010360:00000013
#011360:23
#011321:13230000
#011361:0053000000000000
#011361:0000000013230000
#012361:00130000
#012321:0023
#012371:00000013
#0133b1:23
#013360:13230000
#013320:0053000000000000
#013320:0000000013230000
#014360:00132300
#014360:00000013
#015360:23
#015320:0000001300000000
#015370:0000000000230000
#0153b0:0000000000000013
#016360:0023000000000000
#016321:0013000000000000
#016361:00230000
#0163b1:0000000000130033
#016371:00000033
#017371:23
#017320:13230000
#017370:0053000000000000
#018320:0000001300000000
#018360:0000000000230000
#018320:00000013
#019360:23
#0193b1:13230000
#019361:0053000000000000
#0193b1:00001333
#019361:0000000000530053
#0203b1:33230000
#020361:0053000000000000
#020321:0000000000000013
#021361:00530000000000000000000000000000
#021321:00230000
#0213b1:0000001300002300
#021371:00000000000000000053000000000000
#022321:0000000000000013
#023361:53
#023341:00000053000000000000000000000000
#023321:0000002300000000
#0233b0:0000001300000023
#023370:0053
#023390:00000000000000000000005300000000
#023321:0000000000000013
#024361:53
#024341:00000053000000000000000000000000
#024321:0000002300000000
#025361:1400002400000000
#0253a1:00000034000000000000000000000000
#026361:1400002400000000
#026321:00000034000000000000000000000000
#027361:1400002400000000
#0273a1:00000054000000000000000000000000
#027360:00000014000000000000540000000000
#027320:0000003400000024
#027340:00003454
#027350:00000000000000000000003400000000
#0283b0:13230000
#028320:0000001300002300
#0283a0:0000000000000014
#0293a0:00240000
#029320:0000001400002400
#031360:00000000130000000000005300000000
#031320:0000000033000023
#032360:0000132300000000
#0323b1:0000001300000000
#032361:0023
#032361:0000000000130000
#0323b1:00000023
#033371:0000132300000000
#033320:0000001300000000
#033370:0023
#033370:0000000000130000
#033320:00000023
#034360:0000132300000000
#0343b1:0000001300000000
#034361:0023
#034361:0000000000130000
#0343b1:00000023
#0343b1:0000000000000013
#035361:53
#0353b1:0023000000000000
#035320:0013002300000000
#035370:00530000
#035370:0000000000130000
#0353b0:0000000000000033
#0363a0:33
#036390:0053000000000000000000530000000000000000000000000000000000000000
#036360:0000000000000000000000000000000000000000000000540000000000000054000000000000000000000000000000000000000000000000000000000000000000000000000000000000000000000000000000000000000000000000000000000000000000000000000000000000000000000000000000000000000000000000
#0363b0:0023
#035321:0000000000000013
#036331:33
#036341:0053000000000000000000530000000000000000000000000000000000000000
#036361:00000054340000000000000000000000
#036321:0023
#036321:0000000000000013
#037361:0033002300000000
#037321:00530000
#036370:0000000000000013
#0373b0:0033002300000000
#037370:00530000
#037370:0000000000130023
#0373b0:00000053
#038360:13230000
#038320:0053000000000000
#038370:0000001300000000
#0383b0:0000000000230000
#038361:0000000000130000
#038321:0000000000000033
#039361:0022000000000000
#0383b0:0000000000000013
#039380:0022000000000000
#039370:0000001300000000
#0393b0:0023
#040320:0000001300230000
#040360:0053
#040371:0000000000130023
#0403b1:00000053
#040320:0000000000000013
#041360:53
#041320:0023000000000000
#0413b0:0000001300230000
#041370:0053
#041361:0000000000130023
#041321:00000053
#0413b0:0000000000000013
#042370:53
#0423b0:0023000000000000
#042320:0000001300230000
#042360:0053
#042371:0000000000130023
#0423b1:00000053
#042320:0000000000000013
#043370:00530000000000000000000000000000
#043320:00240000
#0443b0:13230000
#044370:0053000000000000
#045320:13230000
#045360:0053000000000000
#0463b0:13
#046360:0053000000000000
#046390:0025
#0483b0:1300000000000023
#048360:00000000000000530000000000000000
#050370:0000001200000052
#051320:002c0000
#0553a0:1424
#055360:00540000
#055360:0000000000000013
#056320:0023000000000000
#056371:0013000000000000
#0563b1:0000002300000000
#056361:0013
#056321:00000023
#0573b1:13230000
#057371:0033000000000000
#057321:0000001300230000
#057361:0033
#057370:0000000000130000
#0573b0:0000000000000023
#057361:0000000000000013
#058321:0023000000000000
#058351:0000000000000013
#059381:0023000000000000
#059381:0000000000000013
#060351:0023000000000000
#060351:0000000000000013
#061381:0023000000000000
#061381:0000000000000013
#062351:0023000000000000
#062381:0000001600000000
#062351:0000000000260000
#0633b1:13230000
#063371:0053000000000000
#064321:13230000
#064361:0053000000000000
#0653b1:13535353535323000000000000000000
#0653a1:0053005300530053005300530000000000000000000000000000000000000000
#065321:0000000000000013
#066361:53
#066321:0023000000000000
#067351:1300000000000000000000000054000000000000000000000000000026000000
#067381:00000053000000000000000000000000
#067321:0000000000550000
#069361:00000014340000000000000000000000
#069371:0000000000000034000000000000000000000000000000000000000000000000
#0703a1:0000000000340000000000000000000000000000000000000000000000000000
#070371:0000000000000000003400000000000000000000000000000000000000000000
#070381:00000000000000340000000000000000
#070351:0000000000000000000000000000000000000034000000000000000000000000
#0723c1:0000000000000022
