This file was generated by Ched 2.7.0.0.
#TITLE " "
#ARTIST ""
#DESIGNER ""
#DIFFICULTY 0
#PLAYLEVEL
#SONGID ""
#WAVE ""
#WAVEOFFSET 0
#JACKET ""
#REQUEST "ticks_per_beat 480"
#00002: 4
#BPM01: 138
#00008: 01
#TIL00: ""
#VOLUME: ""
#HISPEED 00
#MEASUREHS 00
#00818:1414
#00814:00140014
#00912:0014
#0091a:24
#00910:41
#0101a:14
#01014:0014
#01018:00000014
#01112:14
#0111a:0014
#01212:14
#01218:0014
#01214:00000014
#0131a:14
#01312:0014
#0141a:14
#01414:0014
#01418:00000014
#01512:14
#0151a:0014
#01612:14
#01618:0014
#01614:00000014
#01818:14
#01812:0014
#0191a:14
#01914:0014
#01714:0014
#0171a:24
#02018:14
#02012:0014
#0211a:14
#02112:0014
#02218:14
#02214:0014
#02210:0000000000000041
#0231a:14
#02312:0014
#02418:14
#02414:0014
#0251a:14
#0251f:11
#02612:14
#02718:14
#02812:1414
#02818:00140014
#02914:1414
#0291a:00140014
#03118:0014
#0311a:0000000000343424
#0311f:0000000000000021
#03214:00140000
#03218:0014
#03212:00000014
#03210:0000000000000041
#0331a:14
#03312:00140000
#03318:0014
#03314:00000014
#0341a:14
#03414:00140000
#03418:0014
#03412:00000014
#0351a:14
#03512:00140000
#03518:0014
#03514:00000014
#0361a:14
#03618:00140000
#03612:00000014
#0371a:14
#03714:00140000
#03718:0014
#03712:00000014
#0381a:14
#03814:0000143400000000
#03812:0000000000340034
#03918:0000001400000000
#0391a:0000000000340024
#04012:00140000
#0401a:0014
#04014:00000014
#04118:14
#04112:00140000
#0411a:0014
#04114:00000014
#04110:0000000000000041
#04218:14
#04212:0000140000000034
#0421a:0014
#04214:00000014
#0431a:00000014
#04312:00340000
#04412:14140000
#04418:00001414
#04514:14140000
#0451a:00001414
#04612:14
#04618:00000014
#04714:14
#0471a:00140000
#04716:0014
#04712:00000014
#0481a:14
#04818:00000000000000140000000000000000
#0541a:00140000
#05414:0014
#05418:00000014
#05512:14
#0551a:00000014
#05612:14
#05618:00140000
#05614:0014
#0561a:00000014
#05712:14
#05718:0000140000000034
#05714:0014
#0571a:00000014
#05814:0014
#05818:00000014
#05810:0000000000000041
#05912:14000024
#0591a:00240000
#05916:0024
#0601a:14000024
#06012:00240000
#06016:0024
#06112:14000024
#0611a:00240000
#06116:0024
#0621a:14
#06212:00140000
#06218:0014
#06214:00000014
#06514:00000014
#0651a:24
#06618:14
#06612:00140000
#06616:0014
#0661a:00000014
#06715:00000000000000000000000000000014
#06712:24
#03014:0034341400000000
#03012:1400000034343400
#0631a:24240000
#06314:00002424
#06418:24240000
#06412:00002424
#05312:0000000000000026
#05313:0000003400340000
#05218:0000000000000026
#05219:0000003400340000
#05112:0000000000000026
#05113:0000343400340000
#07019:0000000000000000003400000000340000000000000000000000000000000000
#05010:0000004100000000
#0095a:14
#0175a:14
#0135a:14
#02558:0014
#0255a:54
#02652:64
#02654:0014
#02758:64
#0275a:0014
#03052:5400000000000014
#03054:0000005400000000
#0315a:0000000000000014
#03158:0054
#0365a:54
#03658:00240000
#03952:0014000000000000
#03958:0000005400000000
#0395a:0000000000000014
#03854:00640000
#04254:00000054
#04352:0000001400000000
#04652:54
#0485a:54
#04858:00000000000000240000000000000000
#0495a:0000000000000014
#05552:54
#05858:0014000000000000
#0575a:00000064
#06755:00000000000000000000000000000024
#06752:54
#0655a:54
#05352:0000000000000016
#05258:0000000000000016
#05152:0000000000000016
#0003a0:14
#000380:0034
#001380:34
#0013a0:0024
#002320:14
#002340:0034
#003340:34
#003320:0024
#0043a0:14
#004390:0034
#0053a0:34
#005390:0024
#006320:14
#006330:0034
#007320:34
#007330:0024
#0253a0:14
#025380:0024
#026320:14
#026340:0024
#027380:14
#0273a0:0024
#030320:1400000034343424
#030340:0034343400000000
#031380:00143400
#0313a0:0000000000343424
#0363a0:1424
#036380:00340000
#038340:0000143400000000
#038320:0000000000340034
#039320:0024000000000000
#039380:0000001400000000
#0393a0:0000000000340024
#042340:00000014
#042320:0000000000000034
#043320:0000342400000000
#046320:14
#046340:0024
#0483a0:1400000000000034
#048380:00000000000000540000000000000000
#049390:0034000000340000
#049380:0000003400000000
#0493a0:0000000000000024
#050330:00140000
#051330:0000343400340000
#051320:0000000000000026
#052390:0000143400340000
#052380:0000000000000026
#053330:0000143400340000
#053320:0000000000000026
#055320:14
#055340:0024
#0573a0:00000014
#057380:0000000000000034
#058380:0024000000000000
#0653a0:14
#065380:0024
#067320:14
#067350:00000000000000000000000000000054
#068320:0000000000000024
#0693a0:00140000
#0703a0:0000000000340000000000000000000000000000000000000000000000000000
#070390:0000000000000000003400000000340000000000000000000000000000000000
#070380:0000000000000000000000000000000000000034000000000000000000000000
#0723a0:0000000000000024
