This file was generated by Ched 2.7.0.0.
#TITLE ""
#ARTIST ""
#DESIGNER ""
#DIFFICULTY 0
#PLAYLEVEL
#SONGID ""
#WAVE ""
#WAVEOFFSET 0
#JACKET ""
#REQUEST "ticks_per_beat 480"
#00002: 4
#BPM01: 115
#00008: 01
#TIL00: ""
#VOLUME: ""
#HISPEED 00
#MEASUREHS 00
#00119:14
#00213:14
#00319:14
#00413:14
#0051a:14
#00510:41
#0061a:14
#00712:14
#00812:14
#00918:14
#01018:14
#01114:14
#01110:41
#01214:14
#0131a:14
#01312:14
#01512:14
#0151a:14
#01918:0016
#01912:26
#01910:41
#02118:16
#02112:0016
#02812:14
#0291a:1414
#0291f:11
#0301a:14
#03114:1414
#03214:14
#03318:1414
#03418:14
#03512:1414
#04718:14
#04710:41
#05118:14
#05114:0014
#0141a:14
#01612:14
#02312:16
#02318:0016
#02412:1616
#02518:16
#02512:0016
#02510:41
#02618:1616
#03812:0016
#03818:26
#0381f:21
#04012:16
#04018:0016
#04218:16
#04212:0016
#04318:1616
#04412:16
#04418:0016
#04512:1616
#05514:1414
#05518:00140024
#02718:26
#03612:24
#0541a:24
#05412:24
#04612:26
#03910:41
#0173a0:14
#0183a0:24
#020320:1626
#022380:1626
#039380:1626
#041320:1626
#048340:14
#049320:34
#050340:24
#0523a0:14
#0533a0:0024
#055380:000000000000000000000000000000000000140034000024
