This file was generated by Ched 2.7.0.0.
#TITLE ""
#ARTIST ""
#DESIGNER ""
#DIFFICULTY 0
#PLAYLEVEL
#SONGID ""
#WAVE ""
#WAVEOFFSET 0
#JACKET ""
#REQUEST "ticks_per_beat 480"
#00002: 4
#BPM01: 115
#00008: 01
#TIL00: ""
#VOLUME: ""
#HISPEED 00
#MEASUREHS 00
#02912:13131300
#0291b:1300001300000000
#02917:00131300
#02916:000000000000000000130000000000000013000000000000
#0291f:11
#00115:130000000000001300000000
#00112:000000000000130000000000000000000013000000000000
#0011b:0013
#00118:000013000013000000000000000000130000000013000000
#00616:0013
#00612:1300001300000000
#0061b:0013000013000000
#00618:000000000013000000000000000000000000000000000000
#00615:00130000
#00617:0000001300000000
#02018:1313001300000013
#02012:000013000000000013000013000000000000000000000000
#0201b:00130013
#02015:000000000013000000000000000000000000000013000000
#02712:00130000
#02718:000000000000000000000000000000000013000000000000
#02717:000000000000001300000000
#02715:00000013
#0271b:00130000
#02716:23
#03016:13
#03019:0013000000000000
#03012:00130013
#0301b:130000000000000000000013000000000000130000000000
#03014:0013000000000000
#03017:00130000
#03512:13261326
#03518:260000000000000000130000260000000000000012000000
#03515:0013000000130000
#0351b:00130013
#03516:0000000000000012
#04812:0000000000130013
#04814:00000013
#04819:00000013
#0481b:0000000000000013
#05012:13261300
#05017:0013
#05014:0000000000130000
#05016:00000013
#0501b:13000013
#05019:0000000000130000
#05018:00260000
#0511b:0000000013000013
#05116:0000000013000013
#05117:0013000000000000
#05112:0013000000000000
#05214:13
#05212:0013000000000000
#05219:13
#05217:0013000000000000
#05216:00000013
#0521b:00000013
#00215:1300000000130000
#00212:00131313
#00218:000013000013000000000000000013000000000000130000
#0021b:000000000000000000000000000000000013000000000000
#00315:130000000000001300000000
#00312:000000000000130000000000000000000013000000000000
#0031b:0013
#00318:000013000013000000000000000000130000000013000000
#00412:130000000000000000130000230023000000000000000000
#00415:001300130000000000130000
#00418:001300
#0041b:000000000013000000000000230023000000130000000000
#00518:1313
#00512:0013
#0051b:00130013
#00515:00130013
#00510:41
#00712:00130013
#0071b:1313
#00715:1313
#00718:00130013
#0091b:1313
#00918:00130013
#00915:2313000013130000
#00912:0000131300001313
#01017:0013
#01015:130000130013000000000000000000000000000000000000
#01012:0000001313000000
#0101b:13
#01018:001300130000000000000000
#01218:130000130013000000000000000000000000000013000000
#01215:000013000000130000000000000000000000000000130000
#01216:0013
#0121b:0000001313000000
#01212:13
#01315:000000130000000000000013000000130000000000000000
#01318:000000000000130000130000000000000024000000000000
#01312:240000000000000013000000000000000000000000240000
#0131a:2400000024000024
#01418:000000130000000013000000130000130000000000000000
#01415:000000000000130000130013000000000013000000000000
#01412:0013000000130000
#0141b:000000000000000000000000000000000013000000000000
#01612:001300001300001300001300
#01618:0013001300130013
#0161b:000000000013000000000013000000000013000000000000
#01615:00131313
#01718:000000000000000000000000000013000000000000130000
#01715:000000130000000000000000000000130000000013000000
#01712:000000000000130013000023000000000000000000000013
#0171b:000000000000000000000000000000000023000000000000
#01915:000000130000230000000000000000130000000013000013
#01912:2300001323001300
#01918:23002313
#0191b:0000230000000013
#01910:41
#02219:13130000
#02216:001300000000000000000000
#0221b:0013001300000000
#02214:000000000013000000000000000000000000000000000000
#02212:0000001300000000
#02215:000000230013
#02218:0000000023000013
#02114:000000000000000000000000000000000000000000000013
#02117:0000000000000013
#02112:000000230000000000001300
#02118:0013230000130000
#0211b:2300001323001300
#02115:23002313
#02618:13130000
#0261b:000013000000000013000000000000130000230000000000
#02615:0013001300000000
#02612:000000000013000000000000230000000000000000130000
#02617:0013
#02512:230000000000000000130000230000000000130000000013
#02515:0013230000130013
#0251b:230000230013
#02518:00230013
#02510:41
#02815:000000000013000000000000000000000000130000000000
#0281b:00000013
#02816:001300000000000000000000
#02818:00132300
#02812:000000000000000000230023000023000000000000000000
#03918:130013000013000000000000000000000000000000130000
#03915:000000000000130013000013000000000000000013000000
#03912:0013000000000000
#0391b:0000001300001300
#03910:41
#03815:000000130000230000000000000000130000000013000013
#03812:2300001323001300
#03818:23232313
#0381b:0000000000000013
#0381f:21
#04112:13132300
#0411b:000013000000000000130000000000000000000000000000
#04116:0013001300000000
#04117:000000000013000000000000230000000000000000000000
#04115:000000000013
#04118:0000000000000013
#04012:0013230000131300
#04015:2300001323000000
#04018:23232313
#0401b:000000000013
#04016:0000000000000013
#04017:000000000000000000000000000000000000000000000013
#04418:2300001323001300
#04418:00000013
#04412:00000013
#04412:00000013
#04416:0000000000000013
#0441b:0013230000130013
#04415:23232300
#04517:0013000000000000
#04516:0000001313000000
#04519:13
#04514:00130000
#04512:0000000000230000
#0451b:0000000000000023
#04612:00160000
#0461a:24
#0461b:000000000023
#04616:0000000000000023
#04619:000000000000000000000000000000000000000000000023
#05415:0023000013000000
#05418:000023000023000000000000000013000000000000000000
#05412:2300002300000000
#0541b:2300002300000000
#05518:12141623
#05515:000000000023
#0551a:000000000000000000000000000000000000000000000024
#05512:000000000000000000000000000000000000000000000024
#01815:000000000000000000000000000000000013000000130000
#01818:242400000000000000131300
#0181a:000000000000000000240024000000000000000000000000
#01812:000000000000000000240024000000000000000000000000
#03715:000000000000000000000000000000000013000000130000
#03718:000000000000000000131300
#0561b:0000001300000000
#0561a:000000000053000000000000
#05619:000000000000000000000053000000000000000000000000
#05618:0053
#00817:0013
#0081b:1300001300000000
#00812:0013000013000000
#00815:000000000013000000000000000000000000000000000000
#00818:00130000
#00816:0000001300000000
#01112:1313
#01115:00130013
#01118:1313000013130000
#0111b:0000131300001313
#01110:41
#01518:000000130000000000000013000000130000000000000000
#01515:0000131300000000
#0151b:001300
#0151a:2400000000000024
#01512:2400000024000024
#01514:000000000000000000000000000000000024000000000000
#02415:1313001300000013
#0241b:000013000000000013000013000000000000000000000000
#02412:00130013
#02418:000000000013000000000000000000000000000013000000
#02318:000000130000230000000000000000130000000013000013
#0231b:2300001323001300
#02315:00230013
#02312:2300000023000013
#0311b:13131300
#03112:1300001300000000
#03116:00131300
#03117:000000000000000000130000000000000013000000000000
#03217:13
#03214:0013000000000000
#0321b:00130013
#03212:130000000000000000000013000000000000130000000000
#03219:0013000000000000
#03216:00130000
#03312:13131300
#0331b:1300001300000000
#03316:000000000000140000140000140000000013000000000000
#03412:0013000000001300
#0341b:13130013
#03416:1414140000000000
#03417:000000000000000000000013000000000000000000000000
#04315:130013000013000000000000000000000000000000130000
#04318:000000000000130013000013000000000000000013000000
#0431b:0013000000000000
#04312:0000001300001300
#04218:000000130000230000000000000000130000000013000013
#0421b:2300001323001300
#04215:23232313
#04212:0000000000000013
#0491b:0023130000131300
#04912:0000001313000013
#04917:0000002300000023
#04916:0000000000230000
#03619:25
#03612:25
#04718:0000000000000023
#04714:23230000
#04717:002300000000000000000000
#04712:0023000023000000
#04719:000000000023000000000000000000000000000000000000
#0471b:000023230000
#04716:0000002300000000
#04715:0000000000002323
#04710:41
#00656:0063
#00652:530000000000000000000000000000000013000000000000
#0065b:0063
#00657:000000000000000000000000000000000013000000000000
#02052:000000000000000000000053000000000000000000000000
#02957:0063
#02956:000000000000000000000000000000000013000000000000
#0295b:000000000000000000000000000000000013000000000000
#03052:00530000
#03056:000000000000000000000013000000000000000000000000
#0305b:000000000000000000000013000000000000000000000000
#05252:0063000000000000
#05257:0063000000000000
#05256:00000063
#0525b:00000063
#00158:000000000053
#00252:00000053
#00258:0000000000000053
#00358:000000000053
#00455:00000053
#00552:4343
#00558:4343
#0055b:00330033
#00555:00330033
#00752:00430043
#0075b:3333
#00755:3333
#00758:00430043
#0095b:3333
#00958:00430043
#01057:0053
#01052:0053
#01058:00530000
#0105b:000000000000000000000000000000000013000000000000
#01056:000000000000000000000000000000000013000000000000
#01458:0053000000000000
#01455:000000000000000000000000000000000063000000000000
#0145b:000000000000000000000000000000000063000000000000
#01658:0000000000000053
#03955:000000000000000000000053000000000000000000000000
#04456:0000000000000063
#04455:63636300
#04557:0053000000000000
#0455b:0000000000000043
#04552:0000000000330000
#04652:00160000
#0465a:64
#04658:00160000
#04852:0000000000000063
#05052:6300160000000013
#05056:00000053
#0505b:00000053
#05057:0000000000000013
#05058:00160000
#03659:15
#03652:15
#04758:0000000000000053
#0475b:0053
#01352:1400000000000034
#0135a:1400000044000044
#01358:000000000000000000000000000000000044000000000000
#01958:5353
#0195b:00630000
#0555a:000000000000000000000000000000000000000000000044
#01752:000000000000000000000013000000000000000000000000
#0175b:000000000000000000000013000000000013000000000000
#03858:53535300
#04058:53535300
#04157:0013
#04152:0013
#02255:0013
#02258:0013
#00857:0053
#0085b:630000000000000000000000000000000013000000000000
#00852:0053
#00856:000000000000000000000000000000000013000000000000
#01152:4343
#01155:00330033
#01256:0063
#0125b:0063
#01255:00630000
#01252:000000000000000000000000000000000013000000000000
#01257:000000000000000000000000000000000013000000000000
#0155a:1400000000000044
#01552:1400000034000034
#01554:000000000000000000000000000000000034000000000000
#02155:6363
#02152:00530000
#0245b:000000000000000000000063000000000000000000000000
#02352:6363
#02355:00530000
#0255b:5353
#02558:00630000
#03156:0053
#03157:000000000000000000000000000000000013000000000000
#03152:000000000000000000000000000000000013000000000000
#0325b:00630000
#03252:000000000000000000000013000000000000000000000000
#03257:000000000000000000000013000000000000000000000000
#03356:000000000000000000000000640000000013000000000000
#0335a:000000000000000000000000000000000014000000000000
#03456:00540000
#03457:000000000000000000000013000000000000000000000000
#03452:000000000000000000000014000000000000000000000000
#04358:000000000000000000000063000000000000000000000000
#04255:63636300
#0495b:0013530000005300
#04952:0053
#04957:0000001300000013
#04956:0000000000130000
#05157:0063000000130000
#05152:0063000000130000
#05156:00135300
#0515b:00135300
#02756:13
#05352:000000000000000000000000000000000013000000000000
#05357:000000000000000000000000000000000013000000000000
#001380:000000000013
#0023b0:23
#002320:00000013
#002350:0000000000000023
#002381:0000000000000013
#0033b1:23
#003381:000000000013
#0043b1:23
#004351:00000013
#005321:23
#006321:13
#006361:0023000000000000
#006361:0013
#006321:000000000000000000000000000000000023000000000000
#0063b0:0013
#006370:000000000000000000000000000000000023000000000000
#0083b0:13
#008370:0023000000000000
#008370:0013
#0083b0:000000000000000000000000000000000023000000000000
#008321:0013
#008361:000000000000000000000000000000000023000000000000
#010381:00130000
#0103b1:0000002300000000
#010371:0013
#0103b1:000000000000000000000000000000000023000000000000
#010320:0013
#010360:000000000000000000000000000000000023000000000000
#012350:00130000
#012320:0000002300000000
#012360:0013
#012320:000000000000000000000000000000000023000000000000
#0123b1:0013
#012371:000000000000000000000000000000000023000000000000
#014381:0013000000000000
#0143b1:00230000
#014351:000000000000000000000000000000000013000000000000
#014321:0000000000000023
#0143b0:000000000000000000000000000000000013000000000000
#014380:0000000000000023
#016380:0000000000000013
#0173b0:000000000000000000000023000000000000000000000000
#019380:13
#0193b0:0023000000000000
#0193b0:00130000
#019380:0000002300000000
#019380:0013
#0193b0:0000000000230000
#020320:000000000000000000000013000000000000000000000000
#020360:00000023
#021350:13
#021320:0023000000000000
#021320:00130000
#021350:0000002300000000
#021350:0013
#021320:0000000000230000
#023320:13
#023350:0023000000000000
#023350:00130000
#023320:0000002300000000
#023320:0013
#023350:0000000000230000
#0243b0:000000000000000000000013000000000000000000000000
#024370:00000023
#0253b0:13
#025380:0023000000000000
#025380:00130000
#0253b0:0000002300000000
#0253b0:0013
#025380:0000000000230000
#026320:00001323
#026360:0000000000330000
#0263b1:00000013
#026371:0000000000000033
#0273b1:23
#027321:000000000000132300000000
#0283b1:132300000000000000000000
#029371:0013
#0293b1:000000000000000000000000000000000023000000000000
#030321:00130000
#030361:000000000000000000000023000000000000000000000000
#031361:0013
#031321:000000000000000000000000000000000023000000000000
#0323b1:00130000
#032371:000000000000000000000023000000000000000000000000
#033361:0014
#0333a1:000000000000000000000000000000000024000000000000
#034361:00140000
#034321:000000000000000000000024000000000000000000000000
#038381:13
#0383b1:0023000000000000
#038381:00130000
#0383b1:0000002300000000
#038381:0013
#0383b1:0000000000230000
#039351:000000000000000000000013000000000000000000000000
#039321:00000023
#040381:13
#0403b1:0023000000000000
#040381:00130000
#0403b1:0000002300000000
#040381:0013
#0403b1:0000000000230000
#042351:13
#042321:0023000000000000
#042351:00130000
#042321:0000002300000000
#042351:0013
#042321:0000000000230000
#043381:000000000000000000000013000000000000000000000000
#0433b1:00000023
#044351:13
#044321:0023000000000000
#044351:00130000
#044321:0000002300000000
#044351:0013
#044321:0000000000230000
#044361:0000000000000013
#045321:0023000000000000
#045370:0013000000000000
#0453b0:0000002300000000
#0453b0:00001323
#045370:0000000000330000
#045321:00000013
#045361:0000000000000033
#046321:23
#0463a0:14
#046380:00260000
#0473b0:0013
#047380:00000023
#047380:0000000000000013
#0483b0:0000000000230000
#048320:0000000000000013
#049360:0023000000000000
#0493b0:00130000
#049370:0000002300000000
#049320:0013
#049360:0000000000230000
#0493b0:00000013
#049370:0000000000000023
#050320:13260000
#0503b0:00000013
#050370:0000000000000023
#050361:00000013
#050321:0000000000000023
#051321:0013000000000000
#051361:00230000
#051370:0013000000000000
#0513b0:00230000
#0513b0:0013
#051370:0000000000230000
#051361:0013
#051321:0000000000230000
#052321:0013000000000000
#052361:0023
#052370:0013000000000000
#0523b0:0023
#052360:00000013
#053320:33
#053360:0023
#0523b1:00000013
#053371:33
#0533b1:0023
#053371:000000000000000000000000000000130023000000000000
#053320:000000000000000000000000000000130023000000000000
#054350:0000000000130000
#055320:0026
#055320:000000000000000000000000000000000000000000000014
#056320:0000002400000000
#0569b0:0000001300000000
#056980:0023
