This file was generated by Ched 2.7.0.0.
#TITLE ""
#ARTIST ""
#DESIGNER ""
#DIFFICULTY 0
#PLAYLEVEL
#SONGID ""
#WAVE ""
#WAVEOFFSET 0
#JACKET ""
#REQUEST "ticks_per_beat 480"
#00002: 4
#BPM01: 115
#00008: 01
#TIL00: ""
#VOLUME: ""
#HISPEED 00
#MEASUREHS 00
#00119:14
#00113:14
#0011b:00130013
#00115:0013
#00213:14
#00219:14
#00212:00130013
#00218:0013
#00319:14
#00313:14
#0031b:00130013
#00315:0013
#0051b:13130000
#00512:00001313
#00515:00130000
#00518:00000013
#00510:41
#00618:13131300
#00615:0013001300000000
#00414:14
#00418:14
#01018:1313
#0101b:00130000
#01015:0013000000000000
#01012:0000001300000000
#0091b:00130013
#00915:0013
#00912:00130013
#00918:23
#01418:0013001300000000
#01415:00131300
#01412:0013000000330000
#0161b:0013000013000000
#01618:00130013
#01615:0000001300130013
#01612:0013000013000000
#0201b:1313
#02015:00130000
#02012:0000001300000000
#02018:0013000000000013
#0441a:0000240000000014
#04412:2424
#04517:0014000000000000
#04818:00000013
#04812:0000000000000013
#05018:00000013
#05012:0000240000000014
#0501a:00240000
#05119:0013000000000000
#05112:0000140000140000
#0511a:0013
#0511b:0000000000000013
#05215:13
#0521b:0013000000000000
#05212:00000013
#02712:00130000
#02715:0013
#02718:000000000000001300130000
#0271b:00130000
#02918:13
#0291b:0000001300000000
#02912:00130000
#02915:0013
#0291f:11
#03015:0013000000000000
#03018:13130000
#03012:00000013
#0301b:00000013
#03515:0000231300002300
#03518:230000130000000000000000230000130000000014000000
#03514:0000000000000014
#02818:13
#02815:001300130000000000000000
#02812:00002313
#0281b:00002313
#01915:000000000000000000000000000000000000000013000013
#01918:2400000024000013
#01914:00240000
#01910:41
#02412:1313
#0241b:0013000000000000
#02418:00130000
#02415:0000001300000013
#0231b:000000000013
#02315:0000000000000013
#02318:000000000000000000000000000000000000000000000013
#02312:2424
#0231a:00240000
#03915:00131300
#0391b:1313
#03918:0013000000000013
#03912:0000001300000000
#03910:41
#03815:000000000000000000000000000000000000000013000013
#03818:2400000024000013
#03814:00240000
#0381f:21
#00712:13130000
#0071b:00001313
#00718:00130000
#00715:00000013
#00815:13131300
#00818:0013001300000000
#01115:13
#01112:00130013
#01118:0013
#0111b:00130013
#01110:41
#01215:1313
#01212:00130000
#01218:0013000000000000
#0121b:0000001300000000
#01812:000000000000000000000024000000000000140000000000
#0181a:24000014
#01814:002400000000000000000000
#01818:0000002400000000
#02212:1323
#02218:0000130000000013
#0221b:0000001323000000
#02215:0013000000000000
#02118:000000000000240000000000000000000000000013000013
#02115:0000000000000013
#02114:2424
#0261b:13
#02612:0013000000000000
#02615:00130000
#02618:0000001300000000
#0261a:0024
#02512:000000240000000000001300
#02518:0000000000000013
#02515:000000000000000000000000000000000000000000000013
#0251a:2424
#02510:41
#03115:13
#03112:0000001300000000
#0311b:00130000
#03118:0013
#03218:0013000000000000
#03215:13130000
#0321b:00000013
#03212:00000013
#03318:1300001300000000
#03312:00130000
#0331b:0013
#03315:0013
#03415:0013000000000000
#03418:13130000
#03412:00130013
#0341b:00000013
#03712:00000013
#0371b:00000013
#03715:0000000000000013
#04112:1323
#04115:0013000000000013
#04118:00130000
#0411b:0000001323000000
#04018:000000000000240000000000000000000000000013000013
#04015:0000000000000013
#04014:2424
#04318:0013000013000013
#0431b:13
#04315:00130000
#04312:0000001313000000
#04215:000000000000000000000000000000000000000013000013
#04218:0000000000000013
#0421a:2424
#04212:00240000
#05412:2400002400000000
#0541a:2400002400000000
#05418:000000000023000000000000000000240000000000000000
#05415:0023000000000000
#05414:0000000000240000
#04618:24
#04615:0000000000000023
#04714:0000000000000024
#0471b:2323000000000000
#04712:0000232300000000
#04718:0023
#04710:41
#01312:240000000000000000000000240000000024000000000000
#0131a:240000000000000000000000240000000024000000000000
#01512:240000000000000000000000240000000024000000000000
#0151a:240000000000000000000000240000000024000000000000
#05518:00000023
#05515:000000000023
#05512:000000000000000000000000000000000000000000000024
#0551a:000000000000000000000000000000000000000000000024
#03612:25
#03619:25
#0561a:000000000000000000003434000000000000000000000000
#00454:54
#00458:54
#00452:0014
#0045a:0014
#00658:0053
#0065b:000000000000000000000000000000000013000000000000
#01058:0053
#0105b:000000000000000000000000000000000013000000000000
#01455:0053
#0445a:0000540000000064
#04452:5454
#04557:0064000000000000
#04852:0000000000000063
#05052:0000140000000014
#0505a:00140000
#05152:0000140000140000
#0525b:0053000000000000
#05252:00000053
#04658:64
#04754:0000000000000054
#04758:0053
#05458:0000000000640000
#05454:0000000000540000
#05352:0013
#01958:5454
#01954:00540000
#02352:5454
#0235a:00540000
#03652:15
#03659:15
#02852:00000013
#0285b:00000013
#02955:0053
#02952:000000000000000000000000000000000013000000000000
#0205b:0063
#03858:5454
#03854:00540000
#02452:0053
#03952:0000000000130000
#03955:0063
#0395b:0063
#03958:0000000000130000
#00855:0063
#00852:000000000000000000000000000000000013000000000000
#01255:0063
#01252:000000000000000000000000000000000013000000000000
#0135a:0000000000000014
#01352:0000000000000014
#01552:0000000000000014
#0155a:0000000000000014
#01655:0000000000000053
#02154:6464
#02158:00640000
#02252:0013
#0225b:0013
#0255a:6464
#02552:00640000
#03058:00630000
#0305b:000000000000000000000013000000000000130000000000
#03052:00000013
#03158:0063
#0315b:000000000000000000000000000000000013000000000000
#03255:00530000
#0325b:00000013
#03252:000000000000000000000013000000000000130000000000
#0335b:0053
#03358:000000000000000000000000000000000013000000000000
#03355:0053
#03352:000000000000000000000000000000000013000000000000
#03452:00630013
#0345b:000000000000000000000013000000000000130000000000
#03455:000000000000000000000013000000000000000000000000
#03458:00630000
#04054:6464
#04058:00640000
#04152:0013
#0415b:0013
#04358:0053
#04352:0053
#0435b:0000000000130000
#04355:0000000000130000
#0425a:6464
#04252:00640000
#004340:14
#004320:0024
#004381:14
#0043a1:0024
#006381:0013
#0063b1:000000000000000000000000000000000023000000000000
#008351:0013
#008321:000000000000000000000000000000000023000000000000
#010381:0013
#0103b1:000000000000000000000000000000000023000000000000
#012351:0013
#012321:000000000000000000000000000000000023000000000000
#0133a1:000000000000000000000000000000000014000000240000
#013320:000000000000000000000000000000000014000000240000
#014350:0013
#014320:000000000000000000000000000000330023000000000000
#015320:000000000000000000000000000000000014000000240000
#0153a1:000000000000000000000000000000000014000000240000
#016351:0000000000000013
#017321:00000023
#019381:14
#0193a1:0024000000000000
#019341:00140000
#019321:0000002400000000
#019381:0014
#0193a1:0000000000240000
#0203b1:0013
#020381:0000000000230000
#021341:14
#021321:0024000000000000
#021381:00140000
#0213a1:0000002400000000
#021341:0014
#021321:0000000000240000
#023321:14
#023341:0024000000000000
#0233a1:00140000
#023381:0000002400000000
#023321:0014
#023341:0000000000240000
#024321:0013
#024351:0000000000230000
#0253a1:14
#025381:0024000000000000
#025321:00140000
#025341:0000002400000000
#0253a1:0014
#025381:0000000000240000
#0263a1:00001434
#026381:0000000000340034
#0273a1:24
#029351:0013
#029321:000000000000000000000000000000000023000000000000
#030381:00130000
#0303b1:000000000000000000000023000000000000000000000000
#031381:0013
#0313b1:000000000000000000000000000000000023000000000000
#032351:00130000
#032321:000000000000000000000023000000000000000000000000
#0333b1:0013
#033381:000000000000000000000000000000000023000000000000
#033350:0013
#033320:000000000000000000000000000000000023000000000000
#034320:00130000
#034350:000000000000000000000023000000000000000000000000
#034381:00130000
#0343b1:000000000000000000000023000000000000000000000000
#038381:14
#0383a1:0024000000000000
#038341:00140000
#038321:0000002400000000
#038381:0014
#0383a1:0000000000240000
#039351:0013
#039321:0000000000230000
#0393b0:0013
#039380:0000000000230000
#040340:14
#040320:0024000000000000
#040380:00140000
#0403a0:0000002400000000
#040340:0014
#040320:0000000000240000
#0423a0:14
#042380:0024000000000000
#042320:00140000
#042340:0000002400000000
#0423a0:0014
#042380:0000000000240000
#043380:0013
#0433b0:0000000000230000
#043321:0013
#043351:0000000000230000
#044321:14
#044341:0024000000000000
#0443a1:00140000
#044381:0000002400000000
#044321:0014
#044341:0000000000240000
#0443a1:0000000000000014
#045371:0034000000000000
#0453a1:0000002400000000
#045321:00001434
#045341:0000000000340034
#046321:24
#046380:14
#0463a0:0024
#047380:0013
#0473b0:00000023
#047340:0000000000000014
#048320:0024
#048320:0000000000000013
#049350:0033003300330033
#049320:00333333
#050320:23
#0523b0:0013000000000000
#052380:0023
#052320:00000013
#053350:33
#053320:0023
#054380:0000000000140000
#0553a0:0024
#054341:0000000000140000
#055321:0024
#0553a1:000000000000000000000000000000000000000000000014
#0563a1:000000000000000000343434000000000000000000000000
#056361:0024
