This file was generated by Ched 2.7.0.0.
#TITLE ""
#ARTIST ""
#DESIGNER ""
#DIFFICULTY 0
#PLAYLEVEL
#SONGID ""
#WAVE ""
#WAVEOFFSET 0
#JACKET ""
#REQUEST "ticks_per_beat 480"
#00002: 4
#BPM01: 115
#00008: 01
#TIL00: ""
#VOLUME: ""
#HISPEED 00
#MEASUREHS 00
#02912:12120000
#02917:1200121200000000
#0291c:000000000000000000000000120000000012000000000000
#0291f:11
#00112:130000000000130000000013000000000013000000000000
#00117:000000000000000000000000130000000013000000000000
#0011b:000000130000001300001300
#00116:000000000000000000000000000000130000000013000000
#00118:000013000013000000000000000000000000000000000000
#00616:00131300
#00612:131300
#0061b:000000130013000000000013130000000000000000000000
#00617:1300001300000000
#02012:130000160000000000000000130000000000000013000000
#02018:000000000000000000000000000000000000130000130013
#02015:001300000000000000000000
#02017:000000000013000000000000000000130000000000000000
#02014:00160000
#02019:001300
#02016:0000001600000000
#0201b:000000000000000000000013000000000000000000000000
#02712:000000130000001300130000
#02715:000000000000000000000000130000000013000000000000
#02718:000000000000001300130000
#0271b:00130000
#02717:24
#0301c:12000022
#03017:1212000000000000
#03012:000000000000120000000012000000000000220000000000
#05216:14000013
#0521b:1300000000131300
#05212:00000000001400000000000000000000
#00216:14
#0021b:000000000000130000000000130000000013000000130000
#00212:00131313
#00218:000000000000001300000000
#00215:000013000013000000000000000000130000000000000000
#00412:000013000000000000160000230023000000000000000000
#00418:000000161300000000000000
#00416:14000013
#00415:000000000013000000000000000000000000000000000000
#0041b:001300000000232300130000
#00516:14141414
#0051b:0013130000131300
#00512:0000001313000013
#00510:41
#00919:00150000
#00914:0000000000000000001300131a0000000000000000000000
#00912:2300000000000000000000000000001300131c0000000000
#00916:180000130013000000000000000000000000000000000000
#00915:000000000000000000000000000000000000000000130013
#01015:000000130013000013000000000000000000000000000000
#0101b:0000000013000013
#01018:131300000000000000000000
#01012:130000000000000000000013000000130013000000000000
#01016:0000000000000013
#01316:000000140000140000000000240000140000000014000000
#01312:240000000000000014000014000000000000000000240000
#0131a:240000000000000000140000005400000024000000240000
#01318:000000000000000000000000000000000000000000000000005400000000000000000000000000000000000000000000
#01417:0013000000000000
#01418:0000001300000000
#01412:000000130000000000000013000000000013000000000000
#01416:0000130014141414
#0141b:000000000000001300001300
#01415:001300
#01619:001300000000001300000000
#01614:000000150000000000000013000000150000000000000000
#01612:000000000013000000000000000000000013000000130000
#01615:00150015
#0161b:000013000013
#01616:0000001500000000
#01617:0015
#01715:000000000000000000130000000013000000000000130000
#01718:000000000000160013000000000000130000000013000000
#01716:000000000000000000000000000000000023000000000014
#0171b:1313000000000000
#01712:000000000000000000000024000000000000000000000000
#0171a:000000000000000000000000000000000024000000000000
#01717:000000000000000000000023000000000000000000000000
#01916:000000130000230000000000000000130000000013000000
#01917:230000000000000000130000230000000000130000000013
#0191b:0000230000000013
#01912:23002313
#01910:41
#02218:000000000000000000000000000000000000000013000013
#02215:0000000000000013
#02214:1800000000131a0000000013280000000000000000000000
#02219:001300001300000000000000
#02212:001a001a00000000
#02317:000000130000000000000000000000130000000013000000
#02312:0000001300000013
#02316:230000000000230000000000230000000000130000000013
#0231b:23232313
#02818:130000000013000000000000230023000000000000000000
#02815:000013000000130000230023000000000000000000000000
#02812:000000000000232300130000
#0281b:001300130000000000130000
#0311b:130000000000000000000000130000000013000000000000
#03112:00130000
#03117:1300131300000000
#0321b:13000023
#03212:000000000000130000000013000000000000230000000000
#03216:1313000000000000
#03517:0013000000130000
#03518:0000000000000013
#03515:000000000013
#03516:0000001300000000
#03512:2c132c002c132c00
#0351b:0000001300000000
#04612:00160014
#0461a:2414
#04616:000000000000121200000000
#04618:000000000000000000000000000000120012000023000000
#04615:000000000000000000000000000000000000000000230023
#0481b:00000013
#04812:00000000001400000000000000001300
#04817:0000000000000013
#05117:1313000000000000
#05116:0000001313001414
#0511b:0000001313001300
#05112:1313000000000013
#05312:001a001a00130000
#0531b:130000000000000000000000000000000013000000000000
#05317:0000000000130000
#05316:000000000000000000000000000000000013000012000012
#05318:0000000000000012
#05319:001300001300000000000000
#05314:0000000000131a00000000131a0000000000000000000000
#05416:000000000000121200120000
#05418:000023000023000000000000000000220000000012000000
#05415:0023000000000016
#05412:2400002400000000
#0541a:2400002400000000
#01815:000000000000000000000000000000000013000000000000
#01818:000000000000000000131300
#01812:240024000000000000000000000000000000000000160000
#0181b:0000000000000013
#0181a:242400000000000000000000
#01819:000000000000000000240024000000000000000000000000
#01813:000000000000000000240024000000000000000000000000
#01216:000000000012
#01218:000000130013000013000000000000000000000000120000
#01212:0013
#01215:131300000000000000000000
#0121b:130000000000000000000013000000130013000000000000
#02118:000000000013
#02112:0000230000000013
#02114:000000000000000000000000000000000000000000000013
#02117:0013230000130000
#02116:2300001323001300
#0211b:23002313
#02615:13
#02612:001300130000230000000000
#02618:0013000000000000
#0261b:000000000013000000000013000000000000000000000000
#02617:000000000000001300000000000000000000140000000000
#02614:001300
#02619:0000001300000000
#02616:000000000013000000000000
#0261a:0000000000140014
#03817:230000000000000000000000230000000000130000000013
#03816:000000230000000000001300
#0381b:0000000000000013
#03812:00000013
#03814:2323
#03819:00230000
#0381f:21
#03715:000000000000000000000000000000000013000013000000
#03718:00000013
#03712:0000000000000013
#0371b:0000000000000013
#04016:00230013
#04018:000000000013
#04015:0000000000000013
#0401b:00000013
#04014:230000000000000000000000230000000000000000000013
#04017:2323
#04019:00230000
#04518:001300001300000000000000
#04515:290000000013290000000013000000000000000000000000
#04512:0029002900230000
#0451b:0000000000000023
#04418:000000000013
#04415:000000000000000000000000000000000000000000130013
#04412:00000013
#04417:00230013
#04416:2323
#04419:2323
#04414:00230000
#0501a:0014
#05016:000000000000121200000000
#05018:000000130000000000000000000000120012000000000000
#05015:0013000000001300
#0501b:2300000000000013
#05012:23
#05518:130000001400150000130000
#05514:000000180000140000000000000000000000000013000000
#05515:001300000000000000230000
#05513:0000000000000000001a0000000015000000000000000000
#05512:0000000000000000000000000000001c0000000000000024
#05519:000000000023
#0551a:000000000000000000000000000000000000000000000024
#00015:000000000000000000000000000000000013000000000000
#00018:00000013
#03912:130000160000000000000000130000000000000013000000
#0391b:000000000000000000000013000000000000130000000000
#03917:000000000013000000000000000000000000000000130013
#03915:001300000000000000000000
#03914:00160000
#03919:001300
#03916:0000001600000000
#03910:41
#04114:180000180013180000180013000000000000000000000000
#04119:001300001300000000000000
#04118:000000000013
#0411b:0000000000000013
#04112:000000002c000013
#04116:000000000000000000000000000000000000000000000013
#03316:1300131300000000
#03312:240000000000000000000000240000000024000000000000
#0331a:00240000
#03417:1313000000000000
#03412:24000024
#0341a:000000000000240000000024000000000000240000000000
#00312:130000130000001300001300
#0031b:000000000000130000000013000000000013000000000000
#00316:000000000000000000000000130000000013000000000000
#00317:000000000000000000000000000000130000000013000000
#00315:000013000013000000000000000000000000000000000000
#00817:00131300
#0081b:131300
#00812:000000130013000000000013130000000000000000000000
#00816:1300001300000000
#01112:18151a1c
#01117:000000130013000000000000000000000000000000000000
#01119:000000000000000000130013000000000000000000000000
#0111b:130000000000000000000000000000130013000000000000
#01118:000000000000000000000000000000000000000000130013
#01110:41
#0151c:000000000000000000000012000000000000000000000000
#01516:000000000000000000001200240000140000000014000000
#0151b:0000001200000000
#01515:001200
#0151a:240000000000001200000000000000000000000000240000
#01514:000000000000000000000000120000000000000000000000005400000000000000000000000000000000000000000000
#01519:000000000012000000000000000000000000000000000000
#01513:001200000000
#01518:0012000000000000
#01512:240000000000000000000000005400000024000000240000
#0241b:1313
#02418:000013160000000000000000000000000000000000130000
#02416:000000000013160000000000000000130000000000000000
#02414:000000000000000013160000000000000000000000000000
#02412:000000000000000000000013000000000000000000000000
#02415:000000000000000000000000000000000000130013000013
#0251b:000000000000000000130000000000000000000000000013
#02518:0000000000000013
#02515:000000000013
#02516:0013000000130000
#02517:23232313
#02512:23232313
#02510:41
#04216:230000000000000000000000230000000000130000000013
#04217:000000230000000000001300
#04212:0000000000000013
#0421b:00000013
#04219:2323
#04214:00230000
#0431b:130000130013
#04312:000000000000000000000013000000000000130000000000
#04316:000000000013160000000000000000000000000000130013
#04318:000013160000000000000000000000000000000000000000
#04314:000000000000000013160000000000000000000000000000
#00716:14141414
#00712:0013130000131300
#0071b:1300001313000013
#05618:0000001600000000
#05616:000000000055000000000000
#05614:000000000000000000000054000000000000000000000000
#05612:0053
#03619:25
#03612:25
#04716:0000000000000024
#0471b:000000230023
#04718:262300262300000000000000
#04712:0026002600002300
#04715:000000000023000000000023000000000000000000000000
#04710:41
#04916:00230023
#04917:0023
#04919:00230023
#04914:0023
#0491b:0023000000000000
#02952:32
#0295c:000000000000000000000000420000000042000000000000
#00656:0063
#00652:530000000000000000000000000000000013000000000000
#0065b:0063
#00657:000000000000000000000000000000000013000000000000
#02052:0063
#02057:0000000000230000
#0305c:42000042
#03052:000000000000320000000032000000000000320000000000
#05256:54000053
#05252:00000000002400000000000000000000
#00156:000000000063
#00252:00000053
#0025b:0000000000000053
#00452:0000003600000000
#00456:00000053
#00959:00450000
#00954:004a
#00952:0000004c
#00956:48
#0105b:0063
#01052:000000000000000000000000000000000013000000000000
#01057:000000000000000000000000000000000013000000000000
#01457:0053000000000000
#01652:0000000000000063
#02852:00000013
#0285b:00000013
#0315b:430000000000000000000000430000000043000000000000
#03152:00330000
#0325b:43000043
#03252:000000000000330000000033000000000000330000000000
#04652:00160000
#0465a:64
#04658:00160000
#04852:00000000002400000000000000006300
#05157:0063000000000000
#05156:0053
#0515b:00130000
#05152:0000000000130000
#0535b:000000000000000000000000000000000043000000000000
#05356:000000000000000000000000000000000043000000000000
#05055:0023000000005300
#05052:5300360000000013
#05058:0023460000000000
#0505b:53
#05455:0000000000000036
#05458:0000000000120000
#05554:0048000000000000
#05553:0000003a00000000
#05552:00000000004c0000
#0555a:000000000000000000000000000000000000000000000044
#00058:00000053
#01258:0000000000000042
#01252:0053
#0125b:000000000000000000000000000000000013000000000000
#01256:000000000000000000000000000000000013000000000000
#03952:3336000063000000
#03954:00360000
#03956:0000003600000000
#04154:4838483800000000
#04152:004c
#03659:15
#03652:15
#01352:14
#0135a:140000000000000000000000000000000044000000440000
#01356:0000000000540000
#01957:5353
#0195b:0013000000130000
#01956:00630000
#01952:0000001300000000
#0155a:14
#01552:140000000000000000000000000000000034000000340000
#01556:0000000000640000
#01752:000000000000000000000014000000000000000000000000
#0175a:000000000000000000000000000000000014000000000000
#01756:000000000000000000000000000000000013000000000000
#01757:000000000000000000000013000000000000000000000000
#0185a:004400000000000000000000
#01853:000000000000000000000034000000000000000000000000
#01859:000000000000000000000044000000000000000000000000
#01852:003400000000000000000000
#02356:6363
#0235b:00630000
#02352:0013000000130000
#02357:0000001300000000
#03452:34000034
#0345a:000000000000440000000044000000000000440000000000
#02757:14
#02752:13
#04552:0000000000330000
#0455b:0000000000000043
#0385a:0043000000430000
#03852:0033000000330000
#03853:0000003300000000
#0385b:0000004300000000
#0405a:0043000000430000
#04052:0033000000330000
#04053:0000003300000000
#0405b:0000004300000000
#02254:0048
#03352:340000000000000000000000340000000034000000000000
#0335a:00440000
#03552:1c1c1c1c
#00357:000000000053
#00857:0053
#0085b:630000000000000000000000000000000013000000000000
#00852:0053
#00856:000000000000000000000000000000000013000000000000
#01152:38353a3c
#02156:6363
#02157:00530000
#02152:0013000000130000
#0215b:0000001300000000
#0245b:0053
#02456:0000000000230000
#02557:5353
#02552:00530000
#0255b:0013000000130000
#02556:0000001300000000
#0435b:4353
#04358:0046000000000000
#04356:00460000
#04354:0000004600000000
#04253:0033000000330000
#0425b:0043000000430000
#0425a:0000004300000000
#04252:0000003300000000
#04453:0033000000330000
#0445b:0043000000430000
#0445a:0000004300000000
#04452:0000003300000000
#00552:4343
#00556:44344434
#0055b:00330033
#00756:34443444
#00752:00430043
#0075b:3333
#04953:0000003300000033
#0495b:0043004300000043
#0495a:0000000000430000
#04952:0000000000330000
#04756:0000000000000054
#04758:46460000
#04752:0036003600000000
#0475b:0053
#000380:00000013
#0013b0:23
#001360:000000000013
#002320:23
#002320:00000013
#002360:0000000000000023
#0023b1:0000000000000013
#003371:23
#003371:000000000013
#0043b1:23
#004361:00000013
#005321:23
#006321:13
#006361:0023000000000000
#006361:0013
#006321:000000000000000000000000000000000023000000000000
#0063b0:0013
#006370:000000000000000000000000000000000023000000000000
#0083b0:13
#008370:0023000000000000
#008370:0013
#0083b0:000000000000000000000000000000000023000000000000
#008321:0013
#008361:000000000000000000000000000000000023000000000000
#0103b1:000000132300000000000000
#010381:000000000000000000130023000000000000000000000000
#0103b1:0013
#010371:000000000000000000000000000000000023000000000000
#012321:000000132300000000000000
#012351:000000000000000000130023000000000000000000000000
#012321:0013
#012361:000000000000000000000000000000000023000000000000
#013361:0000000000140000
#013321:000000000000000000000000000000000024000000000000
#014371:0013000000000000
#0143b1:00230000
#015361:0000000000140000
#0153a1:000000000000000000000000000000000024000000000000
#016321:0000000000000013
#017321:00260000
#019371:13
#0193b1:0023000000000000
#019361:00130000
#019321:0000002300000000
#019371:0013
#0193b1:0000000000230000
#020321:00001323
#020371:0000000000530000
#021361:13
#021321:0023000000000000
#021371:00130000
#0213b1:0000002300000000
#021361:0013
#021321:0000000000230000
#023361:13
#023321:0023000000000000
#0233b1:00130000
#023371:0000002300000000
#023361:0013
#023321:0000000000230000
#0243b1:00001323
#024361:0000000000530000
#025371:13
#0253b1:0023000000000000
#025321:00130000
#025361:0000002300000000
#025371:0013
#0253b1:0000000000230000
#026321:00001333
#026361:0000000000330033
#027321:23
#029371:0012
#029361:000000000000000000000000000000000024000000000000
#030371:00120000
#030361:000000000000000000000024000000000000000000000000
#031371:0013
#031361:000000000000000000000000000000000025000000000000
#032361:00130000
#032351:000000000000000000000025000000000000000000000000
#033361:000000000000000000000000130000000028000000000000
#034371:00130000
#034321:000000000000000000000028000000000000000000000000
#038371:135300000000000000000000
#0383a1:0023000000000000
#038340:135300000000000000000000
#038320:0023000000000000
#038360:000000135300000000000000
#038330:0000002300000000
#038391:000000135300000000000000
#0383b1:0000002300000000
#038371:000000000000135300000000
#0383a1:0000000000230000
#038340:000000000000135300000000
#038320:0000000000230000
#039320:0013
#039370:00000023
#040370:135300000000000000000000
#0403a0:0023000000000000
#040341:135300000000000000000000
#040321:0023000000000000
#040361:000000135300000000000000
#040331:0000002300000000
#040390:000000135300000000000000
#0403b0:0000002300000000
#040370:000000000000135300000000
#0403a0:0000000000230000
#040341:000000000000135300000000
#040321:0000000000230000
#042361:135300000000000000000000
#042331:0023000000000000
#042390:135300000000000000000000
#0423b0:0023000000000000
#042370:000000135300000000000000
#0423a0:0000002300000000
#042341:000000135300000000000000
#042321:0000002300000000
#042361:000000000000135300000000
#042331:0000000000230000
#042390:000000000000135300000000
#0423b0:0000000000230000
#0433b0:0013
#043360:00000023
#044360:135300000000000000000000
#044330:0023000000000000
#044391:135300000000000000000000
#0443b1:0023000000000000
#044371:000000135300000000000000
#0443a1:0000002300000000
#044340:000000135300000000000000
#044320:0000002300000000
#044360:000000000000135300000000
#044330:0000000000230000
#044391:000000000000135300000000
#0443b1:0000000000230000
#0453b1:00001323
#045371:0000000000330000
#045320:00000013
#045360:0000000000000033
#046320:23
#0463a1:14
#046381:00260000
#0473b1:0013
#047361:00000023
#047361:0000000000000014
#048321:00000000005400000000000000000000
#048361:00000024
#048321:0000000000000013
#049361:0023000000000000
#049361:000000135300000000000000
#049331:0000002300000000
#049390:000000135300000000000000
#0493b0:0000002300000000
#049370:000000000000135300000000
#0493a0:0000000000230000
#049341:000000000000135300000000
#049321:0000000000230000
#049361:000000000000000000135300
#049331:0000000000000023
#049390:000000000000000000135300
#0493b0:0000000000000023
#050320:13260000
#050350:0053000000000000
#0503b1:13
#050381:0053260000000000
#050351:00000013
#050321:0000000000000023
#051371:0013000000000000
#0513b1:00230000
#051361:0013
#051321:0000000000230000
#052361:1400000000240000
#052321:00000000005400000000000000000000
#052361:00000013
#053321:23
#055321:000000000000000000000000000000000000000000000014
#056321:0000002400000000
