This file was generated by Ched 2.7.0.0.
#TITLE ""
#ARTIST ""
#DESIGNER ""
#DIFFICULTY 0
#PLAYLEVEL
#SONGID ""
#WAVE ""
#WAVEOFFSET 0
#JACKET ""
#REQUEST "ticks_per_beat 480"
#00002: 4
#BPM01: 115
#00008: 01
#TIL00: ""
#VOLUME: ""
#HISPEED 00
#MEASUREHS 00
#00119:1414
#00113:14
#00212:1414
#0021a:14
#00319:1414
#00313:14
#0051a:1414
#00514:00140014
#00510:41
#00618:1414
#00612:00140000
#0131a:1424
#01312:1424
#01512:1424
#0151a:1424
#0201a:14141400
#02014:0014001400000000
#0281a:14
#02816:0014
#02912:1414
#02918:0014
#0291f:11
#03012:14141400
#03018:0014
#0351a:1414
#03514:0014
#0471a:14
#04718:0014
#04714:00140000
#04712:00000014
#04710:41
#05112:14
#05114:0014
#05118:00140000
#0511a:00000014
#01414:0014
#01418:00140014
#01612:00140000
#01618:0014
#01614:00000014
#0391a:1414
#03918:00140000
#03914:0014000000000000
#03912:0000001400000000
#03910:41
#02212:14141400
#02218:0014001400000000
#02418:14141400
#02412:0014001400000000
#02614:14141400
#0261a:0014001400000000
#02612:00000014
#02716:0014
#02714:24
#0311a:1414
#03114:0014
#0321a:14141400
#03214:0014
#03312:1414
#03318:0014
#03412:14141400
#03418:0014
#04112:1414
#04114:00140000
#04118:0014000000000000
#0411a:0000001400000000
#04318:1414
#0431a:00140000
#04312:0014000000000000
#04314:0000001400000000
#04514:1414
#04512:00140014
#0451a:0014000000000000
#04518:0000001400000000
#00712:1414
#00718:00140014
#00814:1424
#0081a:00140000
#00918:1414
#00912:00140014
#0101a:1414
#01014:00140000
#01114:1414
#0111a:00140014
#01110:41
#01212:1424
#01218:00140000
#0191a:24
#01916:00240000
#01912:0024
#01910:41
#0361a:24240000
#03612:24240000
#05412:24
#0541a:24
#05414:0000002400000000
#05418:0000000000240000
#0181a:24
#01812:0000002400000000
#0381a:24
#03816:00240000
#03812:0024
#0381f:21
#04818:24
#02112:24
#02116:00240000
#0211a:0024
#0231a:24
#02316:00240000
#02312:0024
#02512:24
#02516:00240000
#0251a:0024
#02510:41
#04012:24
#04016:00240000
#0401a:0024
#0421a:24
#04216:00240000
#04212:0024
#04412:24
#04416:00240000
#0441a:0024
#04614:24
#05212:00000034
#0185a:14
#01852:0000001400000000
#05458:0000000000640000
#0555a:000000000000000000000000000000000000000000000014
#0045a:0014
#00452:0014
#0205a:0014
#02252:0014
#02458:0014
#02654:0054
#02652:00000054
#02754:14
#03652:000000000000000000000014000000000000000000000000
#0365a:000000000000000000000014000000000000000000000000
#0395a:0014
#04152:0014
#04358:0014
#04554:0054
#04552:00000054
#04654:14
#0043a0:1424
#004321:1424
#013321:000000000000000000000000140000000034000000240000
#0133a0:000000000000000000000000140000000034000000240000
#015320:000000000000000000000000140000000034000000240000
#0153a1:000000000000000000000000140000000034000000240000
#0173a1:14
#0183a1:24
#026341:0014
#026321:00000034
#027341:24
#0363a1:000000000000140000000024000000000000000000000000
#036320:000000000000140000000024000000000000000000000000
#045340:0014
#045320:00000034
#046340:24
#048380:14
#0493a0:34
#050380:3424
#052340:14
#052320:00000034
#053320:34
#053340:0024
#054380:0000000000140000
#0553a0:000000000000000000000000000000000000340034000024
