This file was generated by Ched 2.7.0.0.
#TITLE ""
#ARTIST ""
#DESIGNER ""
#DIFFICULTY 0
#PLAYLEVEL
#SONGID ""
#WAVE ""
#WAVEOFFSET 0
#JACKET ""
#REQUEST "ticks_per_beat 480"
#00002: 4
#BPM01: 125
#00008: 01
#TIL00: ""
#VOLUME: ""
#HISPEED 00
#MEASUREHS 00
#00618:14
#0081a:14
#00914:14
#01018:14
#01112:14
#0121a:14
#01314:14
#01612:14
#01610:41
#01814:14
#02414:14
#02518:14
#02612:14
#04112:1616
#0491a:14
#04914:0014
#05018:14
#05012:0014
#05318:1414
#0531f:11
#05412:1414
#06112:2616
#0611f:21
#06318:1616
#06712:0016
#06718:26
#06912:16
#06918:0016
#07118:2616
#07312:1616
#07310:41
#07518:2616
#07612:1616
#08212:16
#00312:14
#00212:14
#0011a:14
#0001a:14
#01718:14
#0191a:14
#00514:14
#00712:14
#04218:1616
#04312:1616
#06818:1616
#07012:1616
#0041a:14
#00410:41
#03112:0016
#03118:26
#03110:41
#03312:16
#03318:0016
#03518:16
#03512:0016
#03712:1616
#03918:1616
#02912:26
#05918:26
#07912:26
#07918:0026
#08012:26
#08118:26
#05110:41
#06210:41
#0143a0:1434
#0153a0:34342400
#020320:14
#021320:24
#0223a0:14
#0233a0:24
#027380:16
#028380:0026
#032380:1626
#034320:1626
#036380:1626
#038320:1626
#040380:1626
#044380:16
#045380:3626
#046320:14
#047320:3434
#048320:24
#0513a0:1424
#052340:1424
#0553a0:1424
#056320:1434
#057320:3434
#058320:3424
#062320:1626
#064380:1626
#065320:1636
#066320:3626
#072380:1626
#074320:1626
#077380:16
#077360:0036
#078380:3626
#080320:1626
#081380:1626
#082380:0000000016363636
#083380:36000036
#086360:000000000000002800000000000000000000000000000000
