This file was generated by Ched 2.7.0.0.
#TITLE ""
#ARTIST ""
#DESIGNER ""
#DIFFICULTY 0
#PLAYLEVEL
#SONGID ""
#WAVE ""
#WAVEOFFSET 0
#JACKET ""
#REQUEST "ticks_per_beat 480"
#00002: 4
#BPM01: 125
#00008: 01
#TIL00: ""
#VOLUME: ""
#HISPEED 00
#MEASUREHS 00
#0001b:13131300
#00018:00000013
#00015:00000000000000000000001300001300
#00418:0013001313001300
#00415:00000000001300000013001300000000
#0041b:2300130000130013
#00412:23000000000000130000000000130000
#00410:41
#0051b:13000000000000130000000000000000
#00512:1300130000130000
#00515:0013001323000013
#00518:00000000001300000023000000000013
#0071b:00131300
#00712:00000000001300000000240000000000
#00718:1300001300000000
#00715:00001300000000130000000000000000
#00716:00000024
#0071a:0000000000000024
#00818:00000000120000000012000000001200
#0081a:00001200000000120000000012000000
#00814:1200000012120000
#00816:00000000000012000000000000120000
#00914:0012000000000000
#0091a:00000000120000000012000012000000
#00916:00000000000012120000001200000000
#00918:0000000000000012
#01014:12000000000000120012000000001200
#0101a:0012000000001200
#01016:00000000120000000000001200000000
#01018:00000000001200001200120000000000
#01216:00000000120000000012000012000000
#0121a:00001200000000120000001200000000
#01214:12000000000012000000000000000012
#01218:00000000001200000000000000001200
#01114:0012000000000000
#01118:00120000
#01116:00000000000012120000001212000000
#01119:00000000000000000012000000000000
#0111a:0000000000000012
#0131a:0012120000000012
#01316:00000012000000000012000000000000
#01318:00000000000000120000001200000000
#01314:0000001200001200
#01414:00120012
#01416:22
#01412:0022
#01514:0012000000000000
#01518:00121200
#01516:22
#01512:00222200
#01619:25151515
#01615:00001300000013330033003333000000
#01612:0000130000130000
#01610:41
#01719:15151515
#01712:00001333330033333300330033333333
#01715:00000000000000000013000000000000
#0191b:00001333330033003300330000000013
#01918:00000000000000130000000000130000
#01912:15151515
#0241b:1313
#02417:00130013
#02415:1313
#02412:0033133300331333
#02612:2313130000002313
#02615:00000000000000130013000000000000
#02618:00130013000000000000000000130013
#0261b:0000002313130000
#02712:1323
#0271b:00130000000000000000000000002300
#02715:00001300130013000000001300130000
#02718:00000013001300130000130000000000
#02815:13000000001300130000130000000000
#02818:00130000130013001300001300000000
#02812:00000013000000000000000000001300
#0281b:00000000000000000000000000130000
#04512:13
#04513:00130000
#04514:0013
#04515:00000013
#04518:13
#04618:13
#0511b:13130013
#05116:0000130000000014
#05117:0013
#05112:13001313
#05110:41
#05216:00130013
#05212:2400000013000013
#05217:0013
#0521b:00130013
#0521a:24
#05312:13130000
#05315:00000000000000130000130000001300
#05318:00000000000000001300000000000013
#0531b:00000000000000000000001300130000
#0531f:11
#05317:23
#0541b:00000000001300000000000000130000
#05412:13001300000000000000002400000000
#05418:00130013000000000000000000000013
#05415:0000131300000013
#0541a:00000000000000240000000000000000
#05416:00000000000000000024000000000000
#05517:00130000
#05512:24130013
#05516:0000000013000014
#0551b:00001313
#0491b:13130000
#04918:00000000000000130000130000001300
#04915:00000000000000001300000000000013
#04912:00000000000000000000001300130000
#04916:23
#05012:00000000001300130000000000130000
#0501b:1313000013000000
#05015:00130013000000000000130000000000
#05018:0000131300000000
#05017:0000000000000013
#05618:00001300130000130000000000001300
#05615:00000013000013001300000000130000
#05612:2300000000330000
#0561b:23
#05718:00000000130000000000000000133333
#05715:00000013001333330000330000000000
#05712:0013
#0571b:33
#05816:00000000000000000000001300000000
#0581b:13
#05812:00000000001333333333330000333300
#05818:0033000000000000
#06018:0013
#06019:0000000000130000
#0601a:00000013
#0601b:0000000000000013
#06012:0023
#06015:0000000000000033
#06014:00000033
#06013:0000000000330000
#0611b:0013001300130000
#06115:00130000
#06112:0013
#06116:00000000000000000000001300000000
#06118:0000000013000013
#0611f:21
#06212:1300001313000000
#06218:0013001300000000
#06215:00130000
#0621b:13000000000000000000331333000000
#0621a:0000000033000033
#06210:41
#06318:00001300001300002300000000000000
#06312:00000013000013000000000000000000
#06315:23000000000000000000130000130000
#0631b:00000000000000000000001300001300
#06412:00000013000013000000000000130000
#0641b:0013
#06418:00001300001300000000000013000000
#06416:00000000000000000013000000000000
#06415:23
#06518:0013001300001300
#06515:0000130000130000
#06512:0000000013000023
#0651b:1300000013000023
#06612:0013000000000013
#0661b:0013000013000000
#06618:0000130000130000
#06615:00000013
#0751b:00001313
#07512:23000013
#07515:0000130000000023
#07518:2600001300000023
#07514:0000000000130000
#07516:0013
#07615:00230013
#07618:0000002300130000
#07612:0023000013000013
#0761b:0023
#07715:1313000013130013
#07712:0000131300001300
#07915:0013001300000000
#07918:0000000000130013
#0791b:2323
#07912:2323
#08015:00001300000013000013000000000000
#08018:00000000000000130000130000000000
#0801b:23
#08012:23
#0811b:00130023
#08112:00230013
#08118:23
#08115:2323
#06715:00001300000013000000130000130000
#06718:00000000130000001300001300001300
#06712:2313
#0671a:24
#0681b:1300130000130013
#06818:00001300000000130000000013000000
#06812:13130000
#06815:0000001313000000
#0701b:1300130000130000
#07016:1300130000130000
#07017:0013001300000013
#07012:0013001300000000
#07019:00001313
#07015:00003333
#07115:00001300001300000000000000000000
#0711b:23000013000013002300000000000000
#07118:00000000000000000000130000130000
#07112:23000000000000002300001300001300
#0721b:23000013000000000000130013000000
#07215:0013001300000000
#07218:00000000001300001300000000000000
#07212:2300130013000013
#07318:0013000013130023
#07315:0000131300001323
#07310:41
#08416:14
#08417:00000012
#07412:0013000013001300
#0741b:0013000013001300
#07418:0000000000130000
#07415:0000000000000013
#07413:00330000
#0741a:00330000
#0691b:00000000130000000000001300000000
#06912:00000000000000130000000000000000
#06916:24000000240000002400001300000000
#04118:0013001300000000
#04115:0000000000130013
#04112:2323
#0411b:2323
#04218:00001300000013000013000000000000
#04215:00000000000000130000130000000000
#04212:23
#0421b:23
#04312:00130023
#0431b:00230013
#04315:23
#04318:0023
#04418:0013000013130000
#04412:00000013000000000000130000000000
#0441b:00000000001300000000000000001300
#04415:1300002300001313
#03017:00000012
#08218:1300002300002323
#08215:0013000023230000
#08212:00000000001300000000000000002300
#0821b:00000013000000000000230000000000
#00112:13131300
#00115:00000013
#00118:00000000000000000000001300001300
#0021b:13131300
#00218:00000013
#00215:00000000000000000000001300001300
#00616:00000013
#00614:0000000000000033
#00613:00000000000000000000000000000033
#00615:00000000000000000000000000330000
#01818:00001300000013333300000033000000
#0181b:0000130000130000
#01812:00151515
#0031b:13
#00319:00330000
#00317:0033
#03112:0013001300130000
#03118:00130000
#0311b:0013
#03117:00000000000000000000001300000000
#03115:0000000013000013
#03110:41
#0321b:1300001313000000
#03215:0013001300000000
#03218:00130000
#03212:13000000000000000000331333000000
#03213:0000000033000033
#03315:00001300001300002300000000000000
#0331b:00000013000013000000000000000000
#03318:23000000000000000000130000130000
#03312:00000000000000000000001300001300
#0341b:00000013000013000000000000000000
#03415:00001300001300000000000013000000
#03412:00000000000000130000130000000000
#03418:2300000013000013
#03515:0013001300001300
#03518:0000130000130000
#0351b:1300000013000023
#03512:1300000013000023
#0361b:0013000000000013
#03612:0013000013000000
#03615:0000130000130000
#03618:00000013
#0781b:00131300
#07815:0013000013001300
#07818:0000001300130013
#07812:0000001300130000
#03712:26001313
#0371b:23000013
#03718:0000130000000023
#03715:0000001300000023
#03719:0000000000130000
#03717:0013
#03818:00230013
#03815:0000002300130000
#0381b:0023000013000013
#03812:0023
#03918:1313000013130013
#0391b:0000131300001300
#04012:00131300
#04018:0013000013001300
#04015:0000001300130013
#0401b:0000001300130000
#0201a:00000014000014000000000000000014
#02016:00000000000000000014000014000000
#0211a:00001400000000000000001400000000
#02114:00000000000000000000000000140000
#02116:00000000001400001400000000000000
#02118:0000000000000014
#02318:00000000000000000000000000140000
#02314:0000000000000014
#02312:00002400000000000000001400000000
#02316:00002400001400002400000000000000
#0231a:0024
#02212:00000014000024000000000000000014
#02216:24000000000024000014000024000000
#0221a:24000024
#02516:00130013
#02512:0013
#02518:1313
#0251b:0033133300331333
#02915:26
#05912:23
#0591b:23
#08315:23
#03154:18
#03157:00000000000000000000005300000000
#04658:13
#04558:53
#04552:13
#04553:00130000
#04554:0013
#0515b:13
#05152:13
#04956:13
#05952:13
#0595b:13
#05755:00000000005300000000000000000000
#05752:0053
#05758:00000000000000000000000000630000
#05856:00000000000000000000005300000000
#0585b:63
#05852:00000000005300000000000000000000
#06155:16
#06156:00000000000000000000006300000000
#06258:0000006300000000
#0625b:00000000000000000000002300000000
#06252:0053
#07755:0000000000000013
#0775b:0000000000000013
#0815b:00230000
#08152:00000023
#08158:53
#08155:1363
#06758:00000000000000005300005300000000
#0675a:14
#08456:54
#08457:00000022
#05252:14
#0525a:14
#06855:0053
#05655:0053
#05658:0000000000000063
#07052:0000006300000000
#07056:0000000000230000
#07152:1353
#0715b:53
#07258:0013
#07255:00000013
#07252:0063
#0725b:53000063
#07452:0023000000000000
#0745b:0023000000000000
#07355:0000000000000053
#07358:1300000000000063
#06956:00000000000000000000005300000000
#0695b:00000000000000000000005300000000
#0795b:1313
#07952:1313
#0805b:13
#08052:13
#04352:00230000
#0435b:00000023
#04355:63
#04358:0053
#05552:14
#08258:0000000000000053
#08355:53
#00355:00000016
#0035b:53
#00452:13
#00656:00000053
#01655:0000005300000000
#01652:0000000000230000
#01755:00000000000000000023000000000000
#01752:0053000000000000
#0185b:0000000000230000
#01858:0000006300000000
#0195b:0063000000000000
#01958:00000000000000230000000000000000
#02455:5353
#02452:00230023
#07558:16
#02955:56
#03057:00000052
#06052:0053
#06452:00000000000000000000000000630000
#06456:00000000000000000053000000000000
#03255:0000005300000000
#03252:00000000000000000000002300000000
#0325b:0063
#03958:0000000000000013
#03952:0000000000000013
#03752:16
#02558:6363
#0255b:00230023
#000320:1323
#0013b0:1323
#002320:1323
#0033b0:13
#003390:00330000
#003370:0033
#003350:00000026
#005380:0000000000001323
#006320:1333000000330000
#006360:00000000333300330000000033000000
#006350:00000000000000000000000000330000
#006340:0000000000000033
#006330:00000000000000000000000000000033
#007320:23
#0143c0:1232
#0143a0:0032003200320032
#014380:00320032
#0153c0:22
#016350:00000000000013330033003333002300
#016320:0000000000530000
#017320:00001333330033333300330033333333
#017350:00000000000000000053000000000000
#018320:23
#018380:00000000000013333300000033002300
#0183b0:0000000000330000
#0193b0:00001333330033003300330023000000
#019380:00000000000000330000000000000000
#020320:14
#020360:00000024000000000000000000000000
#020360:0000001400000000
#020320:00000000000000000024000000000000
#020320:00000014
#020360:00000000000000000000000000000024
#021360:0014000000000000
#021320:00000000002400000000000000000000
#021320:0014
#021360:00000000000000000000002400000000
#0223a0:14
#022360:00000024000000000000000000000000
#022360:0000001400000000
#0223a0:00000000000000000024000000000000
#0223a0:00000014
#022360:00000000000000000000000000000024
#023360:0014000000000000
#0233a0:00000000002400000000000000000000
#0233a0:0014
#023360:00000000000000000000002400000000
#024350:1333
#024320:0033333300333333
#025350:23
#025381:1333
#0253b1:0033333300333333
#026381:23
#029351:16
#029371:0032
#030371:32323232
#030341:0000000000000058
#031341:28
#031371:00000000000000000000001300000000
#0313b1:0000000000000023
#032351:0000001300000000
#032331:0000000033000033
#032321:00000000000000000000335333000000
#033351:23
#0323b0:0013
#032380:00000023
#033380:1323000000000000
#033350:0000000013230000
#034380:1323000000000000
#036380:00132300
#037350:00000000000000000000000000001353
#037340:0000000000000000000000000000000000000000000000000000000000530053
#038350:53532300000000000000000000000000
#038340:0053005300000000000000000000000000000000000000000000000000000000
#039320:1323000000000000
#039350:0000132300000000
#039320:0000000013000023
#042350:0000132300000000
#042320:00000013
#042350:0000000000000023
#042381:0000000000000013
#043381:23
#043350:1323
#043320:00330000
#043381:0013
#0433b1:00000033
#044381:23
#045381:13
#0453b1:00000023
#046351:13
#047351:53
#047321:0052
#047361:00000052
#048321:52
#048361:0053
#049361:23
#049361:00130000
#049321:00000000000000230000000000000000
#0503b1:00000000000000000000001300000000
#050371:00000000000000000000000000230000
#053371:00130000
#0533b1:00000000000000230000000000000000
#056351:0013
#056321:00000000000000000000332300000000
#056381:0000000000000013
#0573b1:33230000000000000000000000000000
#057351:00000000001333330000332300000000
#057321:0033
#057381:00000000000000000000000000133333
#0583b1:33
#058381:00003323000000000000000000000000
#058321:00000000001333333333330000333300
#058361:00000000000000000000003300000000
#059321:23
#060321:0013
#060331:0000000000330000
#060341:00000033
#060351:0000000000000033
#061351:26
#061361:00000000000000000000001300000000
#061321:0000000000000023
#062381:0000001300000000
#0623a1:0000000033000033
#0623b1:00000000000000000000335333000000
#063381:23
#062320:0013
#062350:00000023
#063350:1323000000000000
#063380:0000000013230000
#064350:1323000000000000
#064360:00000000000000000013000000000000
#064320:00000023
#064320:00000000000000000000000000130000
#065360:23
#066350:00132300
#067380:0013
#0673b0:0000000000230000
#067380:00000000000000000000001300000000
#0673b0:00000000000000000000000000230000
#068350:0013
#069320:23
#0693b0:00000000000000000000001300000000
#069370:0000000000000023
#069361:00000000000000000000001300000000
#069321:0000000000000023
#070321:0000001300000023
#070351:00003333
#070361:0000000000330000
#0713b1:13
#071381:0023000000000000
#071321:0013
#071351:0000000000230000
#0723b1:13
#072381:0023000000000000
#072321:0013
#072351:00000023
#0723b0:00000013
#073380:23
#073321:1323000000000000
#0733b1:0000132300000000
#073321:0000000013230000
#073351:0000000000000013
#074321:0033000000000000
#074331:00330000
#074351:0000002300000000
#073380:0000000000000013
#0743b0:0033000000000000
#0743a0:00330000
#074380:0000002300000000
#075380:00000000000000000000000000001353
#075390:0000000000000000000000000000000000000000000000000000000000530053
#076380:53532300000000000000000000000000
#076390:0053005300000000000000000000000000000000000000000000000000000000
#0773b0:1323000000000000
#077380:0000132300000000
#0773b0:0000000013000023
#080380:0000132300000000
#0803b0:00000013
#080380:0000000000000023
#080351:0000000000000013
#081351:23
#081380:1323
#0813b0:00330000
#081351:0013
#081321:00000033
#082351:23
#082381:0000000000000013
#0833b1:00000023
#083350:13
#083320:00000023
#084360:14
#084370:00000052
#085360:0000005400000000
#085350:000000000000000000000000000000000000000000000000000000000000000000000000000000540000000000540000000000540000000000540000000054000000540000005400000054000000540000005400000054000000540000540000
#085370:000000000000000000000000000000000000000000000000000000000000000000000000000000000000000000000000000000000000000000000000000000000000000000000000000000000000000000000000540000000000000000000000540000000000000000000000540000000000000000000000540000000000000054000000000000005400000000000000540000000000000054000000000000005400000000000000540000000000000054000000000000540000000000540000
#086350:540000540000540000540000540000540000540000540000540000002400000000000000000000000000000000000000000000000000000000000000000000000000000000000000000000000000000000000000000000000000000000000000
#086370:00540054005400540054005400540054005400000000000000000000000000000000000000000000000000000000000000000000000000000000000000000000
