This file was generated by Ched 2.7.0.0.
#TITLE ""
#ARTIST ""
#DESIGNER ""
#DIFFICULTY 0
#PLAYLEVEL
#SONGID ""
#WAVE ""
#WAVEOFFSET 0
#JACKET ""
#REQUEST "ticks_per_beat 480"
#00002: 4
#BPM01: 125
#00008: 01
#TIL00: ""
#VOLUME: ""
#HISPEED 00
#MEASUREHS 00
#0531f:11
#05315:00000000000000000000000000000013
#05318:00000000000000000000001300001300
#05312:00000000000000000000130000130000
#04315:2313
#04312:00130013
#04313:0000003300330033
#08118:2313
#0811b:00130013
#0811a:0000003300330033
#02812:1300000000000000000033133300000000000000000000000000000013000000
#02815:00000013000000000000001300000000
#02818:00130000000000000000130000000000
#0281b:00000000000000000000000000130000
#02814:00000000330000330000000000000000
#0831b:13
#08312:13
#08315:0000001300000000
#08318:0000001300000000
#0341b:00000033001300000000000000000000
#03418:2313000000000013
#03415:00000013
#03412:0000000000130000
#0341a:0000003300000000
#03419:00000000000000330000000000000000
#01216:00000000000000000000003212000000
#01214:00000000000032120000000000003200
#01215:00000000003200000032000000000000
#01018:00003200123200320000000000000000
#0101a:12
#00816:0032123200323200
#00814:12
#00815:00000000000000320032000000320000
#04115:0013001300000000
#04112:0000000000130013
#04118:2626
#08215:00001300001300000000230000000000
#08218:00000013000023000000000023000000
#08212:0000000023000023
#0821b:0000000000000023
#07918:0013001300000000
#0791b:0000000000130013
#07912:2626
#08018:00001300000013000013000000000000
#08015:00000000000000130000130000001300
#08012:26130000
#0801b:00000013
#07518:2600001300001300
#07512:0000130013000023
#07515:0000000000130000
#07615:00230013
#07618:0000002300130000
#07612:0000000000000013
#0761b:0023
#07712:0013000000000000
#07715:0000001300000000
#07718:13
#0771b:00130000
#0781b:0000130000000013
#07815:0013000000130000
#07818:00001313
#07812:0000001300000000
#04215:00001300000013000013000000000000
#04218:26000000000000130000130000001300
#0421b:00130000
#04212:00000013
#0441b:0000000013000013
#04418:00001300001300000000130000000000
#04415:00000013000023000000000013000000
#03715:0000001300001300
#0371b:0000130013000023
#03718:0000000000130000
#03712:24
#03818:00230013
#03815:0000002300130000
#0381b:0000000000000013
#03812:0023
#0391b:0013000000000000
#03918:0000001300000000
#03915:13
#03912:00130000
#04012:0000130000000013
#04018:0013000000130000
#04015:00001313
#0401b:0000001300000000
#07416:0014000000000000
#0741b:00000013
#07415:0000000000000013
#07412:0000000000130000
#07418:0013
#07414:00340000
#07216:0000000000140014
#0721a:00000034343400000000000014000000
#07212:2414
#07017:0000000000130000
#0701b:0000001300000000
#07018:0013000033003300
#07015:13
#07012:00130000
#06912:1313
#0691b:00000000130000000000001300000000
#06916:24242400
#06812:0013
#0681b:0000130000000013
#06818:00001300000000130000000013000000
#06815:1300001300130000
#06718:00000000000013000000001300000000
#06712:0013000000000000
#06715:00130000
#0671b:0013
#0671a:24
#06418:00001313
#06415:23001300000000000013000000130000
#06412:00000033003300000000000000000000
#06618:0013000000130000
#06612:0000000000000013
#06615:00000013
#0631b:0000000023130000
#06315:2313000000000000
#06318:00000000000000000000003300330000
#06312:00000033003300000000000000000000
#0621b:1300000000130000
#06218:0013001300000000
#06215:00130000
#0621a:00003333
#06210:41
#06512:1300000013000023
#06515:00130013
#06518:0013000000130000
#0651b:0000001300000023
#06118:0000130000130000
#06112:2613
#06115:0000001300000000
#0611f:21
#05715:00000013001300000000000000003333
#05718:33130000
#05712:00000000000033333300000000130000
#0561b:2300000000330013
#05618:00000013000013001300000000000000
#05615:00001300130000130000000000000000
#0581b:00000000001333333333330000333300
#05818:00000000000000000000001300000000
#05815:33
#05418:00000000000000000000000000130013
#05415:0000001300000013
#05412:00000000000000000000002400000000
#05416:00000000000000000024000000000000
#0541a:00000000000000240000000000000000
#05419:00330033000000000000000000000000
#05515:2300000013000013
#0551b:0013
#05518:00130013
#05512:00130013
#05012:00000000000000000000001300001300
#05018:00000000000000000000130000130000
#05014:00330033003300330000000000000000
#05118:1300000013000013
#05112:0013
#05115:00130013
#0511b:00130013
#05110:41
#04515:00130000
#04512:1313
#03615:0013000000130000
#0361b:0000000000000013
#03618:00000013
#03312:0000000023130000
#03318:2313000000000000
#03315:00000000000000000000003300330000
#0331b:00000033003300000000000000000000
#03212:1300000000130000
#03215:0013001300000000
#03218:00130000
#03213:00003333
#0271b:1300000000000023
#02715:00000000000000000000000000130000
#02718:00000000000000000000001300000000
#02712:0000000000130000
#02717:00333333333333330000000000000000
#02618:13000013
#02615:0000001300000000
#0261b:00333333000000000000000000333333
#02612:00000000000000333333000000000000
#02515:1313
#02512:0033133300331333
#0241b:0033133300331333
#02418:1313
#02114:00000000000000000000000000140000
#02118:0000000000000014
#01912:00000000000000000000000000000013
#01918:00000000000000000000130000130000
#01915:00000013
#01919:00000033000000000000000000000000
#01913:00000000000000330000000000000000
#01815:0000000000000013
#01818:00000000000013333300330000000000
#0181b:00001300000000000013000000000000
#01812:00130000
#01618:0000000000000013
#01615:00000000000013330000003300000000
#01612:00001300000000000013000000000000
#0161b:23130000
#01610:41
#01512:0013
#01515:0013000000000000
#01518:00232300
#0151b:23
#01412:0000001300000013
#01418:00130013
#01415:0013000000130000
#0141b:2323
#01314:0012000000000012
#01318:00000000000000120000000012000000
#01316:00000000000012000000001200000000
#0131a:00000000120000000012000000000000
#0111a:0012000000000012
#01116:00000000000000120000000012000000
#01118:00000000000012000000001200000000
#01114:00000000120000000012000000000000
#00712:0013
#00715:0000001300230000
#00718:00130023
#0071b:0013000000000023
#00515:0013000023130000
#00518:00000000130000000023000000000000
#0051b:0000001300000000
#00512:13
#0001b:00000013
#0001a:0013
#00019:00130000
#00018:13
#00218:00000013
#00219:0013
#0021a:00130000
#0021b:13
#00312:13
#00316:0033
#00314:00330000
#0351b:1300000013000023
#03518:00130013
#03515:0013000000130000
#03512:0000001300000023
#03115:0000130000130000
#0311b:0013
#03118:0000001300000000
#03112:0013000000000000
#03110:41
#01715:00000013
#01714:00000033000000000000000000000000
#01712:00000000000000000000000000333333
#0171a:00000000000000330000000000000000
#03016:00000014
#07318:00000014
#07312:0000000000000024
#07310:41
#07118:00001300001300000000001300001300
#07115:00000013000013000000130000130000
#0711a:0024
#07112:24
#04918:00000000000000000000000000000013
#04915:00000000000000000000001300001300
#0491b:00000000000000000000130000130000
#0491a:24
#0521b:00130013
#05218:0013
#05215:00130013
#05212:2413
#02314:0000000000000014
#02318:00000000000000000000000000140000
#02312:0024
#00914:0012000000000012
#00916:00000000000012000000001200000000
#00918:00000000000000120000000012000000
#0091a:00000000120000000012000000000000
#00415:00000000130000000000130000130000
#0041b:23000013
#00418:0013000013000013
#00412:0000001300000000
#00410:41
#00112:00000013
#00113:0013
#00114:00130000
#00115:13
#06018:0000000000260026
#06012:00002626
#0591b:23
#02216:00000024
#02212:24
#0291a:24
#00615:00000000000000000000000000330000
#00613:00000000000000000000000000000033
#00614:0000000000000033
#0775b:0000000000000013
#03952:0000000000000013
#0315a:14
#00355:00000016
#00352:63
#06152:16
#08158:5353
#0815b:00230023
#07952:1616
#08052:16
#07558:16
#04355:6363
#04352:00230023
#03752:14
#07352:0000000000000064
#0595b:13
#05555:13
#07152:14
#05252:14
#0525b:00000053
#05255:00000053
#0675a:14
#06758:00000000000000000000006300000000
#0675b:0053
#0495a:14
#0295a:54
#02852:0000000000000000000000230000000000000000000000000000000000000000
#02855:00000053000000000000000000000000
#0835b:53
#08352:53
#08355:0000002300000000
#08358:0000002300000000
#0345b:00000000002300000000000000000000
#03458:0053000000000000
#01256:00000052
#01254:00000000000000520000000000000000
#01058:00220000
#0105a:62
#00856:00220000
#00854:52
#07456:0024000000000000
#07057:0000000000230000
#0705b:0000005300000000
#06455:0063000000000000
#0635b:0000000000630000
#06355:0063000000000000
#0625b:0000000000230000
#06258:0000006300000000
#05755:00000000005300000000000000000000
#05752:00000000000000000000000000530000
#0565b:0000000000000053
#05658:0063
#0585b:00000000006300000000000000000000
#05858:00000000000000000000006300000000
#04555:00530000
#04552:5353
#03352:0000000000530000
#03358:0053000000000000
#03252:0000000000230000
#03255:0000005300000000
#0275b:53
#02658:63000063
#02655:0000005300000000
#02555:5353
#02552:00230023
#0245b:00230023
#02458:6363
#05158:13
#01858:0000006300000000
#0185b:00000000000000000023000000000000
#01755:00000053
#01655:0000005300000000
#01652:00000000000000000023000000000000
#03056:00000054
#0695b:00000000000000000000005300000000
#003320:13
#003340:00330000
#003360:0033
#003350:00000026
#005380:0000000000001323
#006350:13003300000000000000330033330000
#006320:00000000333300330000000000000000
#006340:0000000000000033
#006330:00000000000000000000000000000033
#007320:23
#008340:1200000032000022
#008360:00003200320032000000325232000000
#008350:00000000000000320032000000320000
#0103a0:12003232
#010380:00003200323200320000320000002200
#010390:00000000000000000032003200000000
#012340:12000000000032320000000000003222
#012350:00003200003200000032000000000000
#012360:00000000320000000000003232000000
#016350:00000000000013330000003323000000
#016320:00000000000000000033000000000000
#017320:0013000000000000
#017340:00000033000000000000000000000000
#017350:00230000
#017380:0000001300000000
#0173a0:00000000000000330000000000000000
#0173b0:0023
#017350:0000000000133300
#017320:00000000000000000000000000333333
#018320:23
#018380:00000000000013333300330023000000
#0183b0:00000000000000000053000000000000
#0193b0:0013000000000000
#019390:00000033000000000000000000000000
#019380:00230000
#019350:0000001300000000
#019330:00000000000000330000000000000000
#019320:0023
#0203a0:14000000000000000024000000000000
#020360:00000034000034000000000000000000
#020360:00000014
#020320:00000000000000000000000000000034
#021320:0034000000000000
#021360:00000000002400000000000000000000
#0213a0:0014
#021360:00000000000000000000002400000000
#022320:14000000000000000024000000000000
#022360:00000034000034000000000000000000
#022360:00000014
#0223a0:00000000000000000000000000000034
#0233a0:0034000000000000
#023360:00000000002400000000000000000000
#023320:0014
#023360:00000000000000000000002400000000
#024380:1333
#0243b0:0033333300333333
#025380:23
#025351:1333
#025321:0033333300333333
#026351:23
#026380:13
#0263b0:00333333230000000000000000000000
#026350:0000001300000000
#026320:00000000000000333333230000000000
#026380:00000013
#0263b0:00000000000000000000000000333333
#0273b0:33
#027370:00333333333333330000000000000000
#027360:0024
#028350:00000013000000002300000000000000
#028340:00000000330000330000000000000000
#028320:0000000000000000000033533300000000000000000000000000000000000000
#0293a0:14
#029360:0034
#030360:34343434
#0313a0:24
#031380:00000000000000000000001300002300
#032350:0000001300000023
#032330:00003333
#032320:0000000000330000
#033380:1333000000000000
#0333b0:00000033003323000000000000000000
#033320:0000000013330000
#033350:00000000000000000000003300332300
#034380:1333000023000000
#0343b0:00000033003300000000000000000000
#0343a0:0000003300000000
#034390:00000000000000330000000000000000
#036380:00132300
#0373b0:00000000000000000000000000001353
#0373a0:0000000000000000000000000000000000000000000000000000000000530053
#0383b0:53532300000000000000000000000000
#0383a0:0053005300000000000000000000000000000000000000000000000000000000
#039350:00001333
#039320:0000000000330023
#043350:1333
#043320:00330033
#043330:0000003300330033
#044350:23
#045320:1333
#045350:00330023
#0463a0:14
#0473a0:54
#047370:0053
#0473b0:00000053
#048370:53
#0483a0:0054
#0493a0:24
#049320:00130000
#049350:00000000000000332300000000000000
#050320:13332300
#050340:00330033003300330000000000000000
#050350:0033003300000000
#052350:00000013
#053320:23
#0523b1:00000013
#053381:23
#0533b1:00130000
#053381:00000000000000332300000000000000
#0543b1:13230000
#054391:00330033000000000000000000000000
#054381:0033000000000000
#056381:0013
#0563b1:00000000000000000000333300333300
#057381:33230000000000000000000000000000
#057351:00000000001300000000000000003333
#057321:00000000000033333300333300330000
#058351:33003323000000000000000000000000
#0583b1:00000000001333333333330000333300
#058381:00000000000000000000003300000000
#0593b1:23
#061351:00000000000000000000001300002300
#062381:0000001300000023
#0623a1:00003333
#0623b1:0000000000330000
#063351:1333000000000000
#063321:00000033003323000000000000000000
#0633b1:0000000013330000
#063381:00000000000000000000003300332300
#064351:1333000000000000
#064321:00000033003323000000000000000000
#066351:00132300
#0673b1:00000000000000001300000000332300
#067381:00000000000000000000333300000000
#0693b1:00000000000000000000001300000000
#069381:0000000000000023
#0703b1:0000001300000023
#070381:00003333
#070371:0000000000330000
#0723a1:00001434343400000000000000000000
#072361:0000002400000000
#073321:14
#073341:0024000000000000
#0733a1:00140000
#073381:0000002400000000
#073321:0014
#073341:0000000000240000
#073321:0000000000000014
#074361:0034000000000000
#074341:00340000
#074321:0000002400000000
#075321:00000000000000000000000000001353
#075331:0000000000000000000000000000000000000000000000000000000000530053
#076321:53532300000000000000000000000000
#076331:0053005300000000000000000000000000000000000000000000000000000000
#077381:00001333
#0773b1:0000000000330023
#081381:1333
#0813b1:00330033
#0813a1:0000003300330033
#082381:23
#082321:0000000000000013
#083321:33000023
#083351:0000005300000000
#0823b0:0000000000000013
#0833b0:33000023
#083380:0000005300000000
#084360:14
#085360:0000005400000000
#085350:000000000000000000000000000000000000000000000000000000000000000000000000000000540000000000540000000000540000000000540000000054000000540000005400000054000000540000005400000054000000540000540000
#085370:000000000000000000000000000000000000000000000000000000000000000000000000000000000000000000000000000000000000000000000000000000000000000000000000000000000000000000000000540000000000000000000000540000000000000000000000540000000000000000000000540000000000000054000000000000005400000000000000540000000000000054000000000000005400000000000000540000000000000054000000000000540000000000540000
#086350:540000540000540000540000540000540000540000540000540000002400000000000000000000000000000000000000000000000000000000000000000000000000000000000000000000000000000000000000000000000000000000000000
#086370:00540054005400540054005400540054005400000000000000000000000000000000000000000000000000000000000000000000000000000000000000000000
