This file was generated by Ched 2.7.0.0.
#TITLE ""
#ARTIST ""
#DESIGNER ""
#DIFFICULTY 0
#PLAYLEVEL
#SONGID ""
#WAVE ""
#WAVEOFFSET 0
#JACKET ""
#REQUEST "ticks_per_beat 480"
#00002: 4
#BPM01: 125
#00008: 01
#TIL00: ""
#VOLUME: ""
#HISPEED 00
#MEASUREHS 00
#00018:00000012
#00014:00000000000000000000001200000000
#00016:0000120000000012
#00012:1212
#0041a:0014000000000000
#00415:00000000001300000000130013000000
#0041b:00000000130000000000001300000000
#00418:00000000000013000013000000130000
#00412:24000000000000131300000000001300
#00416:2414000000000000
#00410:41
#00616:00000000131300130000000013000000
#00612:1313000000130000
#0061b:00000013
#00614:0000000000000033
#00613:00000000000000000000000000000033
#00615:00000000000000000000000000330000
#00619:0000000000000033
#00618:00000000000000000000000000000033
#0061a:00000000000000000000000000330000
#00716:00001300000000000014000024000000
#0071b:0013130000000000
#00718:00000000001300000000000000000000
#00715:0000001300000000
#00712:00000000000000130000240000000000
#0071a:0000000014000024
#00814:00000000000000120000000000000000
#00816:0000000012120000
#0081a:00141414
#0081c:0000000000000012000000000000001200000000000000120000000000000012
#00916:00000000120000000012000012000000
#00912:00001200000012120000001200000000
#00914:0000000000000012
#0091a:14141414
#0091c:0000000000000012000000000000001200000000000000120000000000000000
#01018:0000000012000000000000000000000000003212320000000000000000000000
#0101a:00000000121200003200003200001200
#0101c:00000000000000120000000000000000
#01012:0000000000000012140000000000001214000000000000121400000000000012
#01118:00001200000012120000001212000000
#0111c:00000000120000000012000000001200
#01112:1400000000000012140000000000001214000000000000121400000000000000
#01212:00001200000000000000000000000012
#01214:00000000000000000012000000000000
#01216:00000000000000220000001200000000
#0121a:00141414
#0121c:0000000000000012000000000000001200000000000000120000000000000012
#01314:00000000000012120000001212000000
#01312:00000000000000000012000000000000
#01316:0000000000000012
#0131a:14141414
#0131c:0000000000000012000000000000001200000000000000120000000000000000
#01418:2200000000120000
#01414:0012000000000000
#01416:00120000
#01412:0000001200000000
#0141a:00000012
#0141c:0000000022000012
#01518:0012000000000000
#01516:22121200
#01512:00222200
#0151a:22
#01619:25151515
#01616:00001300000000130000000000001300
#01612:13000000130000000013000013000000
#01610:41
#01719:15151515
#01716:00001400000014000000140000130000
#01714:00000014000000140000000000000000
#01712:13141413
#0171b:0000000000000013
#01717:00000000000000000000000000000013
#01916:00001400000014000000140000000014
#0191a:00000000140000001400000014140000
#01912:15151515
#01918:00000014000000140000000000000000
#02315:00000000000000000013001313000000
#02312:0024000013000013
#02318:0000000000130000
#02314:0000000000000000000000000000000000000000000000130000000000000000
#02316:0000000000000014000000000000000000000000000000000013000000000000
#0231b:00000000000000002300000000130000
#02317:0000000000000013
#0231a:00002400001400000000000000000000
#0241b:13
#02414:0000221200002212
#02412:2212000022120000
#0241c:00121200
#02418:00000000000000120000001200000012
#0241a:00000000000000000000000000120000
#02616:00120012000000000000000000000000
#02619:00000000000000120012000000000000
#02612:2212120000000000
#02615:0000002212120000
#0261c:00000000000000000000000000120012
#02618:0000000000002212
#02516:12000000001200000000000000001200
#02514:00000012000000120000001200000000
#02512:00000000000000000000000000120000
#0251a:0000221200002212
#0251c:2212000022120000
#02816:13
#02818:00000000001300001600130000001600
#02815:00000000130000130000000000130000
#0281b:00130000000013000000001300000000
#02812:00000013000000001300001600001300
#04512:1515
#04516:00150015
#0511b:1313130000130000
#05116:00000000000000000000001300140000
#05112:13000000000000130000000000001400
#0511a:0000000000000014
#05110:41
#0541b:00000000000000000000000000130000
#05418:00000000001600260000000000001300
#05415:00160016130013000026000000000013
#05412:13001300000000001c001c2600000000
#0491b:00131313
#04916:00131300
#04918:26000000000000000000001300000000
#04915:00000000000000000000130000131600
#04912:1600000000000000000000130000000000000000000000000000000000001300
#05012:00000000001600160000000013001300
#0501b:1313000000000013
#05015:00160016000000001300130000160000
#05018:0000131300000000
#0561a:00001200000000120000000000000000
#05614:00000012000000000000000000120000
#05618:00120000
#05616:0000001200000000
#05612:22000000000000000000001200002200
#05612:22
#05617:00000000000000001200121200001200
#0561c:2222
#05712:0000121212121212
#0571c:00120000000000121200001200000000
#05717:12120000000000000000000000120012
#05718:00000000001200000000000000000000
#0571a:00000012000000000000000000000000
#05817:12000000001200120000001200000000
#0581c:00000012000000000000000000001200
#05812:1212121212121212
#05819:00000000000000000012000000000000
#06714:0013001300000000
#06716:00000000130000000000131300000000
#06717:00000000000000001300000000131300
#06712:2300000013000013
#0671b:00000000130000000000001300000000
#06718:26
#06818:1600000016000016
#06812:13161300
#0681b:00000000130000130000000000000000
#06815:0016001600000000
#06814:0000000000140000
#06816:00000015
#0701b:13130000
#07012:00001300130000001300000000000016
#07016:1313000000000000
#07018:00000000000000130000000000000000
#07015:0000001300000000
#07112:26001300000000002300001300000000
#07118:00000000001300002600000013001300
#0711b:23000013000000000000130000000000
#07115:00000000130013000000000000130000
#0721b:23000013000000000000000000000000
#07214:0000001300000013
#07217:00000000000000131300000000000000
#07212:2613000000000000
#07219:00000000001300000000130000000000
#07216:00130000
#0731b:0013000000130000
#07316:00130000
#07312:0000001300000000
#07317:00001313
#07315:0000000000000023
#07318:0000000000000023
#07310:41
#08413:1a
#08417:00000012
#07412:1300230013000016
#0741b:13000000000023000000001300001300
#07418:00000000000000001600000000130000
#07415:00000000000000000013160016000000
#07417:00230000
#07416:0000002300000000
#0691b:0000001300000000
#06912:2c132c002c131300
#06917:00000013000000000000001300000000
#06916:00000000000000130000000000001300
#04115:0013131300130000
#04118:2613000000131313
#04112:2326
#0411b:0023
#04212:23001600160000001c1300131c001600
#04216:00000000000000140000140000000000
#0421b:0000001300000000
#04218:2600160000000016
#04419:0013
#04412:13000000000023000000001300001300
#04418:00000000130000000000000000130000
#04417:0000000000130000
#04415:00000013001600000000000013000000
#0441b:0013002300000013
#04414:00000000000000000013000000000000
#03017:000000000000000000000000000000000000000000000000000000000000000000000000000000000000000000000000000000000000000000000000000000000000000000000000000000000000000000000000000000000000000000000000000000000000000000000000000000000000000000000000000000000000000000000000000000000000000000000000000000000000000000000000000000000000000000000000000000000000000000000000000000000000000000000000000000000000000000000000000000000000000000000000000000000000000000000000000000000000000000000000000000000000000000000000000000000000000000000000000000000000000000000000000000000000000000000000000000000000000000000000000000000000000000000000000000000000000000000000000000000000000000000000000000000000000000000000000000000000000000000000000000000000000000000000000000000000000000000000000000000000000000000000000000000000000000000000000000000000000000000000000000000000000000000000000000000000000000000000000000000000000000000000000000000000000000000000000000000000000000000000000000000000000000000000000000000000000000000000000000000000000000000000000000000000000000000000000000000000000000000000000000000000000000000000000000000000000000000000000000000000000000000000000000000000000000000000000000000000000000000000000000000000000000000000000000000000000000000000000000000000000000000000000000000000000000000000000000000000000000000000000000000000000000000000000000000000000000000000000000000000000000000000000000000000000000000000000000000000000000000000000000000000000000000000000000000000000000000000000000000000000000000000000000000000000000000000000000000000000000000000000000000000000000000000000000000000000000000000000000000000000000000000000000000000000000000000000000000000000000000000000000000000000000000000000000000000000000000000000000000000000000000000000000000000000000000000000000000000000000000000000000000000000000000000000000000000000000000000000000000000000000000000000000000000000000000000000000000000000000000000000000000000000000000000000000000000000000000000000000000000000000000000000000000000000000000000000000000000000000000000000000000000000000000000000000000000000000000000000000000000000000000000000000000000000000000000000000000000000000000000000000000000000000000000000000000000000000000000000000000000000000000000000000000000000000000000000000000000000000000000000000000000000000000000000000000000000000000000000000000000000000000000000000000000000000000000000000000000000000000000000000000000000000000000000000000000000000000000000000000000000000000000000000000000000000000000000000000000000000000000000000000000000000000000000000000000000000000000000000000000000000000000000000000000000000000000000000000000000000000000000000000000000000000000000000000000000000000000000000000000000000000000000000000000000000000000000000000000000000000000000000000000000000000000000000000000000000000000000000000000000000000000000000000000000000000000000000000000000000000012120000000000000000000000000000000000000000000000000000000000000000000000000000000000000000000000000000000000000000000000000000000000000000000000000000000000000000000000000000000000000000000000000000000000000000000000000000000000000000000000000000000000000000000000000000000000000000000000000000000000000000000000000000000000000000000000000000000000000000000000000000000000000000000000000000000000000000000000000000000000000000000000000000000000000000000000000000000000000000000000000000000000000000000000000000000000000000000000000000000000000000000000000000000000000000000000000000000000000000000000000000000000000000000000000000000000000000000000000000000000000000000000000000000000000000000000000000000000000000000000000000000000000000000000000000000000000000000000000000000000000000000000000000000000000000000000000000000000000000000000000000000000000000000000000000000000000000000000000000000000000000000000000000000000000000000000000000000000000000000000
#03012:00000000000000000000000000130000
#0301b:00000000000000000000000000130000
#03015:0000000000000033
#03018:0000000000000033
#01817:00001300000000130000000023002300
#01812:15151515
#0181b:0000130023230000
#0271b:00130000130000002300000000130000
#02718:12001300001300000000000000000000
#02715:00000013000013000000000000000000
#02712:00000000000000130000001300002300
#02717:0000000023130000
#02716:0000000000000023
#0031c:12
#00312:12121200
#0031a:0014
#00317:00130000
#0351b:1313000000000000
#03517:0000000000121200
#03516:0013001300000000
#0351a:0000000000120000
#03512:1300130013000022
#03514:00000012
#0351c:0000000000000022
#0361b:00001300000000000000001300001300
#03616:0013130000000000
#03612:00131616
#03615:0000000000160013
#03618:00000000000000000013000000130000
#03418:00000000000000130000000000000000
#03412:0000000013151719
#0341b:23000000001300000000000000000000
#03415:0000001300000000
#03416:24001418000000000000000000000000
#03818:0000002300001300
#03815:0000000023130000
#0381b:0000230000000013
#03812:0023191613000000
#03912:00000012
#03916:1212001200120000
#0391c:1200120000120000
#03917:0000000000000012
#03918:00001212
#04016:0000131313000000
#0401b:0013001300130000
#04018:00000013
#04012:12000000130000001300000000130000
#04015:00000000000000000000001600001613
#00218:00000012
#00214:00000000000000000000001200000000
#00216:0000120000000012
#00212:1212
#00116:00000012
#0011a:00000000000000000000001200000000
#00118:0000120000000012
#0011c:1212
#00518:00000000001300130000000000001300
#00512:14000000130000002323000000000000
#00515:00000000000013000000000000000013
#0051b:0000130000131300
#0051a:0014000000000000
#00516:1414000000000000
#03315:00000000000000130000000000001300
#03312:00000000000000002300001800130000
#03316:24001418000000002400140000000000
#03318:00000000000013000000000000000013
#0331b:23000000001300000000000000000000
#03717:0000000000131323
#03712:26130013
#0371b:2300000013130023
#04712:1c
#04714:0012
#04718:00000015
#04815:12
#04818:0000000000130000
#04816:00000014
#04814:0000000000000015
#0481c:0012
#05212:24000000130000130000000000000000
#05216:0013000000000013
#0521b:00000000000000000000130000130000
#0521a:24
#05312:26131313
#05317:00131300
#05315:00000000000000000000001300001600
#05318:16000000000000000000130000130000
#0531b:0000000000000000000000130000000000000000000000000000000000001300
#0531f:11
#05516:00000000000000000000000000140000
#05512:2313130000130014
#0551a:0000000000000014
#0551b:23000000000000130000000000000000
#05517:00000000000000000000001300000000
#06016:00000000000000001200000000133300
#0601c:00000012
#06015:0000000000120000
#06014:00000012
#06013:0000000000000012
#06018:0022
#06118:00001300000000130000000000130000
#0611b:00000000130000001300001300000000
#06115:00000013000013000000000000001300
#06112:22131300
#06116:00000000000000000000131300000000
#0611f:21
#06212:1300130000120000
#06215:0013000000140000
#0621b:13
#0621a:0000001400000000
#06216:0000001200000012
#06214:00001212
#06218:00130000
#06210:41
#06512:0013000000000022
#06517:0013001300121200
#06514:0000000000120000
#0651b:13131300
#0651a:00000012
#0651c:0000000000000022
#06612:00001300000000000000001300001300
#06617:0013130000000000
#0661b:00130000
#06618:0000000016001613
#06615:00000000000000000013160000130000
#06417:00000000000000000000000013130000
#0641b:00000000001300000000000000130000
#06416:24001400000000001313000000000000
#06412:23000018000000000000000000000000
#03115:00001300000000130000000000130000
#03112:26000000130000001300001300000000
#0311b:00131300
#03117:00000000000000000000131300000000
#03118:00000013000013000000000000001300
#03110:41
#03215:00130000
#03218:0013001200000012
#0321a:00001212
#0321c:0000000000120000
#03217:0000000000140000
#03212:1300001400000000
#0321b:13130000
#08212:00001300000000000023000000000000
#08218:00000013001300000000000000000023
#08215:00132900
#0821b:1300002300000023
#08216:00000000000000000000000000230000
#08217:0000000000270000
#08219:00000025
#08214:00000000000000000000002300000000
#08312:00000013000000000000000000000000
#08317:00000013000000000000000000000000
#08319:00000000001300000000000000000000
#08314:00000000001300000000000000000000
#0831b:23000000000000130000000000000000
#08316:00000000000000130000000000000000
#0201a:1400000000001400000000001400000000001400000000000000001400000000
#02012:1400000000000000000000000000001400000000000000001400000000001400
#02016:0000001400000000000000001400000000000000000000001400000000000000
#02116:000000000000000000000000000000000000000000000000000000000000000000000000000000000000000000000000000000000000000000000000000000000000000000000000000000000000000000000000000000000000000000000000000000000000000000000000000000000000000000000000000000000000000000000000000000000000000000000000000000000000000000000000000000000000000000000000000000000000000000000000000000000000000000000000000000000000000000000000000000000000000000000000000000000000000000000000000000000000000000000000000000000000000000000000000000000000000000000000000000000000000000000000000000000000000000000000000000000000000000000000000000000000000000000000000000000000000000000000000000000000000000000000000000000000000000000000000000000000000000000000000000000000000000000000000000000000000000000000000000000000000000000000000000000000000000000000000000000000000000000000140000000000000000000000000000000000000000000000000000000000000000000000000000000000000000000000000000000000000000000000000000000000000000000000000000000000000000000000000000000000000000000000000000000000000000000000000000000000000000000000000000000000000000000000000000000000000000000000000000000000000000000000000000000000000000000000000000000000000000000000000000000000000000000000000000000000000000000000000000000000000000000000000000000000000000000000000000000000000000000000000000000000000000000000000000000000000000000000000000000000000000000000000000000000000000000000000000000000000000000000000000000000000000000000000000000000000000000000000000000000000000000000000000000000000000000000000000000000000000000000000000000000000000000000000000000000000000000000000000000000000000000000000000000000000000000000000000000000000000000000000000000000000000000000000000000000000000000000000000000000000000000000000000000000000000000000000000000000000000000000000000000000000000000000000000000000000000000000000000000000000000000000000000000000000000000000000000000000000000000000000000000000000000000000000000000000000000000000000000000000000000000000000000000000000000000000000000000000000000000000000000000000000000000000000000000000000000000000000000000000000000000000000000000000000000000000000000000000000000000000000000000000000000000000000000000000000000000000000000000000000000000000000000000000000000000000000000000000000000000000001414000000000000000000000000000000000000000000000000000000000000000000000000000000000000000000000000000000000000000000000000000000000000000000000000000000000000000000000000000000000000000000000000000000000000000000000000000000000000000000000000000000000000000000000000000000000000000000000000000000000000000000000000000000000000000000000000000000000000000000000000000000000000000000000000000000000000000000000000000000000000000000000000000000000000000000000000000000000000000000000000000000000000000000000000000000000000000000000000000000000000000000000000000000000000000000000000000000000000000000000000000000000000000000000000000000000000000000000000000000000000000000000000000000000000000000000000000000000000000000000000000000000000000000000000000000000000000000000000000000000000000000000000000000000000000000000000000000000000000000000000000000000000000000000000000000000000000000000000000000000000000000000000000000000000000000000000000000000000000000000000000000000000000000000000000000000000000000000000000000000000000000000000000000000000000000000000000000000000000000000000000000000000000000000000000000000000000000000000000000000000000000000000000000000000000000000000000000000000000000000000000000000000000000000000000000000000000000000000000000000000000000000000000000000000000000000000000000000000000000000000000000000000000000000000000000000000000000000000000000000000000000000000000000000000000000000000000000000000000000000000000000000000000000000000000000000000000000000000000000000000000000000000000000000000000000000000000000000000000000
#0211a:0014000014000000
#02112:00001400001400001400000000000000
#02118:0000000000000014
#02114:00000000000000000000000000140000
#0221a:2400000000000000000000000000001400000000000000002400000000001400
#02212:2400000000001400000000002400000000001400000000000000001400000000
#02216:0000001400000000000000002400000000000000000000002400000000000000
#07918:0013131326130000
#07915:0013000000131313
#0791b:23
#07912:2623
#0801b:23000000000000000013001300000000
#08016:00000000000000140000140000000000
#08012:260016131c001c16
#08018:0016160000000016
#08112:0000001300130013
#08117:0013001300130013
#08116:00232313
#0811b:23130023
#08115:26
#07615:0000192300001300
#07618:0000001623130000
#07612:0000230000000013
#0761b:0023000013000000
#0771c:00000012
#07718:1212001200120000
#07712:1200120000120000
#07717:0000000000000012
#07716:00001212
#07817:0000131313000000
#07812:0013001300130000
#07815:00000000000000000000001613001600
#0781b:00000000130000001300000000130000
#0781c:12
#07818:00000000000000000000000000000013
#07516:0000000000131323
#0751b:00130013
#07512:2300000013130023
#07518:26
#02918:16
#02912:26
#0431b:0000001300130013
#04316:0013001300130013
#04317:00232313
#04312:23130023
#06318:00000000000000130000000000001300
#06316:24001400000000002400141800000000
#06312:23000018001300000000000000000000
#06315:00000000000013000000000000000013
#0631b:00000000000000002300000000130000
#05912:22
#0591c:22
#0515b:13
#05152:13
#05952:12
#0595c:12
#05857:62000000000000000000005200000000
#06758:16
#06757:0053
#06756:00000000000000000000006300000000
#08453:5a
#08457:00000022
#07152:1653
#0715b:53
#07158:0000000016000013
#07155:0000001300000000
#07257:0013
#07256:00000013
#0725b:53
#07252:16
#07259:0000000000130000
#07254:0000000000000013
#07452:23
#0745b:23
#07355:0000000000000053
#07358:0000000000000063
#07357:13
#00355:00000016
#0035c:52
#0035a:0054
#00357:00530000
#00656:00000053
#0065b:00000053
#02952:56
#02958:56
#03057:000000000000000000000000000000000000000000000000000000000000000000000000000000000000000000000000000000000000000000000000000000000000000000000000000000000000000000000000000000000000000000000000000000000000000000000000000000000000000000000000000000000000000000000000000000000000000000000000000000000000000000000000000000000000000000000000000000000000000000000000000000000000000000000000000000000000000000000000000000000000000000000000000000000000000000000000000000000000000000000000000000000000000000000000000000000000000000000000000000000000000000000000000000000000000000000000000000000000000000000000000000000000000000000000000000000000000000000000000000000000000000000000000000000000000000000000000000000000000000000000000000000000000000000000000000000000000000000000000000000000000000000000000000000000000000000000000000000000000000000000000000000000000000000000000000000000000000000000000000000000000000000000000000000000000000000000000000000000000000000000000000000000000000000000000000000000000000000000000000000000000000000000000000000000000000000000000000000000000000000000000000000000000000000000000000000000000000000000000000000000000000000000000000000000000000000000000000000000000000000000000000000000000000000000000000000000000000000000000000000000000000000000000000000000000000000000000000000000000000000000000000000000000000000000000000000000000000000000000000000000000000000000000000000000000000000000000000000000000000000000000000000000000000000000000000000000000000000000000000000000000000000000000000000000000000000000000000000000000000000000000000000000000000000000000000000000000000000000000000000000000000000000000000000000000000000000000000000000000000000000000000000000000000000000000000000000000000000000000000000000000000000000000000000000000000000000000000000000000000000000000000000000000000000000000000000000000000000000000000000000000000000000000000000000000000000000000000000000000000000000000000000000000000000000000000000000000000000000000000000000000000000000000000000000000000000000000000000000000000000000000000000000000000000000000000000000000000000000000000000000000000000000000000000000000000000000000000000000000000000000000000000000000000000000000000000000000000000000000000000000000000000000000000000000000000000000000000000000000000000000000000000000000000000000000000000000000000000000000000000000000000000000000000000000000000000000000000000000000000000000000000000000000000000000000000000000000000000000000000000000000000000000000000000000000000000000000000000000000000000000000000000000000000000000000000000000000000000000000000000000000000000000000000000000000000000000000000000000000000000000000000000000000000000000000000000000000000000000000000000000000000000000000000000000000000000000000000000000000000000000000000000000000000000000000000000000000000000000000000000000000000000000000000000000000000000000000000000000000000000062520000000000000000000000000000000000000000000000000000000000000000000000000000000000000000000000000000000000000000000000000000000000000000000000000000000000000000000000000000000000000000000000000000000000000000000000000000000000000000000000000000000000000000000000000000000000000000000000000000000000000000000000000000000000000000000000000000000000000000000000000000000000000000000000000000000000000000000000000000000000000000000000000000000000000000000000000000000000000000000000000000000000000000000000000000000000000000000000000000000000000000000000000000000000000000000000000000000000000000000000000000000000000000000000000000000000000000000000000000000000000000000000000000000000000000000000000000000000000000000000000000000000000000000000000000000000000000000000000000000000000000000000000000000000000000000000000000000000000000000000000000000000000000000000000000000000000000000000000000000000000000000000000000000000000000000000000000000000000000000000
#03052:00000000000000000000000000230000
#0305b:00000000000000000000000000230000
#00752:13
#0075b:0013000000000000
#00757:13
#00756:0013000000000000
#02355:00000000000000000000005363000000
#02354:0000000000000000000000000000000000000000000000230000000000000000
#02356:0000000000000024000000000000000000000000000000000023000000000000
#02352:00005400003400000000000000000000
#0235a:00000000004400000000000000000000
#02652:00120000
#02655:0000000000120000
#02758:12
#03352:00000000000000000000001800000000
#03356:00000018000000000000000000000000
#03656:00230000
#03752:36
#0375b:43
#0395c:5200520000520012
#03956:0052005200000000
#03957:0000000000000052
#03958:00005252
#04052:22
#04155:0033230000530000
#04158:0063000000432300
#04552:3535
#04556:00350055
#04752:5c
#04754:0052
#04758:00000055
#04855:52
#0485c:0022
#04956:00530000
#04952:0000000000000000000000230000000000000000000000000000000000000000
#04958:16
#05252:34
#0525a:44
#05357:00630000
#0535b:0000000000000000000000230000000000000000000000000000000000000000
#05352:16
#05552:13
#0555b:13
#05657:0000000052000062
#0575c:0052
#06056:00000000000000000000000000230000
#0605c:00000052
#06058:0052
#06156:00000000000000000000006300000000
#06158:46
#06152:32
#0625a:0000006400000000
#06255:0000000000240000
#06657:00230000
#06456:00000000000000000053000000000000
#06457:00000000000000000000000000630000
#06452:00000018000000000000000000000000
#03257:0000000000240000
#03252:0000005400000000
#03157:00000000000000000000005300000000
#03158:46
#03152:36
#06957:00000000000000000000006300000000
#08352:00000023000000000000000000000000
#08357:00000023000000000000000000000000
#08354:00000000005300000000000000000000
#0835b:63000000000000230000000000000000
#08356:00000000000000230000000000000000
#08359:00000000005300000000000000000000
#08258:00000000000000000000000000000063
#08255:0019
#08257:0000000000170000
#08259:00000015
#0825b:0000000000000013
#0045a:0044000000000000
#00452:34
#0055a:0044000000000000
#00552:34
#01058:0000000000000000000000000000000000000022000000000000000000000000
#0105c:00000000000000620000000000000000
#01052:0000000000000022640000000000002264000000000000226400000000000022
#01652:00000000230000000023000000000000
#01656:00000000000000530000000000000000
#0205a:0000000000004400000000000000000000004400000000000000002400000000
#02056:0000002400000000000000006400000000000000000000005400000000000000
#02052:5400000000000000000000000000002400000000000000000000000000003400
#02156:000000000000000000000000000000000000000000000000000000000000000000000000000000000000000000000000000000000000000000000000000000000000000000000000000000000000000000000000000000000000000000000000000000000000000000000000000000000000000000000000000000000000000000000000000000000000000000000000000000000000000000000000000000000000000000000000000000000000000000000000000000000000000000000000000000000000000000000000000000000000000000000000000000000000000000000000000000000000000000000000000000000000000000000000000000000000000000000000000000000000000000000000000000000000000000000000000000000000000000000000000000000000000000000000000000000000000000000000000000000000000000000000000000000000000000000000000000000000000000000000000000000000000000000000000000000000000000000000000000000000000000000000000000000000000000000000000000000000000000000000240000000000000000000000000000000000000000000000000000000000000000000000000000000000000000000000000000000000000000000000000000000000000000000000000000000000000000000000000000000000000000000000000000000000000000000000000000000000000000000000000000000000000000000000000000000000000000000000000000000000000000000000000000000000000000000000000000000000000000000000000000000000000000000000000000000000000000000000000000000000000000000000000000000000000000000000000000000000000000000000000000000000000000000000000000000000000000000000000000000000000000000000000000000000000000000000000000000000000000000000000000000000000000000000000000000000000000000000000000000000000000000000000000000000000000000000000000000000000000000000000000000000000000000000000000000000000000000000000000000000000000000000000000000000000000000000000000000000000000000000000000000000000000000000000000000000000000000000000000000000000000000000000000000000000000000000000000000000000000000000000000000000000000000000000000000000000000000000000000000000000000000000000000000000000000000000000000000000000000000000000000000000000000000000000000000000000000000000000000000000000000000000000000000000000000000000000000000000000000000000000000000000000000000000000000000000000000000000000000000000000000000000000000000000000000000000000000000000000000000000000000000000000000000000000000000000000000000000000000000000000000000000000000000000000000000000000000000000000000000000002424000000000000000000000000000000000000000000000000000000000000000000000000000000000000000000000000000000000000000000000000000000000000000000000000000000000000000000000000000000000000000000000000000000000000000000000000000000000000000000000000000000000000000000000000000000000000000000000000000000000000000000000000000000000000000000000000000000000000000000000000000000000000000000000000000000000000000000000000000000000000000000000000000000000000000000000000000000000000000000000000000000000000000000000000000000000000000000000000000000000000000000000000000000000000000000000000000000000000000000000000000000000000000000000000000000000000000000000000000000000000000000000000000000000000000000000000000000000000000000000000000000000000000000000000000000000000000000000000000000000000000000000000000000000000000000000000000000000000000000000000000000000000000000000000000000000000000000000000000000000000000000000000000000000000000000000000000000000000000000000000000000000000000000000000000000000000000000000000000000000000000000000000000000000000000000000000000000000000000000000000000000000000000000000000000000000000000000000000000000000000000000000000000000000000000000000000000000000000000000000000000000000000000000000000000000000000000000000000000000000000000000000000000000000000000000000000000000000000000000000000000000000000000000000000000000000000000000000000000000000000000000000000000000000000000000000000000000000000000000000000000000000000000000000000000000000000000000000000000000000000000000000000000000000000000000000000000000000000000000
#0215a:00006400000000006400004400000000
#02152:00000000003400005400003400000000
#0245c:00520000
#0185b:00230000
#02256:0000002400000000000000005400000000003400000000006400000000004400
#0225a:6400000000004400000000000000002400000000000000000000000000004400
#02252:0000000000003400000000000000000000003400000000000000002400000000
#04652:12
#0655b:13
#06852:0013
#06854:0000000000140000
#06856:00000015
#06858:0000000000000016
#08152:0000000000230023
#08156:00005353
#08157:0023002300000000
#0815b:53530000
#08155:36
#07958:0043230046630000
#07955:0053000000332300
#07952:36
#07758:0062006200000000
#07752:6200620000620012
#07757:0000000000000062
#07756:00006262
#0785c:22
#07558:46
#07552:33
#08052:3600000000000056
#08058:00660000
#04355:46
#0435b:0000000000230023
#04357:00006363
#04356:0023002300000000
#04352:63630000
#04252:00560000
#04258:0000000000000066
#0085c:0000000000000022000000000000002200000000000000220000000000000022
#0085a:00545454
#0095a:54545454
#0095c:0000000000000022000000000000002200000000000000220000000000000000
#01152:6400000000000022640000000000002264000000000000226400000000000000
#0125a:00545454
#0125c:0000000000000022000000000000002200000000000000220000000000000022
#0135a:54545454
#0135c:0000000000000022000000000000002200000000000000220000000000000000
#02556:62
#03456:00000018000000000000000000000000
#06356:00000000000000000000001800000000
#06352:00000018000000000000000000000000
#0003c0:1222
#001320:1222
#0023c0:1222
#0033c0:12
#003370:00330000
#0033a0:0034
#003350:00000026
#005360:00000013
#005320:0000000000000023
#006370:1333000000330000
#0063b0:00000000333300330000000033000000
#0063a0:00000000000000000000000000330000
#006390:0000000000000033
#006380:00000000000000000000000000000033
#007370:23
#006361:00000013
#006351:00000000000000000000000000330000
#006341:0000000000000033
#006331:00000000000000000000000000000033
#007321:23
#008361:12320000
#008321:0032002200000000
#0083c0:1200000000000052005200000000005200520000000000520052000000000052
#0083a0:00343434
#0093a0:34343434
#0093c0:0052000000000052005200000000005200520000000000520052000000000000
#0103c0:22
#008361:00000012
#008341:00000000000000000000000000320000
#008321:0000000000000022
#010321:1200000000000052345200000000005234520000000000523452000000000052
#011321:3452000000000052345200000000005234520000000000523452000000000000
#012321:22
#0103c0:00000000000000120000000022000000
#0103a0:00000000000000003200003200000000
#010380:0000000000000000000000000000000000003252320000000000000000000000
#0123c0:1200000000000052005200000000005200520000000000520052000000000052
#0123a0:00343434
#0133a0:34343434
#0133c0:0052000000000052005200000000005200520000000000520052000022000000
#012361:00120000
#012341:00000000003200000000000000000000
#012321:0000002200000000
#012361:00000012
#012321:0000000000000022
#013321:0012000000000000
#013341:00000032000000000000000000000000
#013361:00220000
#0143c0:12
#014380:0022000000000000
#0143a0:00120000
#014360:0000002200000000
#014380:0012
#014340:0000000000220000
#014360:00000012
#014320:0000000000000022
#016320:00130000
#016360:0000002300000000
#016360:00000000000000130000002300000000
#016320:00000000000000000033000000000000
#0183b0:00130000
#018370:0000002300000000
#020320:14000024000000000000000000000000
#020360:0000005400000000000000000000000000000000000000000000000000000000
#020360:00000000000014000024000000000000
#020320:0000000000000000000000000000005400000000000000000000000000000000
#020360:00000000000000000000000014000024
#0203a0:0000000000000000000000000000000000000000000000000000005400000000
#0213a0:00001400002400000000000000000000
#021360:0000000000000054000000000000000000000000000000000000000000000000
#0213a0:00000000000000001400002400000000
#021360:000000000000000000000000000000000000000000000000000000000000000000000000000000000000000000000000000000000000000000000000000000000000000000000000000000000000000000000000000000000000000000000000000000000000000000000000000000000000000000000000000000000000000000000000000000000000000000000000000000000000000000000000000000000000000000000000000000000000000000000000000000000000000000000000000000000000000000000000000000000000000000000000000000000000000000000000000000000000000000000000000000000000000000000000000000000000000000000000000000000000000000000000000000000000000000000000000000000000000000000000000000000000000000000000000000000000000000000000000000000000000000000000000000000000000000000000000000000000000000000000000000000000000000000000000000000000000000000000000000000000000000000000000000000000000000000000000000000000000000000000000000000000000000000000000000000000000000000000000000000000000000000000000000000000000000000000000000000000000000000000000000000000000000000000000000000000000000000000000000000000000000000000000000000000000000000000000000000000000000000000000000000000000000000000000000000000000000000000000000000000005400000000000000000000000000000000000000000000000000000000000000000000000000000000000000000000000000000000000000000000000000000000000000000000000000000000000000000000000000000000000000000000000000000000000000000000000000000000000000000000000000000000000000000000000000000000000000000000000000000000000000000000000000000000000000000000000000000000000000000000000000000000000000000000000000000000000000000000000000000000000000000000000000000000000000000000000000000000000000000000000000000000000000000000000000000000000000000000000000000000000000000000000000000000000000000000000000000000000000000000000000000000000000000000000000000000000000000000000000000000000000000000000000000000000000000000000000000000000000000000000000000000000000000000000000000000000000000000000000000000
#021321:00000000000000001400002400000000
#021361:000000000000000000000000000000000000000000000000000000000000000000000000000000000000000000000000000000000000000000000000000000000000000000000000000000000000000000000000000000000000000000000000000000000000000000000000000000000000000000000000000000000000000000000000000000000000000000000000000000000000000000000000000000000000000000000000000000000000000000000000000000000000000000000000000000000000000000000000000000000000000000000000000000000000000000000000000000000000000000000000000000000000000000000000000000000000000000000000000000000000000000000000000000000000000000000000000000000000000000000000000000000000000000000000000000000000000000000000000000000000000000000000000000000000000000000000000000000000000000000000000000000000000000000000000000000000000000000000000000000000000000000000000000000000000000000000000000000000000000000000000000000000000000000000000000000000000000000000000000000000000000000000000000000000000000000000000000000000000000000000000000000000000000000000000000000000000000000000000000000000000000000000000000000000000000000000000000000000000000000000000000000000000000000000000000000000000000000000000000000000000000000000000000000000000000000000000000000000000000000000000000000000000000000000000000000000000000000000000000000000000000000000000000000000000000000000000000000000000000000000000000000000000000000000000000000000000000000000000000000000000000000000000000000000000000000000000000000000000000000000000000000000000000000000000000000000000000000000000000000000000000000000000000000000000000000000000000000000000000000000000000000000000000000000000000000000000000000000000000000000000000000000000000000000000000000000000000000000000000000000000000000000000000000000000000000000000000000000000000000000000000000000000000000000000000000000000000000000000000000000000000000000000000000000000000000000000000000000000000000000000000000000000000000000000000000000000000000000000000000000000000000000000000000000000000000000000000000000000000000000000000000000000000000000000000000000000000000000000000000000000000000000000000000000000000000000000000000000000000000000000000000000000000000000000000000000000000000000000000000000000000000000000000000000000000000000000000000000000000000000000000000000000000000000000000000000000000000000000000000000005400000000000000000000000000000000000000000000000000000000000000000000000000000000000000000000000000000000000000000000000000000000000000000000000000000000000000000000000000000000000000000000000000000000000000000000000000000000000000000000000000000000000000000000000000000000000000000000000000000000000000000000000000000000000000000000000000000000000000000000000000000000000000000000000000000000000000000000000000000000000000000000000000000000000000000000000000000000000000000000000000000000000000000000000000000000000000000000000000000000000000000000000000000000000000000000000000000000000000000000000000000000000000000000000000000000000000000000000000000000000000000000000000000000000000000000000000000000000000000000000000000000000000000000000000000000000000000000000000000000000000000000000000000000000000000000000000000000000000000000000000000000000000000000000000000000000000000000000000000000000000000000000000000000000000000000000000000000000000000000000000000000000000000000000000000000000000000000000000000000000000000000000000000000000000000000000000000000000000000000000000000000000000000000000000000000000000000000000000000000000000000000000000000000000000000000000000000000000000000000000000000000000000000000000000000000000000000000000000000000000000000000000000000000000000000000000000000000000000000000000000000000000000000000000000000000000000000000000000000000000000000000000000000000000000000000000000000000000000000000000000000000000000000000000000000000000000000000000000000000000000000000000000000000000000000000000000000000000000000000
#0223a1:14000024000000000000000000000000
#022361:0000005400000000000000000000000000000000000000000000000000000000
#022361:00000000000014000024000000000000
#0223a1:0000000000000000000000000000005400000000000000000000000000000000
#022361:00000000000000000000000014000024
#022321:0000000000000000000000000000000000000000000000000000005400000000
#023321:00001400002400000000000000000000
#023361:0000000000000054000000000000000000000000000000000000000000000000
#023351:00000000000000000000001353230000
#023341:0000000000000000000000000000000000000000000000530000000000000000
#023361:0000000000000000000000000000000000000000000000000053000000000000
#0243c1:00120000
#024381:0000002200000000
#025361:12
#025321:0022000000000000
#025371:0000000012220000
#029321:16
#029371:0032
#030371:32323232
#030321:00000000000000000000000000530000
#030351:0000000000000033
#031381:26
#029380:16
#029370:000000000000000000000000000000000000000000000000000000000000000000000000000000000000000000000000000000000000000000000000000000000000000000000000000000000000000000000000000000000000000000000000000000000000000000000000000000000000000000000000000000000000000000000000000000000000000000000000000000000000000000000000000000000000000000000000000000000000000000000000000000000000000000000000000000000000000000000000000000000000000000000000000000000000000000000000000000000000000000000000000000000000000000000000000000000000000000000000000000000000000000000000000000000000000000000000000000000000000000000000000000000000000000000000000000000000000000000000000000000000000000000000000000000000000000000000000000000000000000000000000000000000000000000000000000000000000000000000000000000000000000000000000000000000000000000000000000000000000000000000000000000000000000000000000000000000000000000000000000000000000000000000000000000000000000000000000000000000000000000052000000000000000000000000000000000000000000000000000000000000000000000000000000000000000000000000000000000000000000000000000000000000000000000000000000000000000000000000000000000000000000000000000000000000000000000000000000000000000000000000000000000000000000000000000000000000000000000000000000000000000000000000000000000000000000000000000000000000000000000000000000000000000000000000000000000000000000000000000000000000000000000000000000000000000000000000000000000000000000000000000000000000000000000000000000000000000000000000000000000000000000000000000000000000000000000000000000000000000000000000000000000000000000000000000000000000000000000000000000000000000000000000000000000000000000000000000000000000000000000000000000000000000000000000000000000000000000000000000000000000000000000000000000000000000000000000000000000000000000000000000000000000000000000000000000000000000000000000000000000000000000000000000000000000000000000000000000000000000000000000
#030370:000000000000000000000000000000000000000000000000000000000000000000000000000000000000000000000000000000000000000000000000000000000000000000000000000000000000000000000000000000000000000000000000000000000000000000000000000000000000000000000000000000000000000000000000000000000000000000000000000000000000000000000000000000000000000000000000000000000000000000000000000000000000000000000000000000000000000000000000000000000000000000000000000000000000000000000000000000000000000000000000000000000000000000000000000000000000000000000000000000000000000000000000000000000000000000000000000000000000000000000000000000000000000000000000000000000000000000000000000000000000000000000000000000000000000000000000000000000000000000000000000000000000000000000000000000000000000000000000000000000000000000000000000000000000000000000000000000000000000000000000000000000000000000000000000000000000000000000000000000000000000000000000000000000000000000000000000000000000000000000000000000000000000000000000000000000000000000000000000000000000000000000000000000000000000000000000000000000000000000000000000000000000000000000000000000000000000000000000000000000000000000000000000000000000000000000000000000000000000000000000000000000000000000000000000000000000000000000000000000000000000000000000000000000000000000000000000000000000000000000000000000000000000000000000000000000000000000000000000000000000000000000000000000000000000000000000000000000000000000000000000000000000000000000000000000000000000000000000000000000000000000000000000000000000000000000000000000000000000000000000000000000000000000000000000000000000000000000000000000000000000000000000000000000000000000000000000000000000000000000000000000000000000000000000000000000000000000000000000000000000000000000000000000000000000000000000000000000000000000000000000000000000000000000000000000000000000000000000000000000000000000000000000000000000000000000000000000000000000000000000000000000000000000000000000000000000000000000000000000000000000000000000000000000000000000000000000000000000000000000000000000000000000000000000000000000000000000000000000000000000000000000000000000000000000000000000000000000000000000000000000000000000000000000000000000000000000000000000000000000000000000000000000000000000000000000000000000000000000000000000000000000000000000000000000000000000000000000000000000000000000000000000000000000000000000000000000000000000000000000000320000000000000000000000000000000000000000000000000000000000000000000000000000000000000000000000000000000000000000000000000000000000000000000000000000000000000000000000000000000000000000000000000000000000000000000000000000000000000000000000000000000000000000000000000000000000000000000000000000000000000000000000000000000000000000000000000000000000000000000000000000000000000000000000000000000000000000000000000000000000000000000000000000000000000000000000000000000000000000000052000000000000000000000000000000000000000000000000000000000000000000000000000000000000000000000000000000000000000000000000000000000000000000000000000000000000000000000000000000000000000000000000000000000000000000000000000000000000000000000000000000000000000000000000000000000000000000000000000000000000000000000000000000000000000000000000000000000000000000000000000000000000000000000000000000000000000000000000000000000000000000000000000000000000000000000000000000000000000000000000000000000000000000000000000000000000000000000000000000000000000000000000000000000000000000000000000000000000000000000000000000000000000000000000000000000000000000000000000000000000000000000000000000000000000000000000000000000000000000000000000000000000000000000000000000000000000000000000000000000000000000000000000000000000000000000000000000000000000000000000000000000000000000000000000000000000000000000000000000000000000000000000000000000000000000000000000000000000000000000000
#0303b0:00000000000000000000000000530000
#030380:0000000000000033
#031320:26
#031370:00000000000000000000001300000000
#0313b0:00000000000000000000000000230000
#032320:0000001400000024
#032370:0000000000540000
#0333b0:1323000000000000
#033320:0000000013230000
#0343b0:1323000000000000
#034350:0013
#0343b0:0000000000000023
#035360:00132300
#0353b0:0000003300000000
#036360:00130000
#0363b0:0023
#037360:00130000
#0373b0:0000002300000000
#037321:0000001300000000
#037371:0023
#0373b1:000000000000000000000000000000000000000000000000000000000000000000000000000000000000130053525200
#037391:000000000000000000000000000000000000000000000000000000000000000000000000000000000000000000000000000000000000000000000000000000000000000000000000000000000000000000000000005300520052000000000000
#0373c1:000000000000000000000000000000000000000000000000000000000000000000000000000000000000005200000000
#037381:000000000000000000000000000000000000000000000000000000000000000000000000000000000000000000000000000000000000000000000000000000000000000000000000000000000000000000000000000000000000005300000000
#037371:000000000000000000000000000000000000000000000000000000000000000000000000000000000000000000000000000000000000000000000000000000000000000000000000000000000000000000000000000000000000000000530053
#0373a1:000000000000000000000000000000000000000000000000000000000000000000000000000000000000000000000052
#038391:535200000000000000000000000000000000000000000000000000000000000000000000000000000000000000000000
#038371:005200000000000000005200000000000000000000000000000000000000000000000000000000000000000000000000000000000000000000000000000000000000000000000000000000000000000000000000000000000000000000000000
#038361:000000530052000000000000230000000000000000000000000000000000000000000000000000000000000000000000000000000000000000000000000000000000000000000000000000000000000000000000000000000000000000000000
#038381:000052525200000000000000000000000000000000000000000000000000000000000000000000000000000000000000
#038351:000000000000005300000053000000000000000000000000000000000000000000000000000000000000000000000000000000000000000000000000000000000000000000000000000000000000000000000000000000000000000000000000
#038341:0000005300000000000000000000000000000000000000000000000000000000
#038321:000000000000000000000000000000000000000000000000000000000000000000000000000000000000000000000000000000000000000000000000000000000000000000000000000000000000000000000000000000000000000000000000000000000000000000000000000000000000000000000000000000000000000000000000000000000000000000000000000000000000000000000000000000000000000000000000000000000000000000000000000000000000000000000000000000000000000000000000000000000000000000000000000000000000000000000000000000000000000000000000000000000000000000000000000000000000000000000000000000000000000000000000000000000000000000000000000000000000000000000000000000000000000000000000000000000000000000000000000000000000000000000000000000000000000000000000000000000000000000000000000000000000000000000000000000000000000000000000000000000000000000000000000000000000000000000000000000000000000000000000000000000000000000000000000000000000000000000000000000000000000000000000000000000000000000000000000000000000000000000000000000000000000000000000000000000000000000000000000000000000000000000000000000000000000000000000000000000000000000000000000000000000000000000000000000000000000000000000000000000000000000000000000000000000000000000000000000000000000000000000000000000000000000000000000000000000000000000000000000000000000000000000000000000000000000000000000000000000000000000000000000000000000000000000000000000000000000000000000000000000000000000000000000000000000000000000000000000000000000000000000000000000000000000000000000000000000000000000000000000000000000000000000000000000000000000000000000000000000000000000000000000000000000000000000000000000000000000000000000000000000000000000000000000000000000000000000000000000000000000000000000000000000000000000000000000000000000000000000000000000000000000000000000000000000000000000000000000000000000000000000000000000000000000000000000000000000000000000000000000000000000000000000000000000000000000000000000000000000000000000000000000000000000000000000000000000000000000000000000000000000000000000000000000000000000000000000000000000000000000000000000000000000000000000000000000000000000000000000000000000000000000000000000000000000000000000000000000000000000000000000000000000000000000000000000000000000000000000000000000000000000000000000000000000000000000000000000000000000000000000000000000000000000000000000000000000000000000000000000000000000000000000000000000000000000000000000000000000000000000000130000000000000000000000000000000000000000000000000000000000000000000000000000000000000000000000000000000000000000000000000000000000000000000000000000000000000000000000000000000000000000000000000000000000000000000000000000000000000000000053560000000000000000000000000000000000000000000000000000000000000000000000000000000000000000000000000000000000000000000000000000000000000000000000000000000000000000000000000000000000000000000000000000000000000000000000000000000000000000000000360000000000000000000000000000000000000000000000000000000000000000000000000000000000000000000000000000000000000000000000000000000000000000000000000000000000000000000000000000000000000000000000000000000000000000000000000000000000000000000056590000000000000000000000000000000000000000000000000000000000000000000000000000000000000000000000000000000000000000000000000000000000000000000000000000000000000000000000000000000000000000000000000000000000000000000000000000000000000000000000290000000000000000000000000000000000000000000000000000000000000000000000000000000000000000000000000000000000000000000000000000000000000000000000000000000000000000000000000000000000000000000000000000000000000000000000000000000000000000000000000000000000000000000000000000000000000000000000000000000000000000000000000000000000000000000000000000000000000000000000000000000000000000000000000000000000000000000000000000000000000000000000000000000000000000000000000000000000000000000000
#0393c1:12
#039381:0022000000000000
#039360:0012000000000000
#039320:00220000
#0393c1:00120000
#039381:0000002200000000
#039360:0000001200000000
#039320:0022
#039381:00001232
#0393c1:0000000000320022
#039370:0000000000000012
#040320:32
#040360:0023000000000000
#041380:0013002300000000
#041350:00530000
#041350:0000000000130023
#041380:00000053
#042320:0000162300000000
#042380:0000000000000016
#043350:26
#043321:13332300
#043361:0053003300000000
#043370:00001333
#0433b0:0000000000330053
#044370:23
#045370:13000000005300003300000000000000
#0453b0:00530000330000000053000023000000
#045361:00000015
#046321:22
#046370:12
#047320:5c
#047340:0052
#047380:00000055
#048350:52
#0483c0:0052
#049380:26
#049360:00000000130000230000000000000000
#049320:0000000000000000000000530000000000000000000000000000000000000000
#050380:0000000016260000
#050350:00000000000000000000001626000000
#051320:0013000000000000
#051360:00230000
#0513b0:00000000001300000000000000000000
#051370:00000000000000230000000000000000
#051320:0013
#051360:0000000000230000
#0523b0:0013000000000000
#052370:00230000
#052370:00000000001300000000000000000000
#0523b0:00000000000000230000000000000000
#052320:0013
#052360:0000000000230000
#052360:00000000000000000000001300000000
#052320:00000000000000000000000000230000
#053370:00000000130000230000000000000000
#0533b0:0000000000000000000000530000000000000000000000000000000000000000
#0553b0:0013000000000000
#055370:00230000
#055320:00000000001300000000000000000000
#055360:00000000000000230000000000000000
#0553b0:0013
#055370:0000000000230000
#056370:0012
#056320:0000000000220000
#056370:0000000000000012
#0573c0:22
#0573c0:0012
#057370:0000000000220000
#058370:12
#0583c0:0022000000000000
#058370:00000000000000000000001200000000
#0583c0:00000000000000000000000000220000
#060380:0012
#0603c0:0000000000323200
#060360:00000000000000000000000000533300
#061380:26
#061360:00000000000000000000001300000000
#061320:00000000000000000000000000230000
#0623a0:0000001400000024
#062350:0000000000540000
#063320:1323000000000000
#0633b0:0000000013230000
#064320:1323000000000000
#064320:0000001323000000
#064360:00000000000000000013000000000000
#0643b0:00000023
#064370:00000000000000000000000000130000
#065320:23
#065370:00132300
#065320:0000003300000000
#066370:00130000
#066320:0023
#067370:0013
#0673b0:0000000000230000
#067360:00000000000000000000001300000000
#067320:00000000000000000000000000230000
#069370:00000000000000000000001300000000
#0693b0:0000000000000023
#0703b0:00000000000000001323000000000000
#070351:00000000000000000013230000000000
#070380:00000000000000000000132300000000
#070321:00000000000000000000001323000000
#0703b0:00000000000000000000000013230000
#070351:00000000000000000000000000132300
#070380:00000000000000000000000000001323
#0713b0:13
#071360:0023000000000000
#071320:0013
#071370:0000000000230000
#0723b0:13
#072360:0023000000000000
#072320:000000000000000000000000000000000000000000000000000000000000000000000000000000000000000000000000000000000000000000000000000000000000000000000000000000000000000000000000000000000000000000000000000000000000000000000000000000000000000000000000000000000000000000000000000000000000000000000000000000000000000000000000000000000000000000000000000000000000000000000000000000000000000000000000000000000000000000000000000000000000000000000000000000000000000000000000000000000000000000000000000000000000000000000000000000000000000000000000000000000000000000000000000000000000000000000000000000000000000000000000000000000000000000000000000000000000000000000000000000000000000000000000000000000000000000000000000000000000000000000000000000000000000000000000000000000000000000000000000000000000000000000000000000000000000000000000000000000000000000000000000000000000000000000000000000000000000000000000000000000000000000000000000000000000000000000000000000000000000000000000000000000000000000000000000000000000000000000000000000000000000000000000000000000000000000000000000000000000000000000000000000000000000000000000000000000000000000000000000000000000000000000000000000000000000000000000000000000000000000000000000000000000000000000000000000000000000000000000000000000000000000000000000000000000000000000000000000000000000000000000000000000000000000000000000000000000000000000000000000000000000000000000000000000000000000000000000000000000000000000000000000000000000000000000000000000000000000000000000000000000000000000000000000000000000000000000000000000000000000000000000000000000000000000000000000000000000000000000000000000000000000000000000000000000000000000000000000000000000000000000000000000000000000000000000000000000000000000000000000000000000000000000000000000000000000000000000000000000000000000000000000000000000000000000000000000000000000000000000000000000000000000000000000000000000000000000000000000000000000000000130000000000000000000000000000000000000000000000000000000000000000000000000000000000000000000000000000000000000000000000000000000000000000000000000000000000000000000000000000000000000000000000000000000000000000000000000000000000000000000000000000000000000000000000000000000000000000000000000000000000000000000000000000000000000000000000000000000000000000000053570000000000000000000000000000000000000000000000000000000000000000000000000000000000000000000000000000000000000000000000370000000000000000000000000000000000000000000000000000000000000000000000000000000000000000000000000000000000000000000057000000000000000000000000000000000000000000000000000000000000000000000000000000000000000000000000000000000000000000000000000000000000000000000000000000000000000000000000000000000000000000000000000000000000000000000000000000000000000000000000000000000000000000000000000000000000000000000000000000000000000000000000000000000000000000000000000000000000000000000000000000000000000000000000000000000000000000000000000000000000000000000000000000000000000000000000000000000000000000000000000000000000000000000000000000000000000000000000000000000000000000000000000000000000000000000000000000000000000000000000000000000000000000000000000000000000000000000000000000000000000000000000000000000000000000000000000000000000000000000000000000000000000000000000000000000000000000000000000000000000000000000000000000000000000000000000000000000000000000000000000000000000000000000000000000000000000000000000000000000000000000000000000000000000000000000000000000000000000000000000000000000000000000000000000000000000000000000000000000000000000000000000000000000000000000000000000000000000000000000000000000000000000000000000000000000000000000000000000000000000000000000000000000000000000000000000000000000000000000000000000000000000000000000000000000000000000000000000000000000000000000000000000000000000000000000000000000000000000000000000
#072360:0000000000000000000000000000000000000000005300002300000000000000
#0723b1:000000000000000000000000000000000000000000000000000000000000000000000000000000000000000000000000000000000000000000000000000000000000000000000000000000000000000000000000000000000000000000000000000000000000000000000000000000000000000000000000000000000000000000000000000000000000000000000000000000000000000000000000000000000000000000000000000000000000000000000000000000000000000000000000000000000000000000000000000000000000000000000000000000000000000000000000000000000000000000000000000000000000000000000000000000000000000000000000000000000000000000000000000000000000000000000000000000000000000000000000000000000000000000000000000000000000000000000000000000000000000000000000000000000000000000000000000000000000000000000000000000000000000000000000000000000000000000000000000000000000000000000000000000000000000000000000000000000000000000000000000000000000000000000000000000000000000000000000000000000000000000000000000000000000000000000000000000000000000000000000000000000000000000000000000000000000000000000000000000000000000000000000000000000000000000000000000000000000000000000000000000000000000000000000000000000000000000000000000000000000000000000000000000000000000000000000000000000000000000000000000000000000000000000000000000000000000000000000000000000000000000000000000000000000000000000000000000000000000000000000000000000000000000000000000000000000000000000000000000000000000000000000000000000000000000000000000000000000000000000000000000000000000000000000000000000000000000000000000000000000000000000000000000000000000000000000000000000000000000000000000000000000000000000000000000000000000000000000000000000000000000000000000000000000000000000000000000000000000000000000000000000000000000000000000000000000000000000000000000000000000000000000000000000000000000000000000000000000000000000000000000000000000000000000000000000000000000000000000000000000000000000000000000000000000000000000000000000000000000000000000000000000000000000000000000000000000000000000000000000000000000000000000000000000000000000000000000000000000000000000000000000000000000000000000000000000000000000000000000000000000000000000000000000000000000000000000000000000000000000000000000000000000000000000000000000000000000000000000000000000000000000000000000000000000000000000000000000000000000000000000000000000000000000000000000000000000000000000000000000000000000000000000000000000000000000000000000000000000000000000000000000000000000000000000000000000000000000000000000000000000000000000000000000000000000000000000000000000000000000000000000000000000000000000000000000000000000000000000000000000000000000000000000000000000000000000000000000000000000000000000000000000000000000000000000000000000000000000000000000000000000000000000000000000000000000000000000000000000000000000000000000000000000000000000000000000000000000000000000000000000000000000000000000000000000000000000000000000000000000000130000000000000000000000000000000000000000000000000000000000000000000000000000000000000000000000000000000000000000000000000000000000000000000000000000000000000000000000000000000000000000000000000000000000000000000000000000000000000000000000000000000000000000000000000000000000000000000000000000000000000000000000000000000000000000000000000000000000000000000053000000000000000000000000000000000000000000000000000000000000000000000000000000000000000000000000000000000000000000000000000000000000000000000000000000000000000000000000000000000000000000000000000000000000000000000000000000000000000000000000000000000000000000000000000000000000000000000000000000000000000000000000000000000000000000000000000000000000000000000000000000000000000000000000000000000000000000000000000000000000000000000000000000000000000000000000000000000000000000000000000000000000000000000000000000000000000000000000000000000000000000000000000000000000000000000000000000000000000000000000
#072371:000000000000000000000000000000000000000000000000000000000000000000000000000000000000000000000000000000000000000000000000000000000000000000000000000000000000000000000000000000000000000000000000000000000000000000000000000000000000000000000000000000000000000000000000000000000000000000000000000000000000000000000000000000000000000000000000000000000000000000000000000000000000000000000000000000000000000000000000000000000000000000000000000000000000000000000000000000000000000000000000000000000000000000000000000000000000000000000000000000000000000000000000000000000000000000000000000000000000000000000000000000000000000000000000000000000000000000000000000000000000000000000000000000000000000000000000000000000000000000000000000000000000000000000000000000000000000000000000000000000000000000000000000000000000000000000000000000000000000000000000000000000000000000000000000000000000000000000000000000000000000000000000000000000000000000000000000000000000000000000000000000000000000000000000000000000000000000000000000000000000000000000000000000000000000000000000000000000000000000000000000000000000000000000000000000000000000000000000000000000000000000000000000000000000000000000000000000000000000000000000000000000000000000000000000000000000000000000000000000000000000000000000000000000000000000000000000000000000000000000000000000000000000000000000000000000000000000000000000000000000000000000000000000000000000000000000000000000000000000000000000000000000000000000000000000000000000000000000000000000000000000000000000000000000000000000000000000000000000000000000000000000000000000000000000000000000000000000000000000000000000000000000000000000000000000000000000000000000000000000000000000000000000000000000000000000000000000000000000000000000000000000000000000000000000000000000000000000000000000000000000000000000000000000000000000000000000000000000000000000000000000000000000000000000000000000000000000000000000000000000000000000000000000000000000000000000000000000000000000000000000000000000000000000000000000000000000000000000000000000000000000000000000000000000000000000000000000000000000000000000000000000000000000000000000000000000000000000000000000000000000000000000000000000000000000000000000000000000000000000000000000000000000000000000000000000000000000000000000000000000000000000000000000000000000000000000000000000000000000000000000000000000000000000000000000000000000000000000000000000000000000000000000000000000000000000000000000000000000000000000000000000000000000000000000000000000000000000000000000000000000000000000000000000000000000000000000000000000000000000000000000000000000000000000000000000000000000000000000000000000000000000000000000000000000000000000000000000000000000000000000000000000000000000000000000000000000000000000000000000000000000000000000000000000000000000000000000000000000000000000000000000000000000000000000000000000000000000000000000000000000000000000000000000000000000000000000000000000000000000000000000000000000000000000000000000000000000000000000000000000000000000000000000000000000000000000000000000000000000000000000000000000000000000000000000000000000000000000000000000000000000000000000000000000000000000000000000000000000000000000000000000000000000000000000000000000000000000000000000000000570000000000000000000000000000000000000000000000000000000000000000000000000000000000000000000000000000000000000000000000370000000000000000000000000000000000000000000000000000000000000000000000000000000000000000000000000000000000000000000057530000000000000000000000000000000000000000000000000000000000000000000000000000000000000000000000000000000000000000000000000000000000000000000000000000000000000000000000000000000000000000000000000000000000000000000000000000000000000000000000000000000000000000000000000000000000000000000000000000000000000000000000000000000000000000000000000000000000000000000000
#073371:23
#073320:13
#073360:0023000000000000
#0733b0:00130000
#073370:0000002300000000
#073320:00001323
#073370:0000000000330000
#073350:0000000000000013
#074320:33
#074350:0023000000000000
#073381:0000000000000013
#0743b1:33
#074381:0023000000000000
#075371:00130000
#075321:0000002300000000
#0753b0:0000001300000000
#075360:0023
#075320:000000000000000000000000000000000000000000000000000000000000000000000000000000000000135253000000
#075340:000000000000000000000000000000000000000000000000000000000000000000000000000000000000000000000000000000000000000000000000000000000000000000000000000000000000000000000000005300000000000000005200
#075350:000000000000000000000000000000000000000000000000000000000000000000000000000000000000000000000000000000000000000000000000000000000000000000000000000000000000000000000000000000520052005300000000
#075330:000000000000000000000000000000000000000000000000000000000000000000000000000000000000000000525200
#075360:000000000000000000000000000000000000000000000000000000000000000000000000000000000000000000000000000000000000000000000000000000000000000000000000000000000000000000000000000000000000000000530053
#076340:53
#076370:005200530000000000005200230000000000000000000000000000000000000000000000000000000000000000000000000000000000000000000000000000000000000000000000000000000000000000000000000000000000000000000000
#076350:005200000000000000000000000000000000000000000000000000000000000000000000000000000000000000000000
#076360:000052525200000000000000000000000000000000000000000000000000000000000000000000000000000000000000
#076380:000000000052005300000053000000000000000000000000000000000000000000000000000000000000000000000000000000000000000000000000000000000000000000000000000000000000000000000000000000000000000000000000
#076390:0000005300000000000000000000000000000000000000000000000000000000
#0763b0:000000000000000000000000000000000000000000000000000000000000000000000000000000000000000000000000000000000000000000000000000000000000000000000000000000000000000000000000000000000000000000000000000000000000000000000000000000000000000000000000000000000000000000000000000000000000000000000000000000000000000000000000000000000000000000000000000000000000000000000000000000000000000000000000000000000000000000000000000000000000000000000000000000000000000000000000000000000000000000000000000000000000000000000000000000000000000000000000000000000000000000000000000000000000000000000000000000000000000000000000000000000000000000000000000000000000000000000000000000000000000000000000000000000000000000000000000000000000000000000000000000000000000000000000000000000000000000000000000000000000000000000000000000000000000000000000000000000000000000000000000000000000000000000000000000000000000000000000000000000000000000000000000000000000000000000000000000000000000000000000000000000000000000000000000000000000000000000000000000000000000000000000000000000000000000000000000000000000000000000000000000000000000000000000000000000000000000000000000000000000000000000000000000000000000000000000000000000000000000000000000000000000000000000000000000000000000000000000000000000000000000000000000000000000000000000000000000000000000000000000000000000000000000000000000000000000000000000000000000000000000000000000000000000000000000000000000000000000000000000000000000000000000000000000000000000000000000000000000000000000000000000000000000000000000000000000000000000000000000000000000000000000000000000000000000000000000000000000000000000000000000000000000000000000000000000000000000000000000000000000000000000000000000000000000000000000000000000000000000000000000000000000000000000000000000000000000000000000000000000000000000000000000000000000000000000000000000000000000000000000000000000000000000000000000000000000000000000000000000000000000000000000000000000000000000000000000000000000000000000000000000000000000000000000000000000000000000000000000000000000000000000000000000000000000000000000000000000000000000000000000000000000000000000000000000000000000000000000000000000000000000000000000000000000000000000000000000000000000000000000000000000000000000000000000000000000000000000000000000000000000000000000000000000000000000000000000000000000000000000000000000000000000000000000000000000000000000000000000000000000130000000000000000000000000000000000000000000000000000000000000000000000000000000000000000000000000000000000000000000000000000000000000000000000000000000000000000000000000000000000000000000000000000000000000000000000000000000000000000000053000000000000000000000000000000000000000000000000000000000000000000000000000000000000000000000000000000000000000000000000000000000000000000000000000000000000000000000000000000000000000000000000000000000000000000000000000000000000000000000000000000000000000000000000000000000000000000000000000000000000000000000000000000000000000000000000000000000000000000000000000000000000000000000000000000000000000000000000000000000000000000000000000000000000000000000000000000000000000000000000000000000000000000000000000000000000000000000000000000000000000000000000000000000000000000000000000000000000000000000000000000000000000000000000000000000000000000000000000000000000000000000000000000000000000000000000000000000000000000000000000000000000000000000000000000000000000000000000000000000000000000000000000000000000000000000000000000000000000000000000000000000000000000000000000000000000000000000000000000000000000000000000000000000000000000000000000000000000000000000000000000000000000000000000000000000000000000000000000000000000000000000000000000000000000000000000000000000000000000000000000000000000000000000000000000000000000000000000000000000000000000000000000000000000000000000000000000000000000000000000
#076380:000000000000000000000000000000000000000000000000000000000000000000000000000000000000000000000000000000000000000000000000000000000000000000000000000000000000000000000000000000000000000000000000000000000000000000000000000000000000000000000000000000000000000000000000000000000000000000000000000000000000000000000000000000000000000000000000000000000000000000000000000000000000000000000000000000000000000000000000000000000000000000000000000000000000000000000000000000000000000000000000000000000000000000000000000000000000000000000000000000000000000000000000000000000000000000000000000000000000000000000000000000000000000000000000000000000000000000000000000000000000000000000000000000000000000000000000000000000000000000000000000000000000000000000000000000000000000000000000000000000000000000000000000000000000000000000000000000000000000000000000000000000000000000000000000000000000000000000000000000000000000000000000000000000000000000000000000000000000000000000000000000000000000000000000000000000000000000000000000000000000000000000000000000000000000000000000000000000000000000000000000000000000000000000000000000000000000000000000000000000000000000000000000000000000000000000000000000000000000000000000000000000000000000000000000000000000000000000000000000000000000000000000000000000000000000000000000000000000000000000000000000000000000000000000000000000000000000000000000000000000000000000000000000000000000000000000000000000000000000000000000000000000000000000000000000000000000000000000000000000000000000000000000000000000000000000000000000000000000000000000000000000000000000000000000000000000000000000000000000000000000000000000000000000000000000000000000000000000000000000000000000000000000000000000000000000000000000000000000000000000000000000000000000000000000000000000000000000000000000000000000000000000000000000000000000000000000000000000000000000000000000000000000000000000000000000000000000000000000000000000000000000000000000000000000000000000000000000000000000000000000000000000000000000000000000000000000000000000000000000000000000000000000000000000000000000000000000000000000000000000000000000000000000000000000000000000000000000000000000000000000000000000000000000000000000000000000000000000000000000000000000000000000000000000000000000000000000000000000000000000000000000000000000000000000000000000000000000000000000000000000000000000000000000000000000000000000000000000000000000000000000000000000000000000000000000000000000000000000000000000000000000000000000000000000000000000000000000000000000000000000000000000000000000000000000000000000000000000000000000000000000000000000000000000000000000000000000000000000000000000560000000000000000000000000000000000000000000000000000000000000000000000000000000000000000000000000000000000000000000000000000000000000000000000000000000000000000000000000000000000000000000000000000000000000000000000000000000000000000000000360000000000000000000000000000000000000000000000000000000000000000000000000000000000000000000000000000000000000000000000000000000000000000000000000000000000000000000000000000000000000000000000000000000000000000000000000000000000000000000056000000000000000000000000000000000000000000000000000000000000000000000000000000000000000000000000000000000000000000000000000000000000000000000000000000000000000000000000000000000000000000000000000000000000000000000000000000000000000000000000000000000000000000000000000000000000000000000000000000000000000000000000000000000000000000000000000000000000000000000000000000000000000000000000000000000000000000000000000000000000000000000000000000000000000000000000000000000000000000000000000000000000000000000000000000000000000000000000000000000000000000000000000000000000000000000000000000000000000000000000000000000000000000000000000000000000000000000000000000000000000000000000000000000000000000000000000000000000000000000000
#076350:00000000000000000000000000592900
#077320:12
#077360:0022000000000000
#077381:0012000000000000
#0773c1:00220000
#077320:00120000
#077360:0000002200000000
#077381:0000001200000000
#0773c1:0022
#077360:00001232
#077320:0000000000320022
#077371:0000000000000012
#0783c1:32
#078371:0023000000000000
#079351:0013002300000000
#079381:00530000
#079381:0000000000130023
#079351:00000053
#080381:00160000
#0803b1:0000002300000000
#080321:0000000000000016
#081351:26
#0813b0:13332300
#081370:0053003300000000
#081361:00001333
#081321:0000000000330053
#082361:23
#082381:00000000000000000000000000000013
#083321:00000053000000000000000022000000
#083341:00000000005300000000000000000000
#083361:00000000000000530000000000000000
#0833b0:13000000000000530000000000000000
#083370:00000053000000000000000022000000
#083390:00000000005300000000000000000000
#084330:1a
#084370:00000052
#085330:0000005a00000000
#085320:000000000000000000000000000000000000000000000000000000000000000000000000000000000000000000000000000000000000000000000000000000000000000000000000000000005800000000000000580000000000000058000000000000005800000000000000580000000000000058000000000000580000000000580000000000580000000000580000000000580000000000580000000000580000000000580000000000580000000000580000000057000000570000005700
#085360:000000000000000000000000000000000000000000000000000000000000000000000000000000005800000058000000580000005800000058000000580000580000580000580000580000580000580000580000580000580000580000000000
#085370:000000000000000000000000000000000000000000000000000000000000000000000000000000000000000000005757
#086370:575757575757575757575757575700000000000000000000000000000000000000000000000000000000000000000000
#086320:005700570057005700570057005700570057005700570057005700572c00000000000000000000000000000000000000000000000000000000000000000000000000000000000000000000000000000000000000000000000000000000000000
